  0
SECTION
  2
HEADER
  9
$ACADVER
  1
AC1014
  9
$ACADMAINTVER
 70
     9
  9
$DWGCODEPAGE
  3
ANSI_932
  9
$INSBASE
 10
0.0
 20
0.0
 30
0.0
  9
$EXTMIN
 10
93.70318912448701
 20
199.0
 30
0.0
  9
$EXTMAX
 10
1521.0
 20
1321.781378248974
 30
0.0
  9
$LIMMIN
 10
0.0
 20
0.0
  9
$LIMMAX
 10
2000.0
 20
1414.0
  9
$ORTHOMODE
 70
     0
  9
$REGENMODE
 70
     1
  9
$FILLMODE
 70
     1
  9
$QTEXTMODE
 70
     0
  9
$MIRRTEXT
 70
     1
  9
$DRAGMODE
 70
     2
  9
$LTSCALE
 40
1.0
  9
$OSMODE
 70
    37
  9
$ATTMODE
 70
     1
  9
$TEXTSIZE
 40
2.5
  9
$TRACEWID
 40
1.0
  9
$TEXTSTYLE
  7
STANDARD
  9
$CLAYER
  8
LAY-1
  9
$CELTYPE
  6
BYLAYER
  9
$CECOLOR
 62
   256
  9
$CELTSCALE
 40
1.0
  9
$DELOBJ
 70
     1
  9
$DISPSILH
 70
     0
  9
$DIMSCALE
 40
1.0
  9
$DIMASZ
 40
2.5
  9
$DIMEXO
 40
0.625
  9
$DIMDLI
 40
3.75
  9
$DIMRND
 40
0.0
  9
$DIMDLE
 40
0.0
  9
$DIMEXE
 40
1.25
  9
$DIMTP
 40
0.0
  9
$DIMTM
 40
0.0
  9
$DIMTXT
 40
2.5
  9
$DIMCEN
 40
2.5
  9
$DIMTSZ
 40
0.0
  9
$DIMTOL
 70
     0
  9
$DIMLIM
 70
     0
  9
$DIMTIH
 70
     0
  9
$DIMTOH
 70
     0
  9
$DIMSE1
 70
     0
  9
$DIMSE2
 70
     0
  9
$DIMTAD
 70
     1
  9
$DIMZIN
 70
     8
  9
$DIMBLK
  1

  9
$DIMASO
 70
     1
  9
$DIMSHO
 70
     1
  9
$DIMPOST
  1

  9
$DIMAPOST
  1

  9
$DIMALT
 70
     0
  9
$DIMALTD
 70
     3
  9
$DIMALTF
 40
0.03937007874016
  9
$DIMLFAC
 40
1.0
  9
$DIMTOFL
 70
     1
  9
$DIMTVP
 40
0.0
  9
$DIMTIX
 70
     0
  9
$DIMSOXD
 70
     0
  9
$DIMSAH
 70
     0
  9
$DIMBLK1
  1

  9
$DIMBLK2
  1

  9
$DIMSTYLE
  2
ISO-25
  9
$DIMCLRD
 70
     0
  9
$DIMCLRE
 70
     0
  9
$DIMCLRT
 70
     0
  9
$DIMTFAC
 40
1.0
  9
$DIMGAP
 40
0.625
  9
$DIMJUST
 70
     0
  9
$DIMSD1
 70
     0
  9
$DIMSD2
 70
     0
  9
$DIMTOLJ
 70
     0
  9
$DIMTZIN
 70
     8
  9
$DIMALTZ
 70
     0
  9
$DIMALTTZ
 70
     0
  9
$DIMFIT
 70
     3
  9
$DIMUPT
 70
     0
  9
$DIMUNIT
 70
     2
  9
$DIMDEC
 70
     2
  9
$DIMTDEC
 70
     2
  9
$DIMALTU
 70
     2
  9
$DIMALTTD
 70
     3
  9
$DIMTXSTY
  7
STANDARD
  9
$DIMAUNIT
 70
     0
  9
$LUNITS
 70
     2
  9
$LUPREC
 70
     4
  9
$SKETCHINC
 40
1.0
  9
$FILLETRAD
 40
10.0
  9
$AUNITS
 70
     0
  9
$AUPREC
 70
     0
  9
$MENU
  1
.
  9
$ELEVATION
 40
0.0
  9
$PELEVATION
 40
0.0
  9
$THICKNESS
 40
0.0
  9
$LIMCHECK
 70
     0
  9
$CHAMFERA
 40
0.0
  9
$CHAMFERB
 40
0.0
  9
$CHAMFERC
 40
0.0
  9
$CHAMFERD
 40
0.0
  9
$SKPOLY
 70
     0
  9
$TDCREATE
 40
2460292.647499954
  9
$TDUPDATE
 40
2460292.647500104
  9
$TDINDWG
 40
0.0000000116
  9
$TDUSRTIMER
 40
0.0000000116
  9
$USRTIMER
 70
     1
  9
$ANGBASE
 50
0.0
  9
$ANGDIR
 70
     0
  9
$PDMODE
 70
     0
  9
$PDSIZE
 40
0.0
  9
$PLINEWID
 40
0.0
  9
$COORDS
 70
     1
  9
$SPLFRAME
 70
     0
  9
$SPLINETYPE
 70
     6
  9
$SPLINESEGS
 70
     8
  9
$ATTDIA
 70
     0
  9
$ATTREQ
 70
     1
  9
$HANDLING
 70
     1
  9
$HANDSEED
  5
783
  9
$SURFTAB1
 70
     6
  9
$SURFTAB2
 70
     6
  9
$SURFTYPE
 70
     6
  9
$SURFU
 70
     6
  9
$SURFV
 70
     6
  9
$UCSNAME
  2

  9
$UCSORG
 10
0.0
 20
0.0
 30
0.0
  9
$UCSXDIR
 10
1.0
 20
0.0
 30
0.0
  9
$UCSYDIR
 10
0.0
 20
1.0
 30
0.0
  9
$PUCSNAME
  2

  9
$PUCSORG
 10
0.0
 20
0.0
 30
0.0
  9
$PUCSXDIR
 10
1.0
 20
0.0
 30
0.0
  9
$PUCSYDIR
 10
0.0
 20
1.0
 30
0.0
  9
$USERI1
 70
     0
  9
$USERI2
 70
     0
  9
$USERI3
 70
     0
  9
$USERI4
 70
     0
  9
$USERI5
 70
     0
  9
$USERR1
 40
0.0
  9
$USERR2
 40
0.0
  9
$USERR3
 40
0.0
  9
$USERR4
 40
0.0
  9
$USERR5
 40
0.0
  9
$WORLDVIEW
 70
     1
  9
$SHADEDGE
 70
     3
  9
$SHADEDIF
 70
    70
  9
$TILEMODE
 70
     1
  9
$MAXACTVP
 70
    64
  9
$PINSBASE
 10
0.0
 20
0.0
 30
0.0
  9
$PLIMCHECK
 70
     0
  9
$PEXTMIN
 10
1.000000000000000E+20
 20
1.000000000000000E+20
 30
1.000000000000000E+20
  9
$PEXTMAX
 10
-1.000000000000000E+20
 20
-1.000000000000000E+20
 30
-1.000000000000000E+20
  9
$PLIMMIN
 10
0.0
 20
0.0
  9
$PLIMMAX
 10
420.0
 20
297.0
  9
$UNITMODE
 70
     0
  9
$VISRETAIN
 70
     1
  9
$PLINEGEN
 70
     0
  9
$PSLTSCALE
 70
     1
  9
$TREEDEPTH
 70
  3020
  9
$PICKSTYLE
 70
     1
  9
$CMLSTYLE
  2
STANDARD
  9
$CMLJUST
 70
     0
  9
$CMLSCALE
 40
20.0
  9
$PROXYGRAPHICS
 70
     1
  9
$MEASUREMENT
 70
     1
  0
ENDSEC
  0
SECTION
  2
CLASSES
  0
CLASS
  1
ACDBDICTIONARYWDFLT
  2
AcDbDictionaryWithDefault
  3
ObjectDBX Classes
 90
        0
280
     0
281
     0
  0
CLASS
  1
VISUALSTYLE
  2
AcDbVisualStyle
  3
ObjectDBX Classes
 90
     4095
280
     0
281
     0
  0
CLASS
  1
MATERIAL
  2
AcDbMaterial
  3
ObjectDBX Classes
 90
     1153
280
     0
281
     0
  0
CLASS
  1
SCALE
  2
AcDbScale
  3
ObjectDBX Classes
 90
     1153
280
     0
281
     0
  0
CLASS
  1
TABLESTYLE
  2
AcDbTableStyle
  3
ObjectDBX Classes
 90
     4095
280
     0
281
     0
  0
CLASS
  1
MLEADERSTYLE
  2
AcDbMLeaderStyle
  3
ACDB_MLEADERSTYLE_CLASS
 90
     4095
280
     0
281
     0
  0
CLASS
  1
SUN
  2
AcDbSun
  3
SCENEOE
 90
     1153
280
     0
281
     0
  0
CLASS
  1
DICTIONARYVAR
  2
AcDbDictionaryVar
  3
ObjectDBX Classes
 90
        0
280
     0
281
     0
  0
CLASS
  1
XRECORD
  2
AcDbXrecord
  3
ObjectDBX Classes
 90
        0
280
     0
281
     0
  0
CLASS
  1
LWPOLYLINE
  2
AcDbPolyline
  3
ObjectDBX Classes
 90
        0
280
     0
281
     1
  0
CLASS
  1
HATCH
  2
AcDbHatch
  3
ObjectDBX Classes
 90
        0
280
     0
281
     1
  0
CLASS
  1
ACDBPLACEHOLDER
  2
AcDbPlaceHolder
  3
ObjectDBX Classes
 90
        0
280
     0
281
     0
  0
CLASS
  1
LAYOUT
  2
AcDbLayout
  3
ObjectDBX Classes
 90
        0
280
     0
281
     0
  0
ENDSEC
  0
SECTION
  2
TABLES
  0
TABLE
  2
VPORT
  5
8
102
{ACAD_XDICTIONARY
360
778
102
}
330
0
100
AcDbSymbolTable
 70
     1
  0
VPORT
  5
29
330
8
100
AcDbSymbolTableRecord
100
AcDbViewportTableRecord
  2
*ACTIVE
 70
     0
 10
0.0
 20
0.0
 11
1.0
 21
1.0
 12
807.0
 22
761.0
 13
0.0
 23
0.0
 14
10.0
 24
10.0
 15
10.0
 25
10.0
 16
0.0
 26
0.0
 36
1.0
 17
0.0
 27
0.0
 37
0.0
 40
1124.0
 41
1.270462633451957
 42
50.0
 43
0.0
 44
0.0
 50
0.0
 51
0.0
 71
     0
 72
  1000
 73
     1
 74
     3
 75
     0
 76
     0
 77
     0
 78
     0
  0
ENDTAB
  0
TABLE
  2
LTYPE
  5
5
330
0
100
AcDbSymbolTable
 70
    12
  0
LTYPE
  5
14
330
5
100
AcDbSymbolTableRecord
100
AcDbLinetypeTableRecord
  2
BYBLOCK
 70
     0
  3

 72
    65
 73
     0
 40
0.0
  0
LTYPE
  5
15
330
5
100
AcDbSymbolTableRecord
100
AcDbLinetypeTableRecord
  2
BYLAYER
 70
     0
  3

 72
    65
 73
     0
 40
0.0
  0
LTYPE
  5
16
330
5
100
AcDbSymbolTableRecord
100
AcDbLinetypeTableRecord
  2
CONTINUOUS
 70
     0
  3
Solid line
 72
    65
 73
     0
 40
0.0
  0
LTYPE
  5
6E
330
5
100
AcDbSymbolTableRecord
100
AcDbLinetypeTableRecord
  2
EXLTYPE0
 70
     0
  3
一点鎖線2
 72
    65
 73
     4
 40
8.0
 49
5.0
 74
     0
 49
-1.0
 74
     0
 49
1.0
 74
     0
 49
-1.0
 74
     0
  0
LTYPE
  5
6F
330
5
100
AcDbSymbolTableRecord
100
AcDbLinetypeTableRecord
  2
EXLTYPE1
 70
     0
  3
点線
 72
    65
 73
     2
 40
2.0
 49
1.0
 74
     0
 49
-1.0
 74
     0
  0
LTYPE
  5
70
330
5
100
AcDbSymbolTableRecord
100
AcDbLinetypeTableRecord
  2
EXLTYPE2
 70
     0
  3
一点鎖線
 72
    65
 73
     4
 40
13.0
 49
10.0
 74
     0
 49
-1.0
 74
     0
 49
1.0
 74
     0
 49
-1.0
 74
     0
  0
LTYPE
  5
71
330
5
100
AcDbSymbolTableRecord
100
AcDbLinetypeTableRecord
  2
EXLTYPE3
 70
     0
  3
二点鎖線
 72
    65
 73
     6
 40
15.0
 49
10.0
 74
     0
 49
-1.0
 74
     0
 49
1.0
 74
     0
 49
-1.0
 74
     0
 49
1.0
 74
     0
 49
-1.0
 74
     0
  0
LTYPE
  5
72
330
5
100
AcDbSymbolTableRecord
100
AcDbLinetypeTableRecord
  2
EXLTYPE4
 70
     0
  3
破線
 72
    65
 73
     2
 40
3.0
 49
2.0
 74
     0
 49
-1.0
 74
     0
  0
LTYPE
  5
73
330
5
100
AcDbSymbolTableRecord
100
AcDbLinetypeTableRecord
  2
EXLTYPE5
 70
     0
  3
点線2
 72
    65
 73
     2
 40
1.0
 49
0.5
 74
     0
 49
-0.5
 74
     0
  0
LTYPE
  5
74
330
5
100
AcDbSymbolTableRecord
100
AcDbLinetypeTableRecord
  2
EXLTYPE6
 70
     0
  3
二点鎖線2
 72
    65
 73
     6
 40
7.5
 49
5.0
 74
     0
 49
-0.5
 74
     0
 49
0.5
 74
     0
 49
-0.5
 74
     0
 49
0.5
 74
     0
 49
-0.5
 74
     0
  0
LTYPE
  5
75
330
5
100
AcDbSymbolTableRecord
100
AcDbLinetypeTableRecord
  2
EXLTYPE7
 70
     0
  3
三点鎖線
 72
    65
 73
     8
 40
37.0
 49
30.0
 74
     0
 49
-1.0
 74
     0
 49
1.0
 74
     0
 49
-1.0
 74
     0
 49
1.0
 74
     0
 49
-1.0
 74
     0
 49
1.0
 74
     0
 49
-1.0
 74
     0
  0
LTYPE
  5
76
330
5
100
AcDbSymbolTableRecord
100
AcDbLinetypeTableRecord
  2
EXLTYPE8
 70
     0
  3
一点鎖線3
 72
    65
 73
     4
 40
33.0
 49
30.0
 74
     0
 49
-1.0
 74
     0
 49
1.0
 74
     0
 49
-1.0
 74
     0
  0
LTYPE
  5
77
330
5
100
AcDbSymbolTableRecord
100
AcDbLinetypeTableRecord
  2
EXLTYPE9
 70
     0
  3
二点鎖線3
 72
    65
 73
     6
 40
4.5
 49
2.0
 74
     0
 49
-0.5
 74
     0
 49
0.5
 74
     0
 49
-0.5
 74
     0
 49
0.5
 74
     0
 49
-0.5
 74
     0
  0
LTYPE
  5
78
330
5
100
AcDbSymbolTableRecord
100
AcDbLinetypeTableRecord
  2
EXLTYPE10
 70
     0
  3
四点鎖線
 72
    65
 73
    10
 40
39.0
 49
30.0
 74
     0
 49
-1.0
 74
     0
 49
1.0
 74
     0
 49
-1.0
 74
     0
 49
1.0
 74
     0
 49
-1.0
 74
     0
 49
1.0
 74
     0
 49
-1.0
 74
     0
 49
1.0
 74
     0
 49
-1.0
 74
     0
  0
ENDTAB
  0
TABLE
  2
LAYER
  5
2
330
0
100
AcDbSymbolTable
 70
     3
  0
LAYER
  5
10
330
2
100
AcDbSymbolTableRecord
100
AcDbLayerTableRecord
  2
0
 70
     0
 62
     7
  6
CONTINUOUS
  0
LAYER
  5
7B
330
2
100
AcDbSymbolTableRecord
100
AcDbLayerTableRecord
  2
LAY-1
 70
     0
 62
     7
  6
CONTINUOUS
  0
LAYER
  5
6B5
330
2
100
AcDbSymbolTableRecord
100
AcDbLayerTableRecord
  2
DEFPOINTS
 70
     0
 62
     7
  6
CONTINUOUS
  0
ENDTAB
  0
TABLE
  2
STYLE
  5
3
330
0
100
AcDbSymbolTable
 70
     5
  0
STYLE
  5
11
330
3
100
AcDbSymbolTableRecord
100
AcDbTextStyleTableRecord
  2
STANDARD
 70
     0
 40
0.0
 41
1.0
 50
0.0
 71
     0
 42
2.5
  3
monotxt
  4
extfont
  0
STYLE
  5
79
330
3
100
AcDbSymbolTableRecord
100
AcDbTextStyleTableRecord
  2
EXCADSTD
 70
     0
 40
0.0
 41
1.0
 50
0.0
 71
     0
 42
2.5
  3
monotxt
  4
extfont
  0
STYLE
  5
7A
330
3
100
AcDbSymbolTableRecord
100
AcDbTextStyleTableRecord
  2
EXCADVERT
 70
     4
 40
0.0
 41
1.0
 50
0.0
 71
     0
 42
2.5
  3
monotxt
  4
extfont
  0
STYLE
  5
6B0
330
3
100
AcDbSymbolTableRecord
100
AcDbTextStyleTableRecord
  2
EXCADTTF1
 70
     0
 40
0.0
 41
1.0
 50
0.0
 71
     0
 42
2.5
  3
msmincho.ttc
  4

1001
ACAD
1000
MS Mincho
1071
    32785
  0
STYLE
  5
6B3
330
3
100
AcDbSymbolTableRecord
100
AcDbTextStyleTableRecord
  2
EXCADDIM1
 70
     0
 40
0.0
 41
1.0
 50
0.0
 71
     0
 42
2.5
  3
msmincho.ttc
  4

1001
ACAD
1000
MS Mincho
1071
    32785
  0
ENDTAB
  0
TABLE
  2
VIEW
  5
6
330
0
100
AcDbSymbolTable
 70
     0
  0
ENDTAB
  0
TABLE
  2
UCS
  5
7
330
0
100
AcDbSymbolTable
 70
     0
  0
ENDTAB
  0
TABLE
  2
APPID
  5
9
330
0
100
AcDbSymbolTable
 70
     2
  0
APPID
  5
12
330
9
100
AcDbSymbolTableRecord
100
AcDbRegAppTableRecord
  2
ACAD
 70
     0
  0
APPID
  5
782
330
9
100
AcDbSymbolTableRecord
100
AcDbRegAppTableRecord
  2
ACAD_MLEADERVER
 70
     0
  0
ENDTAB
  0
TABLE
  2
DIMSTYLE
  5
A
330
0
100
AcDbSymbolTable
 70
     1
  0
DIMSTYLE
105
27
102
{ACAD_REACTORS
330
6B4
330
6C2
330
6CF
330
6DC
330
703
330
710
330
71D
330
72A
330
737
102
}
330
A
100
AcDbSymbolTableRecord
100
AcDbDimStyleTableRecord
  2
ISO-25
 70
     0
  3

  4

  5

  6

  7

 40
1.0
 41
2.5
 42
0.625
 43
3.75
 44
1.25
 45
0.0
 46
0.0
 47
0.0
 48
0.0
140
2.5
141
2.5
142
0.0
143
0.03937007874016
144
1.0
145
0.0
146
1.0
147
0.625
 71
     0
 72
     0
 73
     0
 74
     0
 75
     0
 76
     0
 77
     1
 78
     8
170
     0
171
     3
172
     1
173
     0
174
     0
175
     0
176
     0
177
     0
178
     0
270
     2
271
     2
272
     2
273
     2
274
     3
340
11
275
     0
280
     0
281
     0
282
     0
283
     0
284
     8
285
     0
286
     0
287
     5
288
     0
  0
ENDTAB
  0
TABLE
  2
BLOCK_RECORD
  5
1
330
0
100
AcDbSymbolTable
 70
    23
  0
BLOCK_RECORD
  5
1F
330
1
100
AcDbSymbolTableRecord
100
AcDbBlockTableRecord
  2
*MODEL_SPACE
  0
BLOCK_RECORD
  5
1B
330
1
100
AcDbSymbolTableRecord
100
AcDbBlockTableRecord
  2
*PAPER_SPACE
  0
BLOCK_RECORD
  5
7C
330
1
100
AcDbSymbolTableRecord
100
AcDbBlockTableRecord
  2
EX_NORM
  0
BLOCK_RECORD
  5
7F
330
1
100
AcDbSymbolTableRecord
100
AcDbBlockTableRecord
  2
EX_BNORM
  0
BLOCK_RECORD
  5
82
330
1
100
AcDbSymbolTableRecord
100
AcDbBlockTableRecord
  2
EX_BCIR
  0
BLOCK_RECORD
  5
85
330
1
100
AcDbSymbolTableRecord
100
AcDbBlockTableRecord
  2
EX_RCIVIL
  0
BLOCK_RECORD
  5
88
330
1
100
AcDbSymbolTableRecord
100
AcDbBlockTableRecord
  2
EX_SLANT
  0
BLOCK_RECORD
  5
8B
330
1
100
AcDbSymbolTableRecord
100
AcDbBlockTableRecord
  2
EX_NONE
  0
BLOCK_RECORD
  5
8E
330
1
100
AcDbSymbolTableRecord
100
AcDbBlockTableRecord
  2
EX_CIVIL
  0
BLOCK_RECORD
  5
91
330
1
100
AcDbSymbolTableRecord
100
AcDbBlockTableRecord
  2
EX_WCIR
  0
BLOCK_RECORD
  5
94
330
1
100
AcDbSymbolTableRecord
100
AcDbBlockTableRecord
  2
EX_WCIR2
  0
BLOCK_RECORD
  5
97
330
1
100
AcDbSymbolTableRecord
100
AcDbBlockTableRecord
  2
EX_WNORM
  0
BLOCK_RECORD
  5
9A
330
1
100
AcDbSymbolTableRecord
100
AcDbBlockTableRecord
  2
EX_NNORM
  0
BLOCK_RECORD
  5
9D
330
1
100
AcDbSymbolTableRecord
100
AcDbBlockTableRecord
  2
EX_BBOX
  0
BLOCK_RECORD
  5
A0
330
1
100
AcDbSymbolTableRecord
100
AcDbBlockTableRecord
  2
EX_WBOX
  0
BLOCK_RECORD
  5
A3
330
1
100
AcDbSymbolTableRecord
100
AcDbBlockTableRecord
  2
EX_INTEGRAL
  0
BLOCK_RECORD
  5
6B6
330
1
100
AcDbSymbolTableRecord
100
AcDbBlockTableRecord
  2
*D15
  0
BLOCK_RECORD
  5
6C3
330
1
100
AcDbSymbolTableRecord
100
AcDbBlockTableRecord
  2
*D16
  0
BLOCK_RECORD
  5
6D0
330
1
100
AcDbSymbolTableRecord
100
AcDbBlockTableRecord
  2
*D17
  0
BLOCK_RECORD
  5
6DD
330
1
100
AcDbSymbolTableRecord
100
AcDbBlockTableRecord
  2
*D18
  0
BLOCK_RECORD
  5
704
330
1
100
AcDbSymbolTableRecord
100
AcDbBlockTableRecord
  2
*D19
  0
BLOCK_RECORD
  5
711
330
1
100
AcDbSymbolTableRecord
100
AcDbBlockTableRecord
  2
*D20
  0
BLOCK_RECORD
  5
71E
330
1
100
AcDbSymbolTableRecord
100
AcDbBlockTableRecord
  2
*D21
  0
BLOCK_RECORD
  5
72B
330
1
100
AcDbSymbolTableRecord
100
AcDbBlockTableRecord
  2
*D22
  0
BLOCK_RECORD
  5
738
330
1
100
AcDbSymbolTableRecord
100
AcDbBlockTableRecord
  2
*D23
  0
ENDTAB
  0
ENDSEC
  0
SECTION
  2
BLOCKS
  0
BLOCK
  5
20
330
1F
100
AcDbEntity
  8
0
100
AcDbBlockBegin
  2
*MODEL_SPACE
 70
     0
 10
0.0
 20
0.0
 30
0.0
  3
*MODEL_SPACE
  1

  0
ENDBLK
  5
21
330
1F
100
AcDbEntity
  8
0
100
AcDbBlockEnd
  0
BLOCK
  5
1C
330
1B
100
AcDbEntity
 67
     1
  8
0
100
AcDbBlockBegin
  2
*PAPER_SPACE
 70
     0
 10
0.0
 20
0.0
 30
0.0
  3
*PAPER_SPACE
  1

  0
ENDBLK
  5
1D
330
1B
100
AcDbEntity
 67
     1
  8
0
100
AcDbBlockEnd
  0
BLOCK
  5
7D
330
7C
100
AcDbEntity
  8
0
100
AcDbBlockBegin
  2
EX_NORM
 70
     0
 10
0.0
 20
0.0
 30
0.0
  3
EX_NORM
  1

  0
LINE
  5
A6
330
7C
100
AcDbEntity
  8
0
  6
CONTINUOUS
 62
     0
100
AcDbLine
 10
0.0
 20
0.0
 30
0.0
 11
-1.0
 21
0.0
 31
0.0
  0
LINE
  5
A7
330
7C
100
AcDbEntity
  8
0
  6
CONTINUOUS
 62
     0
100
AcDbLine
 10
0.0
 20
0.0
 30
0.0
 11
-1.0
 21
0.166666667
 31
0.0
  0
LINE
  5
A8
330
7C
100
AcDbEntity
  8
0
  6
CONTINUOUS
 62
     0
100
AcDbLine
 10
0.0
 20
0.0
 30
0.0
 11
-1.0
 21
-0.166666667
 31
0.0
  0
ENDBLK
  5
7E
330
7C
100
AcDbEntity
  8
0
100
AcDbBlockEnd
  0
BLOCK
  5
80
330
7F
100
AcDbEntity
  8
0
100
AcDbBlockBegin
  2
EX_BNORM
 70
     0
 10
0.0
 20
0.0
 30
0.0
  3
EX_BNORM
  1

  0
LINE
  5
A9
330
7F
100
AcDbEntity
  8
0
  6
CONTINUOUS
 62
     0
100
AcDbLine
 10
0.0
 20
0.0
 30
0.0
 11
-1.0
 21
0.0
 31
0.0
  0
LINE
  5
AA
330
7F
100
AcDbEntity
  8
0
  6
CONTINUOUS
 62
     0
100
AcDbLine
 10
0.0
 20
0.0
 30
0.0
 11
-1.0
 21
0.166666667
 31
0.0
  0
LINE
  5
AB
330
7F
100
AcDbEntity
  8
0
  6
CONTINUOUS
 62
     0
100
AcDbLine
 10
0.0
 20
0.0
 30
0.0
 11
-1.0
 21
-0.166666667
 31
0.0
  0
LINE
  5
AC
330
7F
100
AcDbEntity
  8
0
  6
CONTINUOUS
 62
     0
100
AcDbLine
 10
0.0
 20
0.0
 30
0.0
 11
-1.0
 21
0.083333333
 31
0.0
  0
LINE
  5
AD
330
7F
100
AcDbEntity
  8
0
  6
CONTINUOUS
 62
     0
100
AcDbLine
 10
0.0
 20
0.0
 30
0.0
 11
-1.0
 21
-0.083333333
 31
0.0
  0
LINE
  5
AE
330
7F
100
AcDbEntity
  8
0
  6
CONTINUOUS
 62
     0
100
AcDbLine
 10
-1.0
 20
0.166666667
 30
0.0
 11
-1.0
 21
-0.166666667
 31
0.0
  0
ENDBLK
  5
81
330
7F
100
AcDbEntity
  8
0
100
AcDbBlockEnd
  0
BLOCK
  5
83
330
82
100
AcDbEntity
  8
0
100
AcDbBlockBegin
  2
EX_BCIR
 70
     0
 10
0.0
 20
0.0
 30
0.0
  3
EX_BCIR
  1

  0
LINE
  5
AF
330
82
100
AcDbEntity
  8
0
  6
CONTINUOUS
 62
     0
100
AcDbLine
 10
0.0
 20
0.0
 30
0.0
 11
-1.0
 21
0.0
 31
0.0
  0
CIRCLE
  5
B0
330
82
100
AcDbEntity
  8
0
  6
CONTINUOUS
 62
     0
100
AcDbCircle
 10
0.0
 20
0.0
 30
0.0
 40
0.5
  0
CIRCLE
  5
B1
330
82
100
AcDbEntity
  8
0
  6
CONTINUOUS
 62
     0
100
AcDbCircle
 10
0.0
 20
0.0
 30
0.0
 40
0.25
  0
ENDBLK
  5
84
330
82
100
AcDbEntity
  8
0
100
AcDbBlockEnd
  0
BLOCK
  5
86
330
85
100
AcDbEntity
  8
0
100
AcDbBlockBegin
  2
EX_RCIVIL
 70
     0
 10
0.0
 20
0.0
 30
0.0
  3
EX_RCIVIL
  1

  0
LINE
  5
B2
330
85
100
AcDbEntity
  8
0
  6
CONTINUOUS
 62
     0
100
AcDbLine
 10
0.0
 20
0.0
 30
0.0
 11
-1.0
 21
0.0
 31
0.0
  0
LINE
  5
B3
330
85
100
AcDbEntity
  8
0
  6
CONTINUOUS
 62
     0
100
AcDbLine
 10
-1.0
 20
-0.25
 30
0.0
 11
0.0
 21
-0.25
 31
0.0
  0
LINE
  5
B4
330
85
100
AcDbEntity
  8
0
  6
CONTINUOUS
 62
     0
100
AcDbLine
 10
-1.0
 20
-0.125
 30
0.0
 11
0.0
 21
-0.125
 31
0.0
  0
ENDBLK
  5
87
330
85
100
AcDbEntity
  8
0
100
AcDbBlockEnd
  0
BLOCK
  5
89
330
88
100
AcDbEntity
  8
0
100
AcDbBlockBegin
  2
EX_SLANT
 70
     0
 10
0.0
 20
0.0
 30
0.0
  3
EX_SLANT
  1

  0
LINE
  5
B5
330
88
100
AcDbEntity
  8
0
  6
CONTINUOUS
 62
     0
100
AcDbLine
 10
0.0
 20
0.0
 30
0.0
 11
-1.0
 21
0.0
 31
0.0
  0
LINE
  5
B6
330
88
100
AcDbEntity
  8
0
  6
CONTINUOUS
 62
     0
100
AcDbLine
 10
0.707106781
 20
0.707106781
 30
0.0
 11
-0.707106781
 21
-0.707106781
 31
0.0
  0
ENDBLK
  5
8A
330
88
100
AcDbEntity
  8
0
100
AcDbBlockEnd
  0
BLOCK
  5
8C
330
8B
100
AcDbEntity
  8
0
100
AcDbBlockBegin
  2
EX_NONE
 70
     0
 10
0.0
 20
0.0
 30
0.0
  3
EX_NONE
  1

  0
LINE
  5
B7
330
8B
100
AcDbEntity
  8
0
  6
CONTINUOUS
 62
     0
100
AcDbLine
 10
0.0
 20
0.0
 30
0.0
 11
-1.0
 21
0.0
 31
0.0
  0
ENDBLK
  5
8D
330
8B
100
AcDbEntity
  8
0
100
AcDbBlockEnd
  0
BLOCK
  5
8F
330
8E
100
AcDbEntity
  8
0
100
AcDbBlockBegin
  2
EX_CIVIL
 70
     0
 10
0.0
 20
0.0
 30
0.0
  3
EX_CIVIL
  1

  0
LINE
  5
B8
330
8E
100
AcDbEntity
  8
0
  6
CONTINUOUS
 62
     0
100
AcDbLine
 10
0.0
 20
0.0
 30
0.0
 11
-1.0
 21
0.0
 31
0.0
  0
LINE
  5
B9
330
8E
100
AcDbEntity
  8
0
  6
CONTINUOUS
 62
     0
100
AcDbLine
 10
-1.0
 20
0.25
 30
0.0
 11
0.0
 21
0.25
 31
0.0
  0
LINE
  5
BA
330
8E
100
AcDbEntity
  8
0
  6
CONTINUOUS
 62
     0
100
AcDbLine
 10
-1.0
 20
0.125
 30
0.0
 11
0.0
 21
0.125
 31
0.0
  0
ENDBLK
  5
90
330
8E
100
AcDbEntity
  8
0
100
AcDbBlockEnd
  0
BLOCK
  5
92
330
91
100
AcDbEntity
  8
0
100
AcDbBlockBegin
  2
EX_WCIR
 70
     0
 10
0.0
 20
0.0
 30
0.0
  3
EX_WCIR
  1

  0
LINE
  5
BB
330
91
100
AcDbEntity
  8
0
  6
CONTINUOUS
 62
     0
100
AcDbLine
 10
0.0
 20
0.0
 30
0.0
 11
-1.0
 21
0.0
 31
0.0
  0
CIRCLE
  5
BC
330
91
100
AcDbEntity
  8
0
  6
CONTINUOUS
 62
     0
100
AcDbCircle
 10
0.0
 20
0.0
 30
0.0
 40
0.5
  0
ENDBLK
  5
93
330
91
100
AcDbEntity
  8
0
100
AcDbBlockEnd
  0
BLOCK
  5
95
330
94
100
AcDbEntity
  8
0
100
AcDbBlockBegin
  2
EX_WCIR2
 70
     0
 10
0.0
 20
0.0
 30
0.0
  3
EX_WCIR2
  1

  0
LINE
  5
BD
330
94
100
AcDbEntity
  8
0
  6
CONTINUOUS
 62
     0
100
AcDbLine
 10
-0.5
 20
0.0
 30
0.0
 11
-1.0
 21
0.0
 31
0.0
  0
CIRCLE
  5
BE
330
94
100
AcDbEntity
  8
0
  6
CONTINUOUS
 62
     0
100
AcDbCircle
 10
0.0
 20
0.0
 30
0.0
 40
0.5
  0
ENDBLK
  5
96
330
94
100
AcDbEntity
  8
0
100
AcDbBlockEnd
  0
BLOCK
  5
98
330
97
100
AcDbEntity
  8
0
100
AcDbBlockBegin
  2
EX_WNORM
 70
     0
 10
0.0
 20
0.0
 30
0.0
  3
EX_WNORM
  1

  0
LINE
  5
BF
330
97
100
AcDbEntity
  8
0
  6
CONTINUOUS
 62
     0
100
AcDbLine
 10
-1.0
 20
0.0
 30
0.0
 11
-1.0
 21
0.0
 31
0.0
  0
LINE
  5
C0
330
97
100
AcDbEntity
  8
0
  6
CONTINUOUS
 62
     0
100
AcDbLine
 10
0.0
 20
0.0
 30
0.0
 11
-1.0
 21
0.166666667
 31
0.0
  0
LINE
  5
C1
330
97
100
AcDbEntity
  8
0
  6
CONTINUOUS
 62
     0
100
AcDbLine
 10
0.0
 20
0.0
 30
0.0
 11
-1.0
 21
-0.166666667
 31
0.0
  0
LINE
  5
C2
330
97
100
AcDbEntity
  8
0
  6
CONTINUOUS
 62
     0
100
AcDbLine
 10
-1.0
 20
0.166666667
 30
0.0
 11
-1.0
 21
-0.166666667
 31
0.0
  0
ENDBLK
  5
99
330
97
100
AcDbEntity
  8
0
100
AcDbBlockEnd
  0
BLOCK
  5
9B
330
9A
100
AcDbEntity
  8
0
100
AcDbBlockBegin
  2
EX_NNORM
 70
     0
 10
0.0
 20
0.0
 30
0.0
  3
EX_NNORM
  1

  0
LINE
  5
C3
330
9A
100
AcDbEntity
  8
0
  6
CONTINUOUS
 62
     0
100
AcDbLine
 10
0.0
 20
0.0
 30
0.0
 11
-1.0
 21
0.0
 31
0.0
  0
LINE
  5
C4
330
9A
100
AcDbEntity
  8
0
  6
CONTINUOUS
 62
     0
100
AcDbLine
 10
0.0
 20
0.0
 30
0.0
 11
-1.0
 21
0.166666667
 31
0.0
  0
LINE
  5
C5
330
9A
100
AcDbEntity
  8
0
  6
CONTINUOUS
 62
     0
100
AcDbLine
 10
0.0
 20
0.0
 30
0.0
 11
-1.0
 21
-0.166666667
 31
0.0
  0
LINE
  5
C6
330
9A
100
AcDbEntity
  8
0
  6
CONTINUOUS
 62
     0
100
AcDbLine
 10
-1.0
 20
0.166666667
 30
0.0
 11
-1.0
 21
-0.166666667
 31
0.0
  0
ENDBLK
  5
9C
330
9A
100
AcDbEntity
  8
0
100
AcDbBlockEnd
  0
BLOCK
  5
9E
330
9D
100
AcDbEntity
  8
0
100
AcDbBlockBegin
  2
EX_BBOX
 70
     0
 10
0.0
 20
0.0
 30
0.0
  3
EX_BBOX
  1

  0
LINE
  5
C7
330
9D
100
AcDbEntity
  8
0
  6
CONTINUOUS
 62
     0
100
AcDbLine
 10
0.0
 20
0.0
 30
0.0
 11
-1.0
 21
0.0
 31
0.0
  0
LINE
  5
C8
330
9D
100
AcDbEntity
  8
0
  6
CONTINUOUS
 62
     0
100
AcDbLine
 10
-0.5
 20
0.5
 30
0.0
 11
0.5
 21
0.5
 31
0.0
  0
LINE
  5
C9
330
9D
100
AcDbEntity
  8
0
  6
CONTINUOUS
 62
     0
100
AcDbLine
 10
0.5
 20
0.5
 30
0.0
 11
0.5
 21
-0.5
 31
0.0
  0
LINE
  5
CA
330
9D
100
AcDbEntity
  8
0
  6
CONTINUOUS
 62
     0
100
AcDbLine
 10
0.5
 20
-0.5
 30
0.0
 11
-0.5
 21
-0.5
 31
0.0
  0
LINE
  5
CB
330
9D
100
AcDbEntity
  8
0
  6
CONTINUOUS
 62
     0
100
AcDbLine
 10
-0.5
 20
-0.5
 30
0.0
 11
-0.5
 21
0.5
 31
0.0
  0
LINE
  5
CC
330
9D
100
AcDbEntity
  8
0
  6
CONTINUOUS
 62
     0
100
AcDbLine
 10
-0.25
 20
0.25
 30
0.0
 11
0.25
 21
0.25
 31
0.0
  0
LINE
  5
CD
330
9D
100
AcDbEntity
  8
0
  6
CONTINUOUS
 62
     0
100
AcDbLine
 10
0.25
 20
0.25
 30
0.0
 11
0.25
 21
-0.25
 31
0.0
  0
LINE
  5
CE
330
9D
100
AcDbEntity
  8
0
  6
CONTINUOUS
 62
     0
100
AcDbLine
 10
0.25
 20
-0.25
 30
0.0
 11
-0.25
 21
-0.25
 31
0.0
  0
LINE
  5
CF
330
9D
100
AcDbEntity
  8
0
  6
CONTINUOUS
 62
     0
100
AcDbLine
 10
-0.25
 20
-0.25
 30
0.0
 11
-0.25
 21
0.25
 31
0.0
  0
ENDBLK
  5
9F
330
9D
100
AcDbEntity
  8
0
100
AcDbBlockEnd
  0
BLOCK
  5
A1
330
A0
100
AcDbEntity
  8
0
100
AcDbBlockBegin
  2
EX_WBOX
 70
     0
 10
0.0
 20
0.0
 30
0.0
  3
EX_WBOX
  1

  0
LINE
  5
D0
330
A0
100
AcDbEntity
  8
0
  6
CONTINUOUS
 62
     0
100
AcDbLine
 10
-0.5
 20
0.0
 30
0.0
 11
-1.0
 21
0.0
 31
0.0
  0
LINE
  5
D1
330
A0
100
AcDbEntity
  8
0
  6
CONTINUOUS
 62
     0
100
AcDbLine
 10
-0.5
 20
0.5
 30
0.0
 11
0.5
 21
0.5
 31
0.0
  0
LINE
  5
D2
330
A0
100
AcDbEntity
  8
0
  6
CONTINUOUS
 62
     0
100
AcDbLine
 10
0.5
 20
0.5
 30
0.0
 11
0.5
 21
-0.5
 31
0.0
  0
LINE
  5
D3
330
A0
100
AcDbEntity
  8
0
  6
CONTINUOUS
 62
     0
100
AcDbLine
 10
0.5
 20
-0.5
 30
0.0
 11
-0.5
 21
-0.5
 31
0.0
  0
LINE
  5
D4
330
A0
100
AcDbEntity
  8
0
  6
CONTINUOUS
 62
     0
100
AcDbLine
 10
-0.5
 20
-0.5
 30
0.0
 11
-0.5
 21
0.5
 31
0.0
  0
ENDBLK
  5
A2
330
A0
100
AcDbEntity
  8
0
100
AcDbBlockEnd
  0
BLOCK
  5
A4
330
A3
100
AcDbEntity
  8
0
100
AcDbBlockBegin
  2
EX_INTEGRAL
 70
     0
 10
0.0
 20
0.0
 30
0.0
  3
EX_INTEGRAL
  1

  0
LINE
  5
D5
330
A3
100
AcDbEntity
  8
0
  6
CONTINUOUS
 62
     0
100
AcDbLine
 10
0.0
 20
0.0
 30
0.0
 11
-1.0
 21
0.0
 31
0.0
  0
ARC
  5
D6
330
A3
100
AcDbEntity
  8
0
  6
CONTINUOUS
 62
     0
100
AcDbCircle
 10
0.542115
 20
0.164992
 30
0.0
 40
0.56667
100
AcDbArc
 50
73.07249033629006
 51
196.9275130221199
  0
ARC
  5
D7
330
A3
100
AcDbEntity
  8
0
  6
CONTINUOUS
 62
     0
100
AcDbCircle
 10
-0.542115
 20
-0.164992
 30
0.0
 40
0.56667
100
AcDbArc
 50
253.0724869220464
 51
16.9275130559125
  0
ENDBLK
  5
A5
330
A3
100
AcDbEntity
  8
0
100
AcDbBlockEnd
  0
BLOCK
  5
6B7
330
6B6
100
AcDbEntity
  8
0
100
AcDbBlockBegin
  2
*D15
 70
     1
 10
0.0
 20
0.0
 30
0.0
  3
*D15
  1

  0
LINE
  5
6B9
330
6B6
100
AcDbEntity
  8
LAY-1
  6
CONTINUOUS
 62
     1
100
AcDbLine
 10
1419.0
 20
280.0
 30
0.0
 11
1521.0
 21
280.0
 31
0.0
  0
LINE
  5
6BA
330
6B6
100
AcDbEntity
  8
LAY-1
  6
CONTINUOUS
 62
     1
100
AcDbLine
 10
1490.6
 20
490.0
 30
0.0
 11
1521.0
 21
490.0
 31
0.0
  0
LINE
  5
6BB
330
6B6
100
AcDbEntity
  8
LAY-1
  6
CONTINUOUS
 62
     1
100
AcDbLine
 10
1520.0
 20
282.5
 30
0.0
 11
1520.0
 21
487.5
 31
0.0
  0
INSERT
  5
6BC
330
6B6
100
AcDbEntity
  8
LAY-1
 62
     1
100
AcDbBlockReference
  2
EX_NORM
 10
1520.0
 20
280.0
 30
0.0
 41
2.5
 42
2.5
 43
2.5
 50
270.0
  0
INSERT
  5
6BD
330
6B6
100
AcDbEntity
  8
LAY-1
 62
     1
100
AcDbBlockReference
  2
EX_NORM
 10
1520.0
 20
490.0
 30
0.0
 41
2.5
 42
2.5
 43
2.5
 50
90.0
  0
MTEXT
  5
6BE
330
6B6
100
AcDbEntity
  8
LAY-1
 62
     3
100
AcDbMText
 10
1510.5
 20
385.0
 30
0.0
 40
12.30478368673051
 41
0.0
 71
     5
 72
     1
  1
210
  7
EXCADDIM1
 11
0.0
 21
1.0
 31
0.0
  0
POINT
  5
6BF
330
6B6
100
AcDbEntity
  8
DEFPOINTS
 62
     0
100
AcDbPoint
 10
1418.0
 20
280.0
 30
0.0
  0
POINT
  5
6C0
330
6B6
100
AcDbEntity
  8
DEFPOINTS
 62
     0
100
AcDbPoint
 10
1489.6
 20
490.0
 30
0.0
  0
POINT
  5
6C1
330
6B6
100
AcDbEntity
  8
DEFPOINTS
 62
     0
100
AcDbPoint
 10
1520.0
 20
490.0
 30
0.0
  0
ENDBLK
  5
6B8
330
6B6
100
AcDbEntity
  8
0
100
AcDbBlockEnd
  0
BLOCK
  5
6C4
330
6C3
100
AcDbEntity
  8
0
100
AcDbBlockBegin
  2
*D16
 70
     1
 10
0.0
 20
0.0
 30
0.0
  3
*D16
  1

  0
LINE
  5
6C6
330
6C3
100
AcDbEntity
  8
LAY-1
  6
CONTINUOUS
 62
     1
100
AcDbLine
 10
1490.6
 20
490.0
 30
0.0
 11
1521.0
 21
490.0
 31
0.0
  0
LINE
  5
6C7
330
6C3
100
AcDbEntity
  8
LAY-1
  6
CONTINUOUS
 62
     1
100
AcDbLine
 10
1293.85
 20
808.0
 30
0.0
 11
1521.0
 21
808.0
 31
0.0
  0
LINE
  5
6C8
330
6C3
100
AcDbEntity
  8
LAY-1
  6
CONTINUOUS
 62
     1
100
AcDbLine
 10
1520.0
 20
492.5
 30
0.0
 11
1520.0
 21
805.5
 31
0.0
  0
INSERT
  5
6C9
330
6C3
100
AcDbEntity
  8
LAY-1
 62
     1
100
AcDbBlockReference
  2
EX_NORM
 10
1520.0
 20
490.0
 30
0.0
 41
2.5
 42
2.5
 43
2.5
 50
270.0
  0
INSERT
  5
6CA
330
6C3
100
AcDbEntity
  8
LAY-1
 62
     1
100
AcDbBlockReference
  2
EX_NORM
 10
1520.0
 20
808.0
 30
0.0
 41
2.5
 42
2.5
 43
2.5
 50
90.0
  0
MTEXT
  5
6CB
330
6C3
100
AcDbEntity
  8
LAY-1
 62
     3
100
AcDbMText
 10
1510.5
 20
649.0
 30
0.0
 40
12.30478368673051
 41
0.0
 71
     5
 72
     1
  1
318
  7
EXCADDIM1
 11
0.0
 21
1.0
 31
0.0
  0
POINT
  5
6CC
330
6C3
100
AcDbEntity
  8
DEFPOINTS
 62
     0
100
AcDbPoint
 10
1489.6
 20
490.0
 30
0.0
  0
POINT
  5
6CD
330
6C3
100
AcDbEntity
  8
DEFPOINTS
 62
     0
100
AcDbPoint
 10
1292.85
 20
808.0
 30
0.0
  0
POINT
  5
6CE
330
6C3
100
AcDbEntity
  8
DEFPOINTS
 62
     0
100
AcDbPoint
 10
1520.0
 20
808.0
 30
0.0
  0
ENDBLK
  5
6C5
330
6C3
100
AcDbEntity
  8
0
100
AcDbBlockEnd
  0
BLOCK
  5
6D1
330
6D0
100
AcDbEntity
  8
0
100
AcDbBlockBegin
  2
*D17
 70
     1
 10
0.0
 20
0.0
 30
0.0
  3
*D17
  1

  0
LINE
  5
6D3
330
6D0
100
AcDbEntity
  8
LAY-1
  6
CONTINUOUS
 62
     1
100
AcDbLine
 10
457.0
 20
268.0
 30
0.0
 11
457.0
 21
239.0
 31
0.0
  0
LINE
  5
6D4
330
6D0
100
AcDbEntity
  8
LAY-1
  6
CONTINUOUS
 62
     1
100
AcDbLine
 10
877.0
 20
268.0
 30
0.0
 11
877.0
 21
239.0
 31
0.0
  0
LINE
  5
6D5
330
6D0
100
AcDbEntity
  8
LAY-1
  6
CONTINUOUS
 62
     1
100
AcDbLine
 10
459.5
 20
240.0
 30
0.0
 11
874.5
 21
240.0
 31
0.0
  0
INSERT
  5
6D6
330
6D0
100
AcDbEntity
  8
LAY-1
 62
     1
100
AcDbBlockReference
  2
EX_NORM
 10
457.0
 20
240.0
 30
0.0
 41
2.5
 42
2.5
 43
2.5
 50
180.0
  0
INSERT
  5
6D7
330
6D0
100
AcDbEntity
  8
LAY-1
 62
     1
100
AcDbBlockReference
  2
EX_NORM
 10
877.0
 20
240.0
 30
0.0
 41
2.5
 42
2.5
 43
2.5
  0
MTEXT
  5
6D8
330
6D0
100
AcDbEntity
  8
LAY-1
 62
     3
100
AcDbMText
 10
667.0
 20
249.5
 30
0.0
 40
12.30478368673051
 41
0.0
 71
     5
 72
     1
  1
420
  7
EXCADDIM1
  0
POINT
  5
6D9
330
6D0
100
AcDbEntity
  8
DEFPOINTS
 62
     0
100
AcDbPoint
 10
457.0
 20
269.0
 30
0.0
  0
POINT
  5
6DA
330
6D0
100
AcDbEntity
  8
DEFPOINTS
 62
     0
100
AcDbPoint
 10
877.0
 20
269.0
 30
0.0
  0
POINT
  5
6DB
330
6D0
100
AcDbEntity
  8
DEFPOINTS
 62
     0
100
AcDbPoint
 10
877.0
 20
240.0
 30
0.0
  0
ENDBLK
  5
6D2
330
6D0
100
AcDbEntity
  8
0
100
AcDbBlockEnd
  0
BLOCK
  5
6DE
330
6DD
100
AcDbEntity
  8
0
100
AcDbBlockBegin
  2
*D18
 70
     1
 10
0.0
 20
0.0
 30
0.0
  3
*D18
  1

  0
LINE
  5
6E0
330
6DD
100
AcDbEntity
  8
LAY-1
  6
CONTINUOUS
 62
     1
100
AcDbLine
 10
377.0
 20
279.0
 30
0.0
 11
377.0
 21
199.0
 31
0.0
  0
LINE
  5
6E1
330
6DD
100
AcDbEntity
  8
LAY-1
  6
CONTINUOUS
 62
     1
100
AcDbLine
 10
957.0
 20
279.0
 30
0.0
 11
957.0
 21
199.0
 31
0.0
  0
LINE
  5
6E2
330
6DD
100
AcDbEntity
  8
LAY-1
  6
CONTINUOUS
 62
     1
100
AcDbLine
 10
379.5
 20
200.0
 30
0.0
 11
954.5
 21
200.0
 31
0.0
  0
INSERT
  5
6E3
330
6DD
100
AcDbEntity
  8
LAY-1
 62
     1
100
AcDbBlockReference
  2
EX_NORM
 10
377.0
 20
200.0
 30
0.0
 41
2.5
 42
2.5
 43
2.5
 50
180.0
  0
INSERT
  5
6E4
330
6DD
100
AcDbEntity
  8
LAY-1
 62
     1
100
AcDbBlockReference
  2
EX_NORM
 10
957.0
 20
200.0
 30
0.0
 41
2.5
 42
2.5
 43
2.5
  0
MTEXT
  5
6E5
330
6DD
100
AcDbEntity
  8
LAY-1
 62
     3
100
AcDbMText
 10
667.0
 20
209.5
 30
0.0
 40
12.30478368673051
 41
0.0
 71
     5
 72
     1
  1
580
  7
EXCADDIM1
  0
POINT
  5
6E6
330
6DD
100
AcDbEntity
  8
DEFPOINTS
 62
     0
100
AcDbPoint
 10
377.0
 20
280.0
 30
0.0
  0
POINT
  5
6E7
330
6DD
100
AcDbEntity
  8
DEFPOINTS
 62
     0
100
AcDbPoint
 10
957.0
 20
280.0
 30
0.0
  0
POINT
  5
6E8
330
6DD
100
AcDbEntity
  8
DEFPOINTS
 62
     0
100
AcDbPoint
 10
957.0
 20
200.0
 30
0.0
  0
ENDBLK
  5
6DF
330
6DD
100
AcDbEntity
  8
0
100
AcDbBlockEnd
  0
BLOCK
  5
705
330
704
100
AcDbEntity
  8
0
100
AcDbBlockBegin
  2
*D19
 70
     1
 10
0.0
 20
0.0
 30
0.0
  3
*D19
  1

  0
LINE
  5
707
330
704
100
AcDbEntity
  8
LAY-1
  6
CONTINUOUS
 62
     1
100
AcDbLine
 10
731.0
 20
904.0
 30
0.0
 11
1087.0
 21
904.0
 31
0.0
  0
LINE
  5
708
330
704
100
AcDbEntity
  8
LAY-1
  6
CONTINUOUS
 62
     1
100
AcDbLine
 10
731.0
 20
1234.0
 30
0.0
 11
1087.0
 21
1234.0
 31
0.0
  0
LINE
  5
709
330
704
100
AcDbEntity
  8
LAY-1
  6
CONTINUOUS
 62
     1
100
AcDbLine
 10
1086.0
 20
906.5
 30
0.0
 11
1086.0
 21
1231.5
 31
0.0
  0
INSERT
  5
70A
330
704
100
AcDbEntity
  8
LAY-1
 62
     1
100
AcDbBlockReference
  2
EX_NORM
 10
1086.0
 20
904.0
 30
0.0
 41
2.5
 42
2.5
 43
2.5
 50
270.0
  0
INSERT
  5
70B
330
704
100
AcDbEntity
  8
LAY-1
 62
     1
100
AcDbBlockReference
  2
EX_NORM
 10
1086.0
 20
1234.0
 30
0.0
 41
2.5
 42
2.5
 43
2.5
 50
90.0
  0
MTEXT
  5
70C
330
704
100
AcDbEntity
  8
LAY-1
 62
     3
100
AcDbMText
 10
1075.5
 20
1069.0
 30
0.0
 40
13.67198187414501
 41
0.0
 71
     5
 72
     1
  1
330
  7
EXCADDIM1
 11
0.0
 21
1.0
 31
0.0
  0
POINT
  5
70D
330
704
100
AcDbEntity
  8
DEFPOINTS
 62
     0
100
AcDbPoint
 10
730.0
 20
904.0
 30
0.0
  0
POINT
  5
70E
330
704
100
AcDbEntity
  8
DEFPOINTS
 62
     0
100
AcDbPoint
 10
730.0
 20
1234.0
 30
0.0
  0
POINT
  5
70F
330
704
100
AcDbEntity
  8
DEFPOINTS
 62
     0
100
AcDbPoint
 10
1086.0
 20
1234.0
 30
0.0
  0
ENDBLK
  5
706
330
704
100
AcDbEntity
  8
0
100
AcDbBlockEnd
  0
BLOCK
  5
712
330
711
100
AcDbEntity
  8
0
100
AcDbBlockBegin
  2
*D20
 70
     1
 10
0.0
 20
0.0
 30
0.0
  3
*D20
  1

  0
LINE
  5
714
330
711
100
AcDbEntity
  8
LAY-1
  6
CONTINUOUS
 62
     1
100
AcDbLine
 10
985.0
 20
1069.0
 30
0.0
 11
1055.0
 21
1069.0
 31
0.0
  0
LINE
  5
715
330
711
100
AcDbEntity
  8
LAY-1
  6
CONTINUOUS
 62
     1
100
AcDbLine
 10
731.0
 20
1234.0
 30
0.0
 11
1055.0
 21
1234.0
 31
0.0
  0
LINE
  5
716
330
711
100
AcDbEntity
  8
LAY-1
  6
CONTINUOUS
 62
     1
100
AcDbLine
 10
1054.0
 20
1071.5
 30
0.0
 11
1054.0
 21
1231.5
 31
0.0
  0
INSERT
  5
717
330
711
100
AcDbEntity
  8
LAY-1
 62
     1
100
AcDbBlockReference
  2
EX_NORM
 10
1054.0
 20
1069.0
 30
0.0
 41
2.5
 42
2.5
 43
2.5
 50
270.0
  0
INSERT
  5
718
330
711
100
AcDbEntity
  8
LAY-1
 62
     1
100
AcDbBlockReference
  2
EX_NORM
 10
1054.0
 20
1234.0
 30
0.0
 41
2.5
 42
2.5
 43
2.5
 50
90.0
  0
MTEXT
  5
719
330
711
100
AcDbEntity
  8
LAY-1
 62
     3
100
AcDbMText
 10
1043.5
 20
1151.5
 30
0.0
 40
13.67198187414501
 41
0.0
 71
     5
 72
     1
  1
165
  7
EXCADDIM1
 11
0.0
 21
1.0
 31
0.0
  0
POINT
  5
71A
330
711
100
AcDbEntity
  8
DEFPOINTS
 62
     0
100
AcDbPoint
 10
984.0
 20
1069.0
 30
0.0
  0
POINT
  5
71B
330
711
100
AcDbEntity
  8
DEFPOINTS
 62
     0
100
AcDbPoint
 10
730.0
 20
1234.0
 30
0.0
  0
POINT
  5
71C
330
711
100
AcDbEntity
  8
DEFPOINTS
 62
     0
100
AcDbPoint
 10
1054.0
 20
1234.0
 30
0.0
  0
ENDBLK
  5
713
330
711
100
AcDbEntity
  8
0
100
AcDbBlockEnd
  0
BLOCK
  5
71F
330
71E
100
AcDbEntity
  8
0
100
AcDbBlockBegin
  2
*D21
 70
     1
 10
0.0
 20
0.0
 30
0.0
  3
*D21
  1

  0
LINE
  5
721
330
71E
100
AcDbEntity
  8
LAY-1
  6
CONTINUOUS
 62
     1
100
AcDbLine
 10
731.0
 20
904.0
 30
0.0
 11
1054.0
 21
904.0
 31
0.0
  0
LINE
  5
722
330
71E
100
AcDbEntity
  8
LAY-1
  6
CONTINUOUS
 62
     1
100
AcDbLine
 10
985.0
 20
1069.0
 30
0.0
 11
1054.0
 21
1069.0
 31
0.0
  0
LINE
  5
723
330
71E
100
AcDbEntity
  8
LAY-1
  6
CONTINUOUS
 62
     1
100
AcDbLine
 10
1053.0
 20
906.5
 30
0.0
 11
1053.0
 21
1066.5
 31
0.0
  0
INSERT
  5
724
330
71E
100
AcDbEntity
  8
LAY-1
 62
     1
100
AcDbBlockReference
  2
EX_NORM
 10
1053.0
 20
904.0
 30
0.0
 41
2.5
 42
2.5
 43
2.5
 50
270.0
  0
INSERT
  5
725
330
71E
100
AcDbEntity
  8
LAY-1
 62
     1
100
AcDbBlockReference
  2
EX_NORM
 10
1053.0
 20
1069.0
 30
0.0
 41
2.5
 42
2.5
 43
2.5
 50
90.0
  0
MTEXT
  5
726
330
71E
100
AcDbEntity
  8
LAY-1
 62
     3
100
AcDbMText
 10
1042.5
 20
986.5
 30
0.0
 40
13.67198187414501
 41
0.0
 71
     5
 72
     1
  1
165
  7
EXCADDIM1
 11
0.0
 21
1.0
 31
0.0
  0
POINT
  5
727
330
71E
100
AcDbEntity
  8
DEFPOINTS
 62
     0
100
AcDbPoint
 10
730.0
 20
904.0
 30
0.0
  0
POINT
  5
728
330
71E
100
AcDbEntity
  8
DEFPOINTS
 62
     0
100
AcDbPoint
 10
984.0
 20
1069.0
 30
0.0
  0
POINT
  5
729
330
71E
100
AcDbEntity
  8
DEFPOINTS
 62
     0
100
AcDbPoint
 10
1053.0
 20
1069.0
 30
0.0
  0
ENDBLK
  5
720
330
71E
100
AcDbEntity
  8
0
100
AcDbBlockEnd
  0
BLOCK
  5
72C
330
72B
100
AcDbEntity
  8
0
100
AcDbBlockBegin
  2
*D22
 70
     1
 10
0.0
 20
0.0
 30
0.0
  3
*D22
  1

  0
LINE
  5
72E
330
72B
100
AcDbEntity
  8
LAY-1
  6
CONTINUOUS
 62
     1
100
AcDbLine
 10
850.0
 20
1038.6
 30
0.0
 11
1024.0
 21
1038.6
 31
0.0
  0
LINE
  5
72F
330
72B
100
AcDbEntity
  8
LAY-1
  6
CONTINUOUS
 62
     1
100
AcDbLine
 10
986.0
 20
1069.0
 30
0.0
 11
1024.0
 21
1069.0
 31
0.0
  0
LINE
  5
730
330
72B
100
AcDbEntity
  8
LAY-1
  6
CONTINUOUS
 62
     1
100
AcDbLine
 10
1023.0
 20
1041.1
 30
0.0
 11
1023.0
 21
1066.5
 31
0.0
  0
INSERT
  5
731
330
72B
100
AcDbEntity
  8
LAY-1
 62
     1
100
AcDbBlockReference
  2
EX_NORM
 10
1023.0
 20
1038.6
 30
0.0
 41
2.5
 42
2.5
 43
2.5
 50
270.0
  0
INSERT
  5
732
330
72B
100
AcDbEntity
  8
LAY-1
 62
     1
100
AcDbBlockReference
  2
EX_NORM
 10
1023.0
 20
1069.0
 30
0.0
 41
2.5
 42
2.5
 43
2.5
 50
90.0
  0
MTEXT
  5
733
330
72B
100
AcDbEntity
  8
LAY-1
 62
     3
100
AcDbMText
 10
1012.5
 20
1053.8
 30
0.0
 40
13.67198187414501
 41
0.0
 71
     5
 72
     1
  1
30
  7
EXCADDIM1
 11
0.0
 21
1.0
 31
0.0
  0
POINT
  5
734
330
72B
100
AcDbEntity
  8
DEFPOINTS
 62
     0
100
AcDbPoint
 10
849.0
 20
1038.6
 30
0.0
  0
POINT
  5
735
330
72B
100
AcDbEntity
  8
DEFPOINTS
 62
     0
100
AcDbPoint
 10
985.0
 20
1069.0
 30
0.0
  0
POINT
  5
736
330
72B
100
AcDbEntity
  8
DEFPOINTS
 62
     0
100
AcDbPoint
 10
1023.0
 20
1069.0
 30
0.0
  0
ENDBLK
  5
72D
330
72B
100
AcDbEntity
  8
0
100
AcDbBlockEnd
  0
BLOCK
  5
739
330
738
100
AcDbEntity
  8
0
100
AcDbBlockBegin
  2
*D23
 70
     1
 10
0.0
 20
0.0
 30
0.0
  3
*D23
  1

  0
LINE
  5
73B
330
738
100
AcDbEntity
  8
LAY-1
  6
CONTINUOUS
 62
     1
100
AcDbLine
 10
883.00635094611
 20
912.7339745962156
 30
0.0
 11
821.3581045616687
 21
805.9560796608384
 31
0.0
  0
LINE
  5
73C
330
738
100
AcDbEntity
  8
LAY-1
  6
CONTINUOUS
 62
     1
100
AcDbLine
 10
666.5
 20
1037.733974596215
 30
0.0
 11
604.8517536155587
 21
930.9560796608383
 31
0.0
  0
LINE
  5
73D
330
738
100
AcDbEntity
  8
LAY-1
  6
CONTINUOUS
 62
     1
100
AcDbLine
 10
819.6930410522076
 20
808.0721050646229
 30
0.0
 11
607.5168171250198
 21
930.5721050646227
 31
0.0
  0
INSERT
  5
73E
330
738
100
AcDbEntity
  8
LAY-1
 62
     1
100
AcDbBlockReference
  2
EX_NORM
 10
821.8581045616687
 20
806.8221050646229
 30
0.0
 41
2.5
 42
2.5
 43
2.5
 50
330.0000000000001
  0
INSERT
  5
73F
330
738
100
AcDbEntity
  8
LAY-1
 62
     1
100
AcDbBlockReference
  2
EX_NORM
 10
605.3517536155587
 20
931.8221050646227
 30
0.0
 41
2.5
 42
2.5
 43
2.5
 50
150.0000000000001
  0
MTEXT
  5
740
330
738
100
AcDbEntity
  8
LAY-1
 62
     3
100
AcDbMText
 10
718.8549290886137
 20
878.4153718043596
 30
0.0
 40
13.67198187414501
 41
0.0
 71
     5
 72
     1
  1
250
  7
EXCADDIM1
 11
0.8660254037844392
 21
-0.499999999999999
 31
0.0
  0
POINT
  5
741
330
738
100
AcDbEntity
  8
DEFPOINTS
 62
     0
100
AcDbPoint
 10
883.50635094611
 20
913.6
 30
0.0
  0
POINT
  5
742
330
738
100
AcDbEntity
  8
DEFPOINTS
 62
     0
100
AcDbPoint
 10
667.0
 20
1038.6
 30
0.0
  0
POINT
  5
743
330
738
100
AcDbEntity
  8
DEFPOINTS
 62
     0
100
AcDbPoint
 10
605.3517536155587
 20
931.8221050646227
 30
0.0
  0
ENDBLK
  5
73A
330
738
100
AcDbEntity
  8
0
100
AcDbBlockEnd
  0
ENDSEC
  0
SECTION
  2
ENTITIES
  0
LINE
  5
D8
330
1F
100
AcDbEntity
  8
LAY-1
  6
CONTINUOUS
 62
     3
100
AcDbLine
 10
787.6999034
 20
439.8500322
 30
0.0
 11
787.6999034
 21
460.1500321999999
 31
0.0
  0
LINE
  5
D9
330
1F
100
AcDbEntity
  8
LAY-1
  6
CONTINUOUS
 62
     3
100
AcDbLine
 10
786.5599471
 20
437.8755569
 30
0.0
 11
787.6999034
 21
439.8500322
 31
0.0
  0
ARC
  5
DA
330
1F
100
AcDbEntity
  8
LAY-1
  6
CONTINUOUS
 62
     3
100
AcDbCircle
 10
771.0115968
 20
450.0
 30
0.0
 40
16.688406
100
AcDbArc
 50
338.6999127433979
 51
21.30029883962633
  0
ARC
  5
DB
330
1F
100
AcDbEntity
  8
LAY-1
  6
CONTINUOUS
 62
     3
100
AcDbCircle
 10
779.5803801
 20
439.7889894
 30
0.0
 40
8.1197046
100
AcDbArc
 50
0.4307695182221369
 51
30.72894961207861
  0
LINE
  5
DC
330
1F
100
AcDbEntity
  8
LAY-1
  6
CONTINUOUS
 62
     3
100
AcDbLine
 10
786.5599471
 20
462.1245074999999
 30
0.0
 11
787.6999034
 21
460.1500321999999
 31
0.0
  0
ARC
  5
DD
330
1F
100
AcDbEntity
  8
LAY-1
  6
CONTINUOUS
 62
     3
100
AcDbCircle
 10
779.5803801
 20
460.2110749999999
 30
0.0
 40
8.1197046
100
AcDbArc
 50
329.2710503879214
 51
359.5692877775573
  0
LINE
  5
DE
330
1F
100
AcDbEntity
  8
LAY-1
  6
CONTINUOUS
 62
     3
100
AcDbLine
 10
776.5
 20
437.8755891000001
 30
0.0
 11
776.5
 21
462.1244108999999
 31
0.0
  0
LINE
  5
DF
330
1F
100
AcDbEntity
  8
LAY-1
  6
CONTINUOUS
 62
     3
100
AcDbLine
 10
786.5599471
 20
437.8755569
 30
0.0
 11
776.5
 21
437.8755891000001
 31
0.0
  0
LINE
  5
E0
330
1F
100
AcDbEntity
  8
LAY-1
  6
CONTINUOUS
 62
     3
100
AcDbLine
 10
786.5599471
 20
443.937923
 30
0.0
 11
776.5000636999999
 21
443.9379552
 31
0.0
  0
LINE
  5
E1
330
1F
100
AcDbEntity
  8
LAY-1
  6
CONTINUOUS
 62
     3
100
AcDbLine
 10
786.5599471
 20
456.0621414
 30
0.0
 11
776.5000637
 21
456.0621736000001
 31
0.0
  0
LINE
  5
E2
330
1F
100
AcDbEntity
  8
LAY-1
  6
CONTINUOUS
 62
     3
100
AcDbLine
 10
786.5599471
 20
462.1245074999999
 30
0.0
 11
776.5
 21
462.1245397
 31
0.0
  0
LINE
  5
E3
330
1F
100
AcDbEntity
  8
LAY-1
  6
CONTINUOUS
 62
     3
100
AcDbLine
 10
791.9999999999999
 20
444.7499677999999
 30
0.0
 11
791.9999999999999
 21
455.2499677999999
 31
0.0
  0
LINE
  5
E4
330
1F
100
AcDbEntity
  8
LAY-1
  6
CONTINUOUS
 62
     3
100
AcDbLine
 10
790.2499999999999
 20
456.9999677999999
 30
0.0
 11
791.9999999999999
 21
455.2499677999999
 31
0.0
  0
LINE
  5
E5
330
1F
100
AcDbEntity
  8
LAY-1
  6
CONTINUOUS
 62
     3
100
AcDbLine
 10
790.2499895
 20
442.9999573
 30
0.0
 11
790.2499999999999
 21
456.9999677999999
 31
0.0
  0
LINE
  5
E6
330
1F
100
AcDbEntity
  8
LAY-1
  6
CONTINUOUS
 62
     3
100
AcDbLine
 10
790.2499999999999
 20
442.9999677999999
 30
0.0
 11
791.9999999999999
 21
444.7499677999999
 31
0.0
  0
LINE
  5
E7
330
1F
100
AcDbEntity
  8
LAY-1
  6
CONTINUOUS
 62
     1
100
AcDbLine
 10
787.6999034
 20
456.0528699
 30
0.0
 11
791.1970979
 21
456.0528699
 31
0.0
  0
LINE
  5
E8
330
1F
100
AcDbEntity
  8
LAY-1
  6
CONTINUOUS
 62
     1
100
AcDbLine
 10
787.6999034
 20
443.9470656999999
 30
0.0
 11
791.1970979
 21
443.9470656999999
 31
0.0
  0
LINE
  5
E9
330
1F
100
AcDbEntity
  8
LAY-1
  6
CONTINUOUS
 62
     3
100
AcDbLine
 10
787.6999034
 20
442.9999677999999
 30
0.0
 11
790.25
 21
442.9999677999999
 31
0.0
  0
LINE
  5
EA
330
1F
100
AcDbEntity
  8
LAY-1
  6
CONTINUOUS
 62
     3
100
AcDbLine
 10
787.6999034
 20
456.9999677999999
 30
0.0
 11
790.25
 21
456.9999677999999
 31
0.0
  0
LINE
  5
EB
330
1F
100
AcDbEntity
  8
LAY-1
  6
CONTINUOUS
 62
     3
100
AcDbLine
 10
787.6999034
 20
508.3500322
 30
0.0
 11
787.6999034
 21
528.6500321999999
 31
0.0
  0
LINE
  5
EC
330
1F
100
AcDbEntity
  8
LAY-1
  6
CONTINUOUS
 62
     3
100
AcDbLine
 10
786.5599471
 20
506.3755569
 30
0.0
 11
787.6999034
 21
508.3500322
 31
0.0
  0
ARC
  5
ED
330
1F
100
AcDbEntity
  8
LAY-1
  6
CONTINUOUS
 62
     3
100
AcDbCircle
 10
771.0115968
 20
518.5
 30
0.0
 40
16.688406
100
AcDbArc
 50
338.6999127433979
 51
21.30029883962633
  0
ARC
  5
EE
330
1F
100
AcDbEntity
  8
LAY-1
  6
CONTINUOUS
 62
     3
100
AcDbCircle
 10
779.5803801
 20
508.2889894
 30
0.0
 40
8.1197046
100
AcDbArc
 50
0.4307695182221369
 51
30.72894961207861
  0
LINE
  5
EF
330
1F
100
AcDbEntity
  8
LAY-1
  6
CONTINUOUS
 62
     3
100
AcDbLine
 10
786.5599471
 20
530.6245074999999
 30
0.0
 11
787.6999034
 21
528.6500321999999
 31
0.0
  0
ARC
  5
F0
330
1F
100
AcDbEntity
  8
LAY-1
  6
CONTINUOUS
 62
     3
100
AcDbCircle
 10
779.5803801
 20
528.7110749999999
 30
0.0
 40
8.1197046
100
AcDbArc
 50
329.2710503879214
 51
359.5692877775573
  0
LINE
  5
F1
330
1F
100
AcDbEntity
  8
LAY-1
  6
CONTINUOUS
 62
     3
100
AcDbLine
 10
776.5
 20
506.3755891000001
 30
0.0
 11
776.5
 21
530.6244108999999
 31
0.0
  0
LINE
  5
F2
330
1F
100
AcDbEntity
  8
LAY-1
  6
CONTINUOUS
 62
     3
100
AcDbLine
 10
786.5599471
 20
506.3755569
 30
0.0
 11
776.5
 21
506.3755891000001
 31
0.0
  0
LINE
  5
F3
330
1F
100
AcDbEntity
  8
LAY-1
  6
CONTINUOUS
 62
     3
100
AcDbLine
 10
786.5599471
 20
512.437923
 30
0.0
 11
776.5000636999999
 21
512.4379552
 31
0.0
  0
LINE
  5
F4
330
1F
100
AcDbEntity
  8
LAY-1
  6
CONTINUOUS
 62
     3
100
AcDbLine
 10
786.5599471
 20
524.5621414
 30
0.0
 11
776.5000637
 21
524.5621736
 31
0.0
  0
LINE
  5
F5
330
1F
100
AcDbEntity
  8
LAY-1
  6
CONTINUOUS
 62
     3
100
AcDbLine
 10
786.5599471
 20
530.6245074999999
 30
0.0
 11
776.5
 21
530.6245397
 31
0.0
  0
LINE
  5
F6
330
1F
100
AcDbEntity
  8
LAY-1
  6
CONTINUOUS
 62
     3
100
AcDbLine
 10
791.9999999999999
 20
513.2499677999999
 30
0.0
 11
791.9999999999999
 21
523.7499677999999
 31
0.0
  0
LINE
  5
F7
330
1F
100
AcDbEntity
  8
LAY-1
  6
CONTINUOUS
 62
     3
100
AcDbLine
 10
790.2499999999999
 20
525.4999677999999
 30
0.0
 11
791.9999999999999
 21
523.7499677999999
 31
0.0
  0
LINE
  5
F8
330
1F
100
AcDbEntity
  8
LAY-1
  6
CONTINUOUS
 62
     3
100
AcDbLine
 10
790.2499895
 20
511.4999573
 30
0.0
 11
790.2499999999999
 21
525.4999677999999
 31
0.0
  0
LINE
  5
F9
330
1F
100
AcDbEntity
  8
LAY-1
  6
CONTINUOUS
 62
     3
100
AcDbLine
 10
790.2499999999999
 20
511.4999677999999
 30
0.0
 11
791.9999999999999
 21
513.2499677999999
 31
0.0
  0
LINE
  5
FA
330
1F
100
AcDbEntity
  8
LAY-1
  6
CONTINUOUS
 62
     1
100
AcDbLine
 10
787.6999034
 20
524.5528699
 30
0.0
 11
791.1970979
 21
524.5528699
 31
0.0
  0
LINE
  5
FB
330
1F
100
AcDbEntity
  8
LAY-1
  6
CONTINUOUS
 62
     1
100
AcDbLine
 10
787.6999034
 20
512.4470656999999
 30
0.0
 11
791.1970979
 21
512.4470656999999
 31
0.0
  0
LINE
  5
FC
330
1F
100
AcDbEntity
  8
LAY-1
  6
CONTINUOUS
 62
     3
100
AcDbLine
 10
787.6999034
 20
511.4999677999999
 30
0.0
 11
790.25
 21
511.4999677999999
 31
0.0
  0
LINE
  5
FD
330
1F
100
AcDbEntity
  8
LAY-1
  6
CONTINUOUS
 62
     3
100
AcDbLine
 10
787.6999034
 20
525.4999677999999
 30
0.0
 11
790.25
 21
525.4999677999999
 31
0.0
  0
LINE
  5
FE
330
1F
100
AcDbEntity
  8
LAY-1
  6
CONTINUOUS
 62
     3
100
AcDbLine
 10
787.6999034
 20
366.3500322
 30
0.0
 11
787.6999034
 21
386.6500321999999
 31
0.0
  0
LINE
  5
FF
330
1F
100
AcDbEntity
  8
LAY-1
  6
CONTINUOUS
 62
     3
100
AcDbLine
 10
786.5599471
 20
364.3755569
 30
0.0
 11
787.6999034
 21
366.3500322
 31
0.0
  0
ARC
  5
100
330
1F
100
AcDbEntity
  8
LAY-1
  6
CONTINUOUS
 62
     3
100
AcDbCircle
 10
771.0115968
 20
376.5
 30
0.0
 40
16.688406
100
AcDbArc
 50
338.6999127433979
 51
21.30029883962633
  0
ARC
  5
101
330
1F
100
AcDbEntity
  8
LAY-1
  6
CONTINUOUS
 62
     3
100
AcDbCircle
 10
779.5803801
 20
366.2889894
 30
0.0
 40
8.1197046
100
AcDbArc
 50
0.4307695182221369
 51
30.72894961207861
  0
LINE
  5
102
330
1F
100
AcDbEntity
  8
LAY-1
  6
CONTINUOUS
 62
     3
100
AcDbLine
 10
786.5599471
 20
388.6245074999999
 30
0.0
 11
787.6999034
 21
386.6500321999999
 31
0.0
  0
ARC
  5
103
330
1F
100
AcDbEntity
  8
LAY-1
  6
CONTINUOUS
 62
     3
100
AcDbCircle
 10
779.5803801
 20
386.7110749999999
 30
0.0
 40
8.1197046
100
AcDbArc
 50
329.2710503879214
 51
359.5692877775573
  0
LINE
  5
104
330
1F
100
AcDbEntity
  8
LAY-1
  6
CONTINUOUS
 62
     3
100
AcDbLine
 10
776.5
 20
364.3755891000001
 30
0.0
 11
776.5
 21
388.6244108999999
 31
0.0
  0
LINE
  5
105
330
1F
100
AcDbEntity
  8
LAY-1
  6
CONTINUOUS
 62
     3
100
AcDbLine
 10
786.5599471
 20
364.3755569
 30
0.0
 11
776.5
 21
364.3755891000001
 31
0.0
  0
LINE
  5
106
330
1F
100
AcDbEntity
  8
LAY-1
  6
CONTINUOUS
 62
     3
100
AcDbLine
 10
786.5599471
 20
370.437923
 30
0.0
 11
776.5000636999999
 21
370.4379552
 31
0.0
  0
LINE
  5
107
330
1F
100
AcDbEntity
  8
LAY-1
  6
CONTINUOUS
 62
     3
100
AcDbLine
 10
786.5599471
 20
382.5621414
 30
0.0
 11
776.5000637
 21
382.5621736000001
 31
0.0
  0
LINE
  5
108
330
1F
100
AcDbEntity
  8
LAY-1
  6
CONTINUOUS
 62
     3
100
AcDbLine
 10
786.5599471
 20
388.6245074999999
 30
0.0
 11
776.5
 21
388.6245397
 31
0.0
  0
LINE
  5
109
330
1F
100
AcDbEntity
  8
LAY-1
  6
CONTINUOUS
 62
     3
100
AcDbLine
 10
791.9999999999999
 20
371.2499677999999
 30
0.0
 11
791.9999999999999
 21
381.7499677999999
 31
0.0
  0
LINE
  5
10A
330
1F
100
AcDbEntity
  8
LAY-1
  6
CONTINUOUS
 62
     3
100
AcDbLine
 10
790.2499999999999
 20
383.4999677999999
 30
0.0
 11
791.9999999999999
 21
381.7499677999999
 31
0.0
  0
LINE
  5
10B
330
1F
100
AcDbEntity
  8
LAY-1
  6
CONTINUOUS
 62
     3
100
AcDbLine
 10
790.2499895
 20
369.4999573
 30
0.0
 11
790.2499999999999
 21
383.4999677999999
 31
0.0
  0
LINE
  5
10C
330
1F
100
AcDbEntity
  8
LAY-1
  6
CONTINUOUS
 62
     3
100
AcDbLine
 10
790.2499999999999
 20
369.4999677999999
 30
0.0
 11
791.9999999999999
 21
371.2499677999999
 31
0.0
  0
LINE
  5
10D
330
1F
100
AcDbEntity
  8
LAY-1
  6
CONTINUOUS
 62
     1
100
AcDbLine
 10
787.6999034
 20
382.5528699
 30
0.0
 11
791.1970979
 21
382.5528699
 31
0.0
  0
LINE
  5
10E
330
1F
100
AcDbEntity
  8
LAY-1
  6
CONTINUOUS
 62
     1
100
AcDbLine
 10
787.6999034
 20
370.4470656999999
 30
0.0
 11
791.1970979
 21
370.4470656999999
 31
0.0
  0
LINE
  5
10F
330
1F
100
AcDbEntity
  8
LAY-1
  6
CONTINUOUS
 62
     3
100
AcDbLine
 10
787.6999034
 20
369.4999677999999
 30
0.0
 11
790.25
 21
369.4999677999999
 31
0.0
  0
LINE
  5
110
330
1F
100
AcDbEntity
  8
LAY-1
  6
CONTINUOUS
 62
     3
100
AcDbLine
 10
787.6999034
 20
383.4999677999999
 30
0.0
 11
790.25
 21
383.4999677999999
 31
0.0
  0
LINE
  5
111
330
1F
100
AcDbEntity
  8
LAY-1
  6
CONTINUOUS
 62
     3
100
AcDbLine
 10
787.6999034
 20
330.3500322
 30
0.0
 11
787.6999034
 21
350.6500321999999
 31
0.0
  0
LINE
  5
112
330
1F
100
AcDbEntity
  8
LAY-1
  6
CONTINUOUS
 62
     3
100
AcDbLine
 10
786.5599471
 20
328.3755569
 30
0.0
 11
787.6999034
 21
330.3500322
 31
0.0
  0
ARC
  5
113
330
1F
100
AcDbEntity
  8
LAY-1
  6
CONTINUOUS
 62
     3
100
AcDbCircle
 10
771.0115968
 20
340.5
 30
0.0
 40
16.688406
100
AcDbArc
 50
338.6999127433979
 51
21.30029883962633
  0
ARC
  5
114
330
1F
100
AcDbEntity
  8
LAY-1
  6
CONTINUOUS
 62
     3
100
AcDbCircle
 10
779.5803801
 20
330.2889894
 30
0.0
 40
8.1197046
100
AcDbArc
 50
0.4307695182221369
 51
30.72894961207861
  0
LINE
  5
115
330
1F
100
AcDbEntity
  8
LAY-1
  6
CONTINUOUS
 62
     3
100
AcDbLine
 10
786.5599471
 20
352.6245074999999
 30
0.0
 11
787.6999034
 21
350.6500321999999
 31
0.0
  0
ARC
  5
116
330
1F
100
AcDbEntity
  8
LAY-1
  6
CONTINUOUS
 62
     3
100
AcDbCircle
 10
779.5803801
 20
350.7110749999999
 30
0.0
 40
8.1197046
100
AcDbArc
 50
329.2710503879214
 51
359.5692877775573
  0
LINE
  5
117
330
1F
100
AcDbEntity
  8
LAY-1
  6
CONTINUOUS
 62
     3
100
AcDbLine
 10
776.5
 20
328.3755891000001
 30
0.0
 11
776.5
 21
352.6244108999999
 31
0.0
  0
LINE
  5
118
330
1F
100
AcDbEntity
  8
LAY-1
  6
CONTINUOUS
 62
     3
100
AcDbLine
 10
786.5599471
 20
328.3755569
 30
0.0
 11
776.5
 21
328.3755891000001
 31
0.0
  0
LINE
  5
119
330
1F
100
AcDbEntity
  8
LAY-1
  6
CONTINUOUS
 62
     3
100
AcDbLine
 10
786.5599471
 20
334.437923
 30
0.0
 11
776.5000636999999
 21
334.4379552
 31
0.0
  0
LINE
  5
11A
330
1F
100
AcDbEntity
  8
LAY-1
  6
CONTINUOUS
 62
     3
100
AcDbLine
 10
786.5599471
 20
346.5621414
 30
0.0
 11
776.5000637
 21
346.5621736000001
 31
0.0
  0
LINE
  5
11B
330
1F
100
AcDbEntity
  8
LAY-1
  6
CONTINUOUS
 62
     3
100
AcDbLine
 10
786.5599471
 20
352.6245074999999
 30
0.0
 11
776.5
 21
352.6245397
 31
0.0
  0
LINE
  5
11C
330
1F
100
AcDbEntity
  8
LAY-1
  6
CONTINUOUS
 62
     3
100
AcDbLine
 10
791.9999999999999
 20
335.2499677999999
 30
0.0
 11
791.9999999999999
 21
345.7499677999999
 31
0.0
  0
LINE
  5
11D
330
1F
100
AcDbEntity
  8
LAY-1
  6
CONTINUOUS
 62
     3
100
AcDbLine
 10
790.2499999999999
 20
347.4999677999999
 30
0.0
 11
791.9999999999999
 21
345.7499677999999
 31
0.0
  0
LINE
  5
11E
330
1F
100
AcDbEntity
  8
LAY-1
  6
CONTINUOUS
 62
     3
100
AcDbLine
 10
790.2499895
 20
333.4999573
 30
0.0
 11
790.2499999999999
 21
347.4999677999999
 31
0.0
  0
LINE
  5
11F
330
1F
100
AcDbEntity
  8
LAY-1
  6
CONTINUOUS
 62
     3
100
AcDbLine
 10
790.2499999999999
 20
333.4999677999999
 30
0.0
 11
791.9999999999999
 21
335.2499677999999
 31
0.0
  0
LINE
  5
120
330
1F
100
AcDbEntity
  8
LAY-1
  6
CONTINUOUS
 62
     1
100
AcDbLine
 10
787.6999034
 20
346.5528699
 30
0.0
 11
791.1970979
 21
346.5528699
 31
0.0
  0
LINE
  5
121
330
1F
100
AcDbEntity
  8
LAY-1
  6
CONTINUOUS
 62
     1
100
AcDbLine
 10
787.6999034
 20
334.4470656999999
 30
0.0
 11
791.1970979
 21
334.4470656999999
 31
0.0
  0
LINE
  5
122
330
1F
100
AcDbEntity
  8
LAY-1
  6
CONTINUOUS
 62
     3
100
AcDbLine
 10
787.6999034
 20
333.4999677999999
 30
0.0
 11
790.25
 21
333.4999677999999
 31
0.0
  0
LINE
  5
123
330
1F
100
AcDbEntity
  8
LAY-1
  6
CONTINUOUS
 62
     3
100
AcDbLine
 10
787.6999034
 20
347.4999677999999
 30
0.0
 11
790.25
 21
347.4999677999999
 31
0.0
  0
LINE
  5
124
330
1F
100
AcDbEntity
  8
LAY-1
  6
CONTINUOUS
 62
     3
100
AcDbLine
 10
787.6999034
 20
544.3500322
 30
0.0
 11
787.6999034
 21
564.6500321999999
 31
0.0
  0
LINE
  5
125
330
1F
100
AcDbEntity
  8
LAY-1
  6
CONTINUOUS
 62
     3
100
AcDbLine
 10
786.5599471
 20
542.3755569
 30
0.0
 11
787.6999034
 21
544.3500322
 31
0.0
  0
ARC
  5
126
330
1F
100
AcDbEntity
  8
LAY-1
  6
CONTINUOUS
 62
     3
100
AcDbCircle
 10
771.0115968
 20
554.5
 30
0.0
 40
16.688406
100
AcDbArc
 50
338.6999127433979
 51
21.30029883962633
  0
ARC
  5
127
330
1F
100
AcDbEntity
  8
LAY-1
  6
CONTINUOUS
 62
     3
100
AcDbCircle
 10
779.5803801
 20
544.2889894
 30
0.0
 40
8.1197046
100
AcDbArc
 50
0.4307695182221369
 51
30.72894961207861
  0
LINE
  5
128
330
1F
100
AcDbEntity
  8
LAY-1
  6
CONTINUOUS
 62
     3
100
AcDbLine
 10
786.5599471
 20
566.6245074999999
 30
0.0
 11
787.6999034
 21
564.6500321999999
 31
0.0
  0
ARC
  5
129
330
1F
100
AcDbEntity
  8
LAY-1
  6
CONTINUOUS
 62
     3
100
AcDbCircle
 10
779.5803801
 20
564.7110749999999
 30
0.0
 40
8.1197046
100
AcDbArc
 50
329.2710503879214
 51
359.5692877775573
  0
LINE
  5
12A
330
1F
100
AcDbEntity
  8
LAY-1
  6
CONTINUOUS
 62
     3
100
AcDbLine
 10
776.5
 20
542.3755891000001
 30
0.0
 11
776.5
 21
566.6244108999999
 31
0.0
  0
LINE
  5
12B
330
1F
100
AcDbEntity
  8
LAY-1
  6
CONTINUOUS
 62
     3
100
AcDbLine
 10
786.5599471
 20
542.3755569
 30
0.0
 11
776.5
 21
542.3755891000001
 31
0.0
  0
LINE
  5
12C
330
1F
100
AcDbEntity
  8
LAY-1
  6
CONTINUOUS
 62
     3
100
AcDbLine
 10
786.5599471
 20
548.437923
 30
0.0
 11
776.5000636999999
 21
548.4379552
 31
0.0
  0
LINE
  5
12D
330
1F
100
AcDbEntity
  8
LAY-1
  6
CONTINUOUS
 62
     3
100
AcDbLine
 10
786.5599471
 20
560.5621414
 30
0.0
 11
776.5000637
 21
560.5621736
 31
0.0
  0
LINE
  5
12E
330
1F
100
AcDbEntity
  8
LAY-1
  6
CONTINUOUS
 62
     3
100
AcDbLine
 10
786.5599471
 20
566.6245074999999
 30
0.0
 11
776.5
 21
566.6245397
 31
0.0
  0
LINE
  5
12F
330
1F
100
AcDbEntity
  8
LAY-1
  6
CONTINUOUS
 62
     3
100
AcDbLine
 10
791.9999999999999
 20
549.2499677999999
 30
0.0
 11
791.9999999999999
 21
559.7499677999999
 31
0.0
  0
LINE
  5
130
330
1F
100
AcDbEntity
  8
LAY-1
  6
CONTINUOUS
 62
     3
100
AcDbLine
 10
790.2499999999999
 20
561.4999677999999
 30
0.0
 11
791.9999999999999
 21
559.7499677999999
 31
0.0
  0
LINE
  5
131
330
1F
100
AcDbEntity
  8
LAY-1
  6
CONTINUOUS
 62
     3
100
AcDbLine
 10
790.2499895
 20
547.4999573
 30
0.0
 11
790.2499999999999
 21
561.4999677999999
 31
0.0
  0
LINE
  5
132
330
1F
100
AcDbEntity
  8
LAY-1
  6
CONTINUOUS
 62
     3
100
AcDbLine
 10
790.2499999999999
 20
547.4999677999999
 30
0.0
 11
791.9999999999999
 21
549.2499677999999
 31
0.0
  0
LINE
  5
133
330
1F
100
AcDbEntity
  8
LAY-1
  6
CONTINUOUS
 62
     1
100
AcDbLine
 10
787.6999034
 20
560.5528699
 30
0.0
 11
791.1970979
 21
560.5528699
 31
0.0
  0
LINE
  5
134
330
1F
100
AcDbEntity
  8
LAY-1
  6
CONTINUOUS
 62
     1
100
AcDbLine
 10
787.6999034
 20
548.4470656999999
 30
0.0
 11
791.1970979
 21
548.4470656999999
 31
0.0
  0
LINE
  5
135
330
1F
100
AcDbEntity
  8
LAY-1
  6
CONTINUOUS
 62
     3
100
AcDbLine
 10
787.6999034
 20
547.4999677999999
 30
0.0
 11
790.25
 21
547.4999677999999
 31
0.0
  0
LINE
  5
136
330
1F
100
AcDbEntity
  8
LAY-1
  6
CONTINUOUS
 62
     3
100
AcDbLine
 10
787.6999034
 20
561.4999677999999
 30
0.0
 11
790.25
 21
561.4999677999999
 31
0.0
  0
ARC
  5
137
330
1F
100
AcDbEntity
  8
LAY-1
  6
CONTINUOUS
 62
     3
100
AcDbCircle
 10
774.5
 20
568.5
 30
0.0
 40
2.0
100
AcDbArc
 50
0.0
 51
90.00000000000001
  0
LINE
  5
138
330
1F
100
AcDbEntity
  8
LAY-1
  6
CONTINUOUS
 62
     3
100
AcDbLine
 10
776.5
 20
326.5000000000003
 30
0.0
 11
776.5
 21
568.5
 31
0.0
  0
ARC
  5
139
330
1F
100
AcDbEntity
  8
LAY-1
  6
CONTINUOUS
 62
     3
100
AcDbCircle
 10
774.5
 20
326.5000000000003
 30
0.0
 40
2.0
100
AcDbArc
 50
270.0
 51
0.0
  0
LINE
  5
13A
330
1F
100
AcDbEntity
  8
LAY-1
  6
CONTINUOUS
 62
     3
100
AcDbLine
 10
744.5
 20
572.5
 30
0.0
 11
744.5
 21
577.5
 31
0.0
  0
LINE
  5
13B
330
1F
100
AcDbEntity
  8
LAY-1
  6
CONTINUOUS
 62
     3
100
AcDbLine
 10
746.5
 20
570.5
 30
0.0
 11
774.5
 21
570.5
 31
0.0
  0
ARC
  5
13C
330
1F
100
AcDbEntity
  8
LAY-1
  6
CONTINUOUS
 62
     3
100
AcDbCircle
 10
746.5
 20
572.5
 30
0.0
 40
2.0
100
AcDbArc
 50
180.0
 51
270.0
  0
LINE
  5
13D
330
1F
100
AcDbEntity
  8
LAY-1
  6
CONTINUOUS
 62
     3
100
AcDbLine
 10
587.5
 20
570.5
 30
0.0
 11
559.5
 21
570.5
 31
0.0
  0
ARC
  5
13E
330
1F
100
AcDbEntity
  8
LAY-1
  6
CONTINUOUS
 62
     3
100
AcDbCircle
 10
587.5
 20
572.5
 30
0.0
 40
2.0
100
AcDbArc
 50
270.0
 51
0.0
  0
LINE
  5
13F
330
1F
100
AcDbEntity
  8
LAY-1
  6
CONTINUOUS
 62
     3
100
AcDbLine
 10
744.5
 20
577.5
 30
0.0
 11
734.5
 21
577.5
 31
0.0
  0
LINE
  5
140
330
1F
100
AcDbEntity
  8
LAY-1
  6
CONTINUOUS
 62
     3
100
AcDbLine
 10
589.5
 20
577.5
 30
0.0
 11
589.5
 21
593.5
 31
0.0
  0
ARC
  5
141
330
1F
100
AcDbEntity
  8
LAY-1
  6
CONTINUOUS
 62
     3
100
AcDbCircle
 10
591.5
 20
593.5
 30
0.0
 40
2.0
100
AcDbArc
 50
90.00000000000001
 51
180.0
  0
ARC
  5
142
330
1F
100
AcDbEntity
  8
LAY-1
  6
CONTINUOUS
 62
     3
100
AcDbCircle
 10
636.7502446186295
 20
625.5000000000001
 30
0.0
 40
8.0
100
AcDbArc
 50
205.8884039317592
 51
270.0
  0
ARC
  5
143
330
1F
100
AcDbEntity
  8
LAY-1
  6
CONTINUOUS
 62
     3
100
AcDbCircle
 10
599.6970874043791
 20
714.500000000002
 30
0.0
 40
2.0
100
AcDbArc
 50
270.0
 51
350.6957717983966
  0
ARC
  5
144
330
1F
100
AcDbEntity
  8
LAY-1
  6
CONTINUOUS
 62
     3
100
AcDbCircle
 10
602.8677012475541
 20
645.4999999999995
 30
0.0
 40
2.0
100
AcDbArc
 50
14.56611497977265
 51
90.00000000000001
  0
LINE
  5
145
330
1F
100
AcDbEntity
  8
LAY-1
  6
CONTINUOUS
 62
     3
100
AcDbLine
 10
602.8677012475541
 20
647.4999999999995
 30
0.0
 11
590.5
 21
647.4999999999995
 31
0.0
  0
LINE
  5
146
330
1F
100
AcDbEntity
  8
LAY-1
  6
CONTINUOUS
 62
     3
100
AcDbLine
 10
599.69708740438
 20
712.500000000002
 30
0.0
 11
590.5
 21
712.500000000002
 31
0.0
  0
LINE
  5
147
330
1F
100
AcDbEntity
  8
LAY-1
  6
CONTINUOUS
 62
     3
100
AcDbLine
 10
588.5
 20
707.315002
 30
0.0
 11
588.5
 21
687.684998
 31
0.0
  0
LINE
  5
148
330
1F
100
AcDbEntity
  8
LAY-1
  6
CONTINUOUS
 62
     3
100
AcDbLine
 10
581.5
 20
689.249939
 30
0.0
 11
581.5
 21
705.749939
 31
0.0
  0
LINE
  5
149
330
1F
100
AcDbEntity
  8
LAY-1
  6
CONTINUOUS
 62
     3
100
AcDbLine
 10
581.5
 20
705.749939
 30
0.0
 11
582.4035640000002
 21
707.315002
 31
0.0
  0
ARC
  5
14A
330
1F
100
AcDbEntity
  8
LAY-1
  6
CONTINUOUS
 62
     3
100
AcDbCircle
 10
595.2783200000001
 20
697.500351
 30
0.0
 40
13.778545
100
AcDbArc
 50
159.136449287508
 51
200.8667416760508
  0
ARC
  5
14B
330
1F
100
AcDbEntity
  8
LAY-1
  6
CONTINUOUS
 62
     3
100
AcDbCircle
 10
588.30719
 20
705.795258
 30
0.0
 40
6.807614
100
AcDbArc
 50
180.3814378520614
 51
209.8500896501275
  0
LINE
  5
14C
330
1F
100
AcDbEntity
  8
LAY-1
  6
CONTINUOUS
 62
     3
100
AcDbLine
 10
581.5
 20
689.249939
 30
0.0
 11
582.4035640000002
 21
687.684875
 31
0.0
  0
ARC
  5
14D
330
1F
100
AcDbEntity
  8
LAY-1
  6
CONTINUOUS
 62
     3
100
AcDbCircle
 10
588.30719
 20
689.20462
 30
0.0
 40
6.807614
100
AcDbArc
 50
150.1499103498725
 51
179.6185621479385
  0
LINE
  5
14E
330
1F
100
AcDbEntity
  8
LAY-1
  6
CONTINUOUS
 62
     3
100
AcDbLine
 10
588.499939
 20
702.4073490000001
 30
0.0
 11
582.4035640000002
 21
702.4073490000001
 31
0.0
  0
LINE
  5
14F
330
1F
100
AcDbEntity
  8
LAY-1
  6
CONTINUOUS
 62
     3
100
AcDbLine
 10
588.499939
 20
692.5925139999999
 30
0.0
 11
582.4035640000002
 21
692.5925139999999
 31
0.0
  0
LINE
  5
150
330
1F
100
AcDbEntity
  8
LAY-1
  6
CONTINUOUS
 62
     3
100
AcDbLine
 10
590.5
 20
707.314991830022
 30
0.0
 11
582.4036249999999
 21
707.3150330000001
 31
0.0
  0
LINE
  5
151
330
1F
100
AcDbEntity
  8
LAY-1
  6
CONTINUOUS
 62
     3
100
AcDbLine
 10
590.5
 20
687.6848848419143
 30
0.0
 11
582.4036249999999
 21
687.684845
 31
0.0
  0
LINE
  5
152
330
1F
100
AcDbEntity
  8
LAY-1
  6
CONTINUOUS
 62
     3
100
AcDbLine
 10
588.5
 20
672.315002
 30
0.0
 11
588.5
 21
652.684998
 31
0.0
  0
LINE
  5
153
330
1F
100
AcDbEntity
  8
LAY-1
  6
CONTINUOUS
 62
     3
100
AcDbLine
 10
581.5
 20
654.249939
 30
0.0
 11
581.5
 21
670.749939
 31
0.0
  0
LINE
  5
154
330
1F
100
AcDbEntity
  8
LAY-1
  6
CONTINUOUS
 62
     3
100
AcDbLine
 10
581.5
 20
670.749939
 30
0.0
 11
582.4035640000002
 21
672.315002
 31
0.0
  0
ARC
  5
155
330
1F
100
AcDbEntity
  8
LAY-1
  6
CONTINUOUS
 62
     3
100
AcDbCircle
 10
595.2783200000001
 20
662.500351
 30
0.0
 40
13.778545
100
AcDbArc
 50
159.136449287508
 51
200.8667416760508
  0
ARC
  5
156
330
1F
100
AcDbEntity
  8
LAY-1
  6
CONTINUOUS
 62
     3
100
AcDbCircle
 10
588.30719
 20
670.795258
 30
0.0
 40
6.807614
100
AcDbArc
 50
180.3814378520614
 51
209.8500896501275
  0
LINE
  5
157
330
1F
100
AcDbEntity
  8
LAY-1
  6
CONTINUOUS
 62
     3
100
AcDbLine
 10
581.5
 20
654.249939
 30
0.0
 11
582.4035640000002
 21
652.684875
 31
0.0
  0
ARC
  5
158
330
1F
100
AcDbEntity
  8
LAY-1
  6
CONTINUOUS
 62
     3
100
AcDbCircle
 10
588.30719
 20
654.20462
 30
0.0
 40
6.807614
100
AcDbArc
 50
150.1499103498725
 51
179.6185621479385
  0
LINE
  5
159
330
1F
100
AcDbEntity
  8
LAY-1
  6
CONTINUOUS
 62
     3
100
AcDbLine
 10
588.499939
 20
667.4073490000001
 30
0.0
 11
582.4035640000002
 21
667.4073490000001
 31
0.0
  0
LINE
  5
15A
330
1F
100
AcDbEntity
  8
LAY-1
  6
CONTINUOUS
 62
     3
100
AcDbLine
 10
588.499939
 20
657.5925139999999
 30
0.0
 11
582.4035640000002
 21
657.5925139999999
 31
0.0
  0
ARC
  5
15B
330
1F
100
AcDbEntity
  8
LAY-1
  6
CONTINUOUS
 62
     3
100
AcDbCircle
 10
764.5
 20
687.5
 30
0.0
 40
150.0
100
AcDbArc
 50
169.328070714238
 51
205.8884039317599
  0
ARC
  5
15C
330
1F
100
AcDbEntity
  8
LAY-1
  6
CONTINUOUS
 62
     3
100
AcDbCircle
 10
631.835008385784
 20
712.4999999999998
 30
0.0
 40
15.0
100
AcDbArc
 50
90.00000000000001
 51
169.3280707142381
  0
ARC
  5
15D
330
1F
100
AcDbEntity
  8
LAY-1
  6
CONTINUOUS
 62
     3
100
AcDbCircle
 10
764.5
 20
687.5
 30
0.0
 40
165.0
100
AcDbArc
 50
169.3280707142376
 51
170.6957717983972
  0
ARC
  5
15E
330
1F
100
AcDbEntity
  8
LAY-1
  6
CONTINUOUS
 62
     3
100
AcDbCircle
 10
764.5
 20
687.5
 30
0.0
 40
165.0
100
AcDbArc
 50
194.5661149797725
 51
207.9416047675495
  0
ARC
  5
15F
330
1F
100
AcDbEntity
  8
LAY-1
  6
CONTINUOUS
 62
     3
100
AcDbCircle
 10
774.5
 20
568.5
 30
0.0
 40
2.0
100
AcDbArc
 50
0.0
 51
90.00000000000001
  0
LINE
  5
160
330
1F
100
AcDbEntity
  8
LAY-1
  6
CONTINUOUS
 62
     3
100
AcDbLine
 10
746.5
 20
570.5
 30
0.0
 11
774.5
 21
570.5
 31
0.0
  0
ARC
  5
161
330
1F
100
AcDbEntity
  8
LAY-1
  6
CONTINUOUS
 62
     3
100
AcDbCircle
 10
746.5
 20
572.5
 30
0.0
 40
2.0
100
AcDbArc
 50
180.0
 51
270.0
  0
LINE
  5
162
330
1F
100
AcDbEntity
  8
LAY-1
  6
CONTINUOUS
 62
     3
100
AcDbLine
 10
744.5
 20
577.5
 30
0.0
 11
744.5
 21
593.5
 31
0.0
  0
ARC
  5
163
330
1F
100
AcDbEntity
  8
LAY-1
  6
CONTINUOUS
 62
     3
100
AcDbCircle
 10
742.5
 20
593.5
 30
0.0
 40
2.0
100
AcDbArc
 50
0.0
 51
90.00000000000001
  0
ARC
  5
164
330
1F
100
AcDbEntity
  8
LAY-1
  6
CONTINUOUS
 62
     3
100
AcDbCircle
 10
697.2497553813705
 20
625.5000000000001
 30
0.0
 40
8.0
100
AcDbArc
 50
270.0
 51
334.1115960682408
  0
ARC
  5
165
330
1F
100
AcDbEntity
  8
LAY-1
  6
CONTINUOUS
 62
     3
100
AcDbCircle
 10
734.302912595621
 20
714.500000000002
 30
0.0
 40
2.0
100
AcDbArc
 50
189.3042282016032
 51
270.0
  0
ARC
  5
166
330
1F
100
AcDbEntity
  8
LAY-1
  6
CONTINUOUS
 62
     3
100
AcDbCircle
 10
731.132298752446
 20
645.4999999999995
 30
0.0
 40
2.0
100
AcDbArc
 50
90.00000000000001
 51
165.4338850202273
  0
LINE
  5
167
330
1F
100
AcDbEntity
  8
LAY-1
  6
CONTINUOUS
 62
     3
100
AcDbLine
 10
731.132298752446
 20
647.4999999999995
 30
0.0
 11
743.5
 21
647.4999999999995
 31
0.0
  0
LINE
  5
168
330
1F
100
AcDbEntity
  8
LAY-1
  6
CONTINUOUS
 62
     3
100
AcDbLine
 10
734.30291259562
 20
712.500000000002
 30
0.0
 11
743.5
 21
712.500000000002
 31
0.0
  0
LINE
  5
169
330
1F
100
AcDbEntity
  8
LAY-1
  6
CONTINUOUS
 62
     3
100
AcDbLine
 10
752.5
 20
705.749939
 30
0.0
 11
751.5964359999999
 21
707.315002
 31
0.0
  0
ARC
  5
16A
330
1F
100
AcDbEntity
  8
LAY-1
  6
CONTINUOUS
 62
     3
100
AcDbCircle
 10
745.69281
 20
705.795258
 30
0.0
 40
6.807614
100
AcDbArc
 50
330.1499103498729
 51
359.6185621479386
  0
LINE
  5
16B
330
1F
100
AcDbEntity
  8
LAY-1
  6
CONTINUOUS
 62
     3
100
AcDbLine
 10
745.500061
 20
702.4073490000001
 30
0.0
 11
751.5964359999999
 21
702.4073490000001
 31
0.0
  0
LINE
  5
16C
330
1F
100
AcDbEntity
  8
LAY-1
  6
CONTINUOUS
 62
     3
100
AcDbLine
 10
743.5
 20
707.314991830022
 30
0.0
 11
751.596375
 21
707.3150330000001
 31
0.0
  0
LINE
  5
16D
330
1F
100
AcDbEntity
  8
LAY-1
  6
CONTINUOUS
 62
     3
100
AcDbLine
 10
745.5
 20
672.315002
 30
0.0
 11
745.5
 21
652.684998
 31
0.0
  0
LINE
  5
16E
330
1F
100
AcDbEntity
  8
LAY-1
  6
CONTINUOUS
 62
     3
100
AcDbLine
 10
752.5
 20
654.249939
 30
0.0
 11
752.5
 21
670.749939
 31
0.0
  0
LINE
  5
16F
330
1F
100
AcDbEntity
  8
LAY-1
  6
CONTINUOUS
 62
     3
100
AcDbLine
 10
752.5
 20
670.749939
 30
0.0
 11
751.5964359999999
 21
672.315002
 31
0.0
  0
ARC
  5
170
330
1F
100
AcDbEntity
  8
LAY-1
  6
CONTINUOUS
 62
     3
100
AcDbCircle
 10
738.7216799999999
 20
662.500351
 30
0.0
 40
13.778545
100
AcDbArc
 50
339.1332583239492
 51
20.86355071249204
  0
ARC
  5
171
330
1F
100
AcDbEntity
  8
LAY-1
  6
CONTINUOUS
 62
     3
100
AcDbCircle
 10
745.69281
 20
670.795258
 30
0.0
 40
6.807614
100
AcDbArc
 50
330.1499103498725
 51
359.6185621479386
  0
LINE
  5
172
330
1F
100
AcDbEntity
  8
LAY-1
  6
CONTINUOUS
 62
     3
100
AcDbLine
 10
752.5
 20
654.249939
 30
0.0
 11
751.5964359999999
 21
652.684875
 31
0.0
  0
ARC
  5
173
330
1F
100
AcDbEntity
  8
LAY-1
  6
CONTINUOUS
 62
     3
100
AcDbCircle
 10
745.69281
 20
654.20462
 30
0.0
 40
6.807614
100
AcDbArc
 50
0.3814378520613731
 51
29.8500896501275
  0
LINE
  5
174
330
1F
100
AcDbEntity
  8
LAY-1
  6
CONTINUOUS
 62
     3
100
AcDbLine
 10
745.500061
 20
667.4073490000001
 30
0.0
 11
751.5964359999999
 21
667.4073490000001
 31
0.0
  0
LINE
  5
175
330
1F
100
AcDbEntity
  8
LAY-1
  6
CONTINUOUS
 62
     3
100
AcDbLine
 10
745.500061
 20
657.5925139999999
 30
0.0
 11
751.5964359999999
 21
657.5925139999999
 31
0.0
  0
ARC
  5
176
330
1F
100
AcDbEntity
  8
LAY-1
  6
CONTINUOUS
 62
     3
100
AcDbCircle
 10
702.164991614216
 20
712.4999999999998
 30
0.0
 40
15.0
100
AcDbArc
 50
10.6719292857619
 51
90.00000000000001
  0
ARC
  5
177
330
1F
100
AcDbEntity
  8
LAY-1
  6
CONTINUOUS
 62
     3
100
AcDbCircle
 10
569.5
 20
687.5
 30
0.0
 40
165.0
100
AcDbArc
 50
9.304228201602823
 51
10.67192928576236
  0
ARC
  5
178
330
1F
100
AcDbEntity
  8
LAY-1
  6
CONTINUOUS
 62
     3
100
AcDbCircle
 10
569.5
 20
687.5
 30
0.0
 40
165.0
100
AcDbArc
 50
332.0583952324506
 51
345.4338850202275
  0
ARC
  5
179
330
1F
100
AcDbEntity
  8
LAY-1
  6
CONTINUOUS
 62
     3
100
AcDbCircle
 10
948.0
 20
328.0
 30
0.0
 40
3.0
100
AcDbArc
 50
180.0
 51
270.0
  0
LINE
  5
17A
330
1F
100
AcDbEntity
  8
LAY-1
  6
CONTINUOUS
 62
     3
100
AcDbLine
 10
957.0
 20
325.0
 30
0.0
 11
957.0
 21
280.0
 31
0.0
  0
LINE
  5
17B
330
1F
100
AcDbEntity
  8
LAY-1
  6
CONTINUOUS
 62
     3
100
AcDbLine
 10
948.0
 20
325.0
 30
0.0
 11
957.0
 21
325.0
 31
0.0
  0
LINE
  5
17C
330
1F
100
AcDbEntity
  8
LAY-1
  6
CONTINUOUS
 62
     3
100
AcDbLine
 10
949.5
 20
555.0
 30
0.0
 11
949.5
 21
540.0
 31
0.0
  0
ARC
  5
17D
330
1F
100
AcDbEntity
  8
LAY-1
  6
CONTINUOUS
 62
     3
100
AcDbCircle
 10
948.5
 20
540.0
 30
0.0
 40
1.0
100
AcDbArc
 50
270.0
 51
0.0
  0
ARC
  5
17E
330
1F
100
AcDbEntity
  8
LAY-1
  6
CONTINUOUS
 62
     3
100
AcDbCircle
 10
946.0
 20
538.0
 30
0.0
 40
1.0
100
AcDbArc
 50
90.00000000000001
 51
180.0
  0
LINE
  5
17F
330
1F
100
AcDbEntity
  8
LAY-1
  6
CONTINUOUS
 62
     3
100
AcDbLine
 10
829.5
 20
280.0
 30
0.0
 11
957.0
 21
280.0
 31
0.0
  0
ARC
  5
180
330
1F
100
AcDbEntity
  8
LAY-1
  6
CONTINUOUS
 62
     3
100
AcDbCircle
 10
829.5
 20
300.5
 30
0.0
 40
20.5
100
AcDbArc
 50
180.0
 51
270.0
  0
LINE
  5
181
330
1F
100
AcDbEntity
  8
LAY-1
  6
CONTINUOUS
 62
     3
100
AcDbLine
 10
804.5
 20
555.0
 30
0.0
 11
804.5
 21
533.0
 31
0.0
  0
ARC
  5
182
330
1F
100
AcDbEntity
  8
LAY-1
  6
CONTINUOUS
 62
     3
100
AcDbCircle
 10
799.5
 20
533.0
 30
0.0
 40
5.0
100
AcDbArc
 50
270.0
 51
0.0
  0
ARC
  5
183
330
1F
100
AcDbEntity
  8
LAY-1
  6
CONTINUOUS
 62
     3
100
AcDbCircle
 10
804.0
 20
362.0
 30
0.0
 40
5.0
100
AcDbArc
 50
0.0
 51
90.00000000000001
  0
LINE
  5
184
330
1F
100
AcDbEntity
  8
LAY-1
  6
CONTINUOUS
 62
     3
100
AcDbLine
 10
787.6999034
 20
367.0
 30
0.0
 11
804.0
 21
367.0
 31
0.0
  0
LINE
  5
185
330
1F
100
AcDbEntity
  8
LAY-1
  6
CONTINUOUS
 62
     3
100
AcDbLine
 10
799.5
 20
528.0
 30
0.0
 11
787.66888893264
 21
528.0
 31
0.0
  0
ARC
  5
186
330
1F
100
AcDbEntity
  8
LAY-1
  6
CONTINUOUS
 62
     3
100
AcDbCircle
 10
808.0
 20
538.0
 30
0.0
 40
1.0
100
AcDbArc
 50
0.0
 51
90.00000000000001
  0
ARC
  5
187
330
1F
100
AcDbEntity
  8
LAY-1
  6
CONTINUOUS
 62
     3
100
AcDbCircle
 10
805.5
 20
540.0
 30
0.0
 40
1.0
100
AcDbArc
 50
180.0
 51
270.0
  0
LINE
  5
188
330
1F
100
AcDbEntity
  8
LAY-1
  6
CONTINUOUS
 62
     3
100
AcDbLine
 10
809.0
 20
300.5
 30
0.0
 11
809.0
 21
539.0
 31
0.0
  0
LINE
  5
189
330
1F
100
AcDbEntity
  8
LAY-1
  6
CONTINUOUS
 62
     3
100
AcDbLine
 10
974.47
 20
314.5
 30
0.0
 11
962.0
 21
314.5
 31
0.0
  0
LINE
  5
18A
330
1F
100
AcDbEntity
  8
LAY-1
  6
CONTINUOUS
 62
     3
100
AcDbLine
 10
974.4699999999999
 20
314.5
 30
0.0
 11
974.4699999999999
 21
302.5
 31
0.0
  0
LINE
  5
18B
330
1F
100
AcDbEntity
  8
LAY-1
  6
CONTINUOUS
 62
     1
100
AcDbLine
 10
974.47
 20
314.5
 30
0.0
 11
962.0
 21
302.5
 31
0.0
  0
LINE
  5
18C
330
1F
100
AcDbEntity
  8
LAY-1
  6
CONTINUOUS
 62
     1
100
AcDbLine
 10
974.47
 20
302.5
 30
0.0
 11
962.0
 21
314.5
 31
0.0
  0
LINE
  5
18D
330
1F
100
AcDbEntity
  8
LAY-1
  6
CONTINUOUS
 62
     3
100
AcDbLine
 10
974.47
 20
290.5
 30
0.0
 11
962.0
 21
290.5
 31
0.0
  0
LINE
  5
18E
330
1F
100
AcDbEntity
  8
LAY-1
  6
CONTINUOUS
 62
     3
100
AcDbLine
 10
974.4699999999999
 20
290.5
 30
0.0
 11
974.4699999999999
 21
302.5
 31
0.0
  0
LINE
  5
18F
330
1F
100
AcDbEntity
  8
LAY-1
  6
CONTINUOUS
 62
     1
100
AcDbLine
 10
974.47
 20
290.5
 30
0.0
 11
962.0
 21
302.5
 31
0.0
  0
LINE
  5
190
330
1F
100
AcDbEntity
  8
LAY-1
  6
CONTINUOUS
 62
     1
100
AcDbLine
 10
974.47
 20
302.5
 30
0.0
 11
962.0
 21
290.5
 31
0.0
  0
LINE
  5
191
330
1F
100
AcDbEntity
  8
LAY-1
  6
CONTINUOUS
 62
     3
100
AcDbLine
 10
962.0
 20
289.2795
 30
0.0
 11
962.0
 21
315.7205
 31
0.0
  0
LINE
  5
192
330
1F
100
AcDbEntity
  8
LAY-1
  6
CONTINUOUS
 62
     3
100
AcDbLine
 10
957.0
 20
315.5458961525412
 30
0.0
 11
962.0
 21
315.7204999999999
 31
0.0
  0
LINE
  5
193
330
1F
100
AcDbEntity
  8
LAY-1
  6
CONTINUOUS
 62
     1
100
AcDbLine
 10
957.0000000000001
 20
314.3831878620661
 30
0.0
 11
961.9999999999998
 21
314.5577917095247
 31
0.0
  0
LINE
  5
194
330
1F
100
AcDbEntity
  8
LAY-1
  6
CONTINUOUS
 62
     1
100
AcDbLine
 10
957.0
 20
290.6168121379339
 30
0.0
 11
961.9999999999998
 21
290.4422082904753
 31
0.0
  0
LINE
  5
195
330
1F
100
AcDbEntity
  8
LAY-1
  6
CONTINUOUS
 62
     3
100
AcDbLine
 10
956.9594467848318
 20
289.4555199969378
 30
0.0
 11
962.0
 21
289.2795000000001
 31
0.0
  0
ARC
  5
196
330
1F
100
AcDbEntity
  8
LAY-1
  6
CONTINUOUS
 62
     3
100
AcDbCircle
 10
924.5
 20
300.5
 30
0.0
 40
20.5
100
AcDbArc
 50
270.0
 51
0.0
  0
LINE
  5
197
330
1F
100
AcDbEntity
  8
LAY-1
  6
CONTINUOUS
 62
     3
100
AcDbLine
 10
945.0
 20
300.5
 30
0.0
 11
945.0
 21
538.0
 31
0.0
  0
LINE
  5
198
330
1F
100
AcDbEntity
  8
LAY-1
  6
CONTINUOUS
 62
     3
100
AcDbLine
 10
877.0
 20
294.0
 30
0.0
 11
862.0
 21
294.0
 31
0.0
  0
LINE
  5
199
330
1F
100
AcDbEntity
  8
LAY-1
  6
CONTINUOUS
 62
     3
100
AcDbLine
 10
862.0
 20
280.0
 30
0.0
 11
862.0
 21
294.0
 31
0.0
  0
LINE
  5
19A
330
1F
100
AcDbEntity
  8
LAY-1
  6
CONTINUOUS
 62
     3
100
AcDbLine
 10
877.0
 20
294.0
 30
0.0
 11
892.0
 21
294.0
 31
0.0
  0
LINE
  5
19B
330
1F
100
AcDbEntity
  8
LAY-1
  6
CONTINUOUS
 62
     3
100
AcDbLine
 10
892.0
 20
280.0
 30
0.0
 11
892.0
 21
294.0
 31
0.0
  0
ARC
  5
19C
330
1F
100
AcDbEntity
  8
LAY-1
  6
CONTINUOUS
 62
     3
100
AcDbCircle
 10
902.5
 20
631.9999999999983
 30
0.0
 40
2.0
100
AcDbArc
 50
0.0
 51
90.00000000000001
  0
LINE
  5
19D
330
1F
100
AcDbEntity
  8
LAY-1
  6
CONTINUOUS
 62
     3
100
AcDbLine
 10
904.5
 20
590.9999999999977
 30
0.0
 11
904.5
 21
631.9999999999983
 31
0.0
  0
ARC
  5
19E
330
1F
100
AcDbEntity
  8
LAY-1
  6
CONTINUOUS
 62
     3
100
AcDbCircle
 10
902.5
 20
590.9999999999977
 30
0.0
 40
2.0
100
AcDbArc
 50
270.0
 51
0.0
  0
LINE
  5
19F
330
1F
100
AcDbEntity
  8
LAY-1
  6
CONTINUOUS
 62
     3
100
AcDbLine
 10
856.215301
 20
660.0
 30
0.0
 11
897.7846829999999
 21
660.0
 31
0.0
  0
ARC
  5
1A0
330
1F
100
AcDbEntity
  8
LAY-1
  6
CONTINUOUS
 62
     3
100
AcDbCircle
 10
864.1986079999999
 20
659.1999969999999
 30
0.0
 40
0.8
100
AcDbArc
 50
359.9999988761253
 51
89.99998015215814
  0
ARC
  5
1A1
330
1F
100
AcDbEntity
  8
LAY-1
  6
CONTINUOUS
 62
     3
100
AcDbCircle
 10
889.798645
 20
659.1999969999999
 30
0.0
 40
0.8
100
AcDbArc
 50
90.00001984784183
 51
180.0000011238747
  0
LINE
  5
1A2
330
1F
100
AcDbEntity
  8
LAY-1
  6
CONTINUOUS
 62
     3
100
AcDbLine
 10
859.998626
 20
675.000107
 30
0.0
 11
893.998626
 21
675.000107
 31
0.0
  0
LINE
  5
1A3
330
1F
100
AcDbEntity
  8
LAY-1
  6
CONTINUOUS
 62
     3
100
AcDbLine
 10
859.998626
 20
675.000107
 30
0.0
 11
856.2138669999999
 21
672.814972
 31
0.0
  0
ARC
  5
1A4
330
1F
100
AcDbEntity
  8
LAY-1
  6
CONTINUOUS
 62
     3
100
AcDbCircle
 10
877.0014799999999
 20
649.1802519999999
 30
0.0
 40
25.819658
100
AcDbArc
 50
66.27293841909714
 51
113.7410020554183
  0
ARC
  5
1A5
330
1F
100
AcDbEntity
  8
LAY-1
  6
CONTINUOUS
 62
     3
100
AcDbCircle
 10
859.842773
 20
663.443039
 30
0.0
 40
11.557911
100
AcDbArc
 50
54.18501863210384
 51
89.22740386120266
  0
LINE
  5
1A6
330
1F
100
AcDbEntity
  8
LAY-1
  6
CONTINUOUS
 62
     3
100
AcDbLine
 10
893.998626
 20
675.000107
 30
0.0
 11
897.783386
 21
672.8149719999999
 31
0.0
  0
ARC
  5
1A7
330
1F
100
AcDbEntity
  8
LAY-1
  6
CONTINUOUS
 62
     3
100
AcDbCircle
 10
894.1544799999999
 20
663.443039
 30
0.0
 40
11.557911
100
AcDbArc
 50
90.77259613879738
 51
125.8149240721164
  0
LINE
  5
1A8
330
1F
100
AcDbEntity
  8
LAY-1
  6
CONTINUOUS
 62
     3
100
AcDbLine
 10
856.215301
 20
660.0
 30
0.0
 11
856.2138519999999
 21
672.814972
 31
0.0
  0
LINE
  5
1A9
330
1F
100
AcDbEntity
  8
LAY-1
  6
CONTINUOUS
 62
     3
100
AcDbLine
 10
866.607818
 20
660.000092
 30
0.0
 11
866.6063839999999
 21
672.815857
 31
0.0
  0
LINE
  5
1AA
330
1F
100
AcDbEntity
  8
LAY-1
  6
CONTINUOUS
 62
     3
100
AcDbLine
 10
887.392303
 20
660.000092
 30
0.0
 11
887.390869
 21
672.8176269999999
 31
0.0
  0
LINE
  5
1AB
330
1F
100
AcDbEntity
  8
LAY-1
  6
CONTINUOUS
 62
     3
100
AcDbLine
 10
897.7846829999999
 20
660.0
 30
0.0
 11
897.783249
 21
672.8185119999999
 31
0.0
  0
LINE
  5
1AC
330
1F
100
AcDbEntity
  8
LAY-1
  6
CONTINUOUS
 62
     3
100
AcDbLine
 10
888.9986419999998
 20
654.3
 30
0.0
 11
864.9986109999999
 21
654.299985
 31
0.0
  0
LINE
  5
1AD
330
1F
100
AcDbEntity
  8
LAY-1
  6
CONTINUOUS
 62
     1
100
AcDbLine
 10
864.9986109999999
 20
658.799985
 30
0.0
 11
866.6226039999999
 21
654.299985
 31
0.0
  0
LINE
  5
1AE
330
1F
100
AcDbEntity
  8
LAY-1
  6
CONTINUOUS
 62
     1
100
AcDbLine
 10
888.9986419999998
 20
658.799985
 30
0.0
 11
887.3746489999999
 21
654.299985
 31
0.0
  0
ARC
  5
1AF
330
1F
100
AcDbEntity
  8
LAY-1
  6
CONTINUOUS
 62
     3
100
AcDbCircle
 10
851.5
 20
631.9999999999983
 30
0.0
 40
2.0
100
AcDbArc
 50
90.00000000000001
 51
180.0
  0
LINE
  5
1B0
330
1F
100
AcDbEntity
  8
LAY-1
  6
CONTINUOUS
 62
     3
100
AcDbLine
 10
849.5
 20
590.9999999999977
 30
0.0
 11
849.5
 21
631.9999999999983
 31
0.0
  0
ARC
  5
1B1
330
1F
100
AcDbEntity
  8
LAY-1
  6
CONTINUOUS
 62
     3
100
AcDbCircle
 10
851.5
 20
590.9999999999977
 30
0.0
 40
2.0
100
AcDbArc
 50
180.0
 51
270.0
  0
LINE
  5
1B2
330
1F
100
AcDbEntity
  8
LAY-1
  6
CONTINUOUS
 62
     3
100
AcDbLine
 10
949.5
 20
555.0
 30
0.0
 11
939.5
 21
555.0
 31
0.0
  0
LINE
  5
1B3
330
1F
100
AcDbEntity
  8
LAY-1
  6
CONTINUOUS
 62
     3
100
AcDbLine
 10
949.5
 20
562.9999999999993
 30
0.0
 11
949.5
 21
555.0
 31
0.0
  0
ARC
  5
1B4
330
1F
100
AcDbEntity
  8
LAY-1
  6
CONTINUOUS
 62
     3
100
AcDbCircle
 10
947.5
 20
562.9999999999993
 30
0.0
 40
2.0
100
AcDbArc
 50
0.0
 51
90.00000000000001
  0
LINE
  5
1B5
330
1F
100
AcDbEntity
  8
LAY-1
  6
CONTINUOUS
 62
     3
100
AcDbLine
 10
901.5
 20
564.9999999999993
 30
0.0
 11
947.5
 21
564.9999999999993
 31
0.0
  0
ARC
  5
1B6
330
1F
100
AcDbEntity
  8
LAY-1
  6
CONTINUOUS
 62
     3
100
AcDbCircle
 10
806.5
 20
562.9999999999993
 30
0.0
 40
2.0
100
AcDbArc
 50
90.00000000000001
 51
180.0
  0
LINE
  5
1B7
330
1F
100
AcDbEntity
  8
LAY-1
  6
CONTINUOUS
 62
     3
100
AcDbLine
 10
852.5
 20
564.9999999999993
 30
0.0
 11
806.5
 21
564.9999999999993
 31
0.0
  0
LINE
  5
1B8
330
1F
100
AcDbEntity
  8
LAY-1
  6
CONTINUOUS
 62
     3
100
AcDbLine
 10
804.5
 20
562.9999999999993
 30
0.0
 11
804.5
 21
555.0
 31
0.0
  0
ARC
  5
1B9
330
1F
100
AcDbEntity
  8
LAY-1
  6
CONTINUOUS
 62
     3
100
AcDbCircle
 10
854.5
 20
525.0
 30
0.0
 40
2.0
100
AcDbArc
 50
180.0
 51
270.0
  0
ARC
  5
1BA
330
1F
100
AcDbEntity
  8
LAY-1
  6
CONTINUOUS
 62
     3
100
AcDbCircle
 10
849.0
 20
525.0
 30
0.0
 40
2.0
100
AcDbArc
 50
180.0
 51
270.0
  0
LINE
  5
1BB
330
1F
100
AcDbEntity
  8
LAY-1
  6
CONTINUOUS
 62
     3
100
AcDbLine
 10
877.0
 20
523.0
 30
0.0
 11
854.5
 21
523.0
 31
0.0
  0
LINE
  5
1BC
330
1F
100
AcDbEntity
  8
LAY-1
  6
CONTINUOUS
 62
     3
100
AcDbLine
 10
850.5
 20
523.0
 30
0.0
 11
849.0
 21
523.0
 31
0.0
  0
ARC
  5
1BD
330
1F
100
AcDbEntity
  8
LAY-1
  6
CONTINUOUS
 62
     3
100
AcDbCircle
 10
850.5
 20
525.0
 30
0.0
 40
2.0
100
AcDbArc
 50
270.0
 51
0.0
  0
LINE
  5
1BE
330
1F
100
AcDbEntity
  8
LAY-1
  6
CONTINUOUS
 62
     3
100
AcDbLine
 10
845.0
 20
539.0
 30
0.0
 11
805.5
 21
539.0
 31
0.0
  0
ARC
  5
1BF
330
1F
100
AcDbEntity
  8
LAY-1
  6
CONTINUOUS
 62
     3
100
AcDbCircle
 10
845.0
 20
537.0
 30
0.0
 40
2.0
100
AcDbArc
 50
0.0
 51
90.00000000000001
  0
LINE
  5
1C0
330
1F
100
AcDbEntity
  8
LAY-1
  6
CONTINUOUS
 62
     3
100
AcDbLine
 10
847.0
 20
525.0
 30
0.0
 11
847.0
 21
555.0
 31
0.0
  0
LINE
  5
1C1
330
1F
100
AcDbEntity
  8
LAY-1
  6
CONTINUOUS
 62
     3
100
AcDbLine
 10
852.5
 20
525.0
 30
0.0
 11
852.5
 21
633.9999999999983
 31
0.0
  0
LINE
  5
1C2
330
1F
100
AcDbEntity
  8
LAY-1
  6
CONTINUOUS
 62
     3
100
AcDbLine
 10
867.0
 20
579.0
 30
0.0
 11
867.0
 21
633.9999999999983
 31
0.0
  0
LINE
  5
1C3
330
1F
100
AcDbEntity
  8
LAY-1
  6
CONTINUOUS
 62
     3
100
AcDbLine
 10
851.5
 20
633.9999999999983
 30
0.0
 11
877.0
 21
633.9999999999983
 31
0.0
  0
LINE
  5
1C4
330
1F
100
AcDbEntity
  8
LAY-1
  6
CONTINUOUS
 62
     3
100
AcDbLine
 10
902.5
 20
633.9999999999983
 30
0.0
 11
877.0
 21
633.9999999999983
 31
0.0
  0
LINE
  5
1C5
330
1F
100
AcDbEntity
  8
LAY-1
  6
CONTINUOUS
 62
     1
100
AcDbLine
 10
866.6226039999999
 20
654.29998601499
 30
0.0
 11
866.6226039999999
 21
633.9999999999983
 31
0.0
  0
LINE
  5
1C6
330
1F
100
AcDbEntity
  8
LAY-1
  6
CONTINUOUS
 62
     3
100
AcDbLine
 10
864.998611
 20
633.9999999999983
 30
0.0
 11
864.998611
 21
659.999997
 31
0.0
  0
LINE
  5
1C7
330
1F
100
AcDbEntity
  8
LAY-1
  6
CONTINUOUS
 62
     1
100
AcDbLine
 10
887.3773960000001
 20
654.29998601499
 30
0.0
 11
887.3773960000001
 21
633.9999999999983
 31
0.0
  0
LINE
  5
1C8
330
1F
100
AcDbEntity
  8
LAY-1
  6
CONTINUOUS
 62
     3
100
AcDbLine
 10
889.001389
 20
633.9999999999983
 30
0.0
 11
889.001389
 21
659.999997
 31
0.0
  0
LINE
  5
1C9
330
1F
100
AcDbEntity
  8
LAY-1
  6
CONTINUOUS
 62
     3
100
AcDbLine
 10
887.0
 20
579.0
 30
0.0
 11
887.0
 21
633.9999999999983
 31
0.0
  0
LINE
  5
1CA
330
1F
100
AcDbEntity
  8
LAY-1
  6
CONTINUOUS
 62
     3
100
AcDbLine
 10
888.9986419999999
 20
633.9999999999983
 30
0.0
 11
888.9986419999999
 21
659.9999999999999
 31
0.0
  0
LINE
  5
1CB
330
1F
100
AcDbEntity
  8
LAY-1
  6
CONTINUOUS
 62
     3
100
AcDbLine
 10
901.5
 20
525.0
 30
0.0
 11
901.5
 21
633.9999999999983
 31
0.0
  0
LINE
  5
1CC
330
1F
100
AcDbEntity
  8
LAY-1
  6
CONTINUOUS
 62
     3
100
AcDbLine
 10
852.5
 20
588.9999999999977
 30
0.0
 11
851.5
 21
588.9999999999977
 31
0.0
  0
LINE
  5
1CD
330
1F
100
AcDbEntity
  8
LAY-1
  6
CONTINUOUS
 62
     3
100
AcDbLine
 10
902.5
 20
588.9999999999977
 30
0.0
 11
901.5
 21
588.9999999999977
 31
0.0
  0
LINE
  5
1CE
330
1F
100
AcDbEntity
  8
LAY-1
  6
CONTINUOUS
 62
     3
100
AcDbLine
 10
804.5
 20
555.0
 30
0.0
 11
852.5
 21
555.0
 31
0.0
  0
LINE
  5
1CF
330
1F
100
AcDbEntity
  8
LAY-1
  6
CONTINUOUS
 62
     3
100
AcDbLine
 10
901.5
 20
555.0
 30
0.0
 11
949.5
 21
555.0
 31
0.0
  0
ARC
  5
1D0
330
1F
100
AcDbEntity
  8
LAY-1
  6
CONTINUOUS
 62
     3
100
AcDbCircle
 10
899.5
 20
525.0
 30
0.0
 40
2.0
100
AcDbArc
 50
270.0
 51
0.0
  0
LINE
  5
1D1
330
1F
100
AcDbEntity
  8
LAY-1
  6
CONTINUOUS
 62
     3
100
AcDbLine
 10
877.0
 20
523.0
 30
0.0
 11
899.5
 21
523.0
 31
0.0
  0
LINE
  5
1D2
330
1F
100
AcDbEntity
  8
LAY-1
  6
CONTINUOUS
 62
     3
100
AcDbLine
 10
901.5
 20
539.0
 30
0.0
 11
948.5
 21
539.0
 31
0.0
  0
LINE
  5
1D3
330
1F
100
AcDbEntity
  8
LAY-1
  6
CONTINUOUS
 62
     3
100
AcDbLine
 10
632.0
 20
632.5000000000002
 30
0.0
 11
632.0
 21
650.5000000000007
 31
0.0
  0
LINE
  5
1D4
330
1F
100
AcDbEntity
  8
LAY-1
  6
CONTINUOUS
 62
     3
100
AcDbLine
 10
702.0
 20
632.5000000000002
 30
0.0
 11
702.0
 21
650.5000000000007
 31
0.0
  0
LINE
  5
1D5
330
1F
100
AcDbEntity
  8
LAY-1
  6
CONTINUOUS
 62
     3
100
AcDbLine
 10
642.0
 20
700.0
 30
0.0
 11
642.0
 21
675.0
 31
0.0
  0
LINE
  5
1D6
330
1F
100
AcDbEntity
  8
LAY-1
  6
CONTINUOUS
 62
     3
100
AcDbLine
 10
692.0
 20
700.0
 30
0.0
 11
692.0
 21
675.0
 31
0.0
  0
LINE
  5
1D7
330
1F
100
AcDbEntity
  8
LAY-1
  6
CONTINUOUS
 62
     3
100
AcDbLine
 10
888.5063509461099
 20
695.5
 30
0.0
 11
692.0
 21
695.5
 31
0.0
  0
LINE
  5
1D8
330
1F
100
AcDbEntity
  8
LAY-1
  6
CONTINUOUS
 62
     3
100
AcDbLine
 10
888.50635094611
 20
695.5
 30
0.0
 11
888.50635094611
 21
679.5
 31
0.0
  0
ARC
  5
1D9
330
1F
100
AcDbEntity
  8
LAY-1
  6
CONTINUOUS
 62
     3
100
AcDbCircle
 10
569.5
 20
687.5
 30
0.0
 40
150.0
100
AcDbArc
 50
3.057225428459235
 51
10.67192928576202
  0
ARC
  5
1DA
330
1F
100
AcDbEntity
  8
LAY-1
  6
CONTINUOUS
 62
     3
100
AcDbCircle
 10
569.5
 20
687.5
 30
0.0
 40
150.0
100
AcDbArc
 50
334.1115960682402
 51
356.9427745715407
  0
LINE
  5
1DB
330
1F
100
AcDbEntity
  8
LAY-1
  6
CONTINUOUS
 62
     3
100
AcDbLine
 10
745.5000000000001
 20
695.5
 30
0.0
 11
745.5000000000001
 21
706.0
 31
0.0
  0
ARC
  5
1DC
330
1F
100
AcDbEntity
  8
LAY-1
  6
CONTINUOUS
 62
     3
100
AcDbCircle
 10
738.7216799999999
 20
697.500351
 30
0.0
 40
13.778545
100
AcDbArc
 50
351.652373610687
 51
20.86355071249181
  0
LINE
  5
1DD
330
1F
100
AcDbEntity
  8
LAY-1
  6
CONTINUOUS
 62
     3
100
AcDbLine
 10
752.5
 20
695.5
 30
0.0
 11
752.5
 21
705.749939
 31
0.0
  0
LINE
  5
1DE
330
1F
100
AcDbEntity
  8
LAY-1
  6
CONTINUOUS
 62
     3
100
AcDbLine
 10
745.5
 20
707.315002
 30
0.0
 11
745.5
 21
695.5
 31
0.0
  0
LINE
  5
1DF
330
1F
100
AcDbEntity
  8
LAY-1
  6
CONTINUOUS
 62
     3
100
AcDbLine
 10
641.0
 20
721.499999999996
 30
0.0
 11
641.0
 21
727.4999999999982
 31
0.0
  0
LINE
  5
1E0
330
1F
100
AcDbEntity
  8
LAY-1
  6
CONTINUOUS
 62
     3
100
AcDbLine
 10
634.5
 20
759.7999999999932
 30
0.0
 11
634.5
 21
787.7999999999922
 31
0.0
  0
LINE
  5
1E1
330
1F
100
AcDbEntity
  8
LAY-1
  6
EXLTYPE2
 62
     1
100
AcDbLine
 10
486.0
 20
773.7999999999934
 30
0.0
 11
694.0
 21
773.7999999999934
 31
0.0
  0
LINE
  5
1E2
330
1F
100
AcDbEntity
  8
LAY-1
  6
CONTINUOUS
 62
     3
100
AcDbLine
 10
631.1000000000085
 20
783.2999999999935
 30
0.0
 11
634.5000000000025
 21
786.6999999999875
 31
0.0
  0
LINE
  5
1E3
330
1F
100
AcDbEntity
  8
LAY-1
  6
CONTINUOUS
 62
     3
100
AcDbLine
 10
493.0
 20
783.2999999999935
 30
0.0
 11
634.5
 21
783.2999999999935
 31
0.0
  0
LINE
  5
1E4
330
1F
100
AcDbEntity
  8
LAY-1
  6
CONTINUOUS
 62
     3
100
AcDbLine
 10
492.0
 20
782.2999999999935
 30
0.0
 11
493.0
 21
783.2999999999935
 31
0.0
  0
LINE
  5
1E5
330
1F
100
AcDbEntity
  8
LAY-1
  6
CONTINUOUS
 62
     3
100
AcDbLine
 10
631.1000000000085
 20
764.2999999999932
 30
0.0
 11
634.5000000000025
 21
760.8999999999992
 31
0.0
  0
LINE
  5
1E6
330
1F
100
AcDbEntity
  8
LAY-1
  6
CONTINUOUS
 62
     3
100
AcDbLine
 10
493.0
 20
764.2999999999932
 30
0.0
 11
634.5
 21
764.2999999999932
 31
0.0
  0
LINE
  5
1E7
330
1F
100
AcDbEntity
  8
LAY-1
  6
CONTINUOUS
 62
     3
100
AcDbLine
 10
492.0
 20
765.2999999999932
 30
0.0
 11
493.0
 21
764.2999999999932
 31
0.0
  0
LINE
  5
1E8
330
1F
100
AcDbEntity
  8
LAY-1
  6
CONTINUOUS
 62
     3
100
AcDbLine
 10
492.0
 20
782.2999999999935
 30
0.0
 11
492.0
 21
765.29999999999
 31
0.0
  0
LINE
  5
1E9
330
1F
100
AcDbEntity
  8
LAY-1
  6
CONTINUOUS
 62
     3
100
AcDbLine
 10
638.25
 20
787.7999999999922
 30
0.0
 11
638.25
 21
793.75758622134
 31
0.0
  0
LINE
  5
1EA
330
1F
100
AcDbEntity
  8
LAY-1
  6
CONTINUOUS
 62
     3
100
AcDbLine
 10
638.25
 20
793.7575862213441
 30
0.0
 11
643.0000000000023
 21
796.4999999999961
 31
0.0
  0
LINE
  5
1EB
330
1F
100
AcDbEntity
  8
LAY-1
  6
CONTINUOUS
 62
     3
100
AcDbLine
 10
643.0
 20
796.4999999999956
 30
0.0
 11
655.0
 21
796.4999999999956
 31
0.0
  0
LINE
  5
1EC
330
1F
100
AcDbEntity
  8
LAY-1
  6
CONTINUOUS
 62
     3
100
AcDbLine
 10
693.0
 20
721.499999999996
 30
0.0
 11
693.0
 21
727.4999999999982
 31
0.0
  0
LINE
  5
1ED
330
1F
100
AcDbEntity
  8
LAY-1
  6
CONTINUOUS
 62
     3
100
AcDbLine
 10
699.5
 20
759.7999999999932
 30
0.0
 11
699.5
 21
787.7999999999922
 31
0.0
  0
LINE
  5
1EE
330
1F
100
AcDbEntity
  8
LAY-1
  6
EXLTYPE2
 62
     1
100
AcDbLine
 10
848.0
 20
773.7999999999934
 30
0.0
 11
640.0
 21
773.7999999999934
 31
0.0
  0
LINE
  5
1EF
330
1F
100
AcDbEntity
  8
LAY-1
  6
CONTINUOUS
 62
     3
100
AcDbLine
 10
702.8999999999916
 20
783.2999999999935
 30
0.0
 11
699.4999999999975
 21
786.6999999999875
 31
0.0
  0
LINE
  5
1F0
330
1F
100
AcDbEntity
  8
LAY-1
  6
CONTINUOUS
 62
     3
100
AcDbLine
 10
841.0
 20
783.2999999999935
 30
0.0
 11
699.5
 21
783.2999999999935
 31
0.0
  0
LINE
  5
1F1
330
1F
100
AcDbEntity
  8
LAY-1
  6
CONTINUOUS
 62
     3
100
AcDbLine
 10
842.0
 20
782.2999999999935
 30
0.0
 11
841.0
 21
783.2999999999935
 31
0.0
  0
LINE
  5
1F2
330
1F
100
AcDbEntity
  8
LAY-1
  6
CONTINUOUS
 62
     3
100
AcDbLine
 10
702.8999999999916
 20
764.2999999999932
 30
0.0
 11
699.4999999999975
 21
760.8999999999992
 31
0.0
  0
LINE
  5
1F3
330
1F
100
AcDbEntity
  8
LAY-1
  6
CONTINUOUS
 62
     3
100
AcDbLine
 10
841.0
 20
764.2999999999932
 30
0.0
 11
699.5
 21
764.2999999999932
 31
0.0
  0
LINE
  5
1F4
330
1F
100
AcDbEntity
  8
LAY-1
  6
CONTINUOUS
 62
     3
100
AcDbLine
 10
842.0
 20
765.2999999999932
 30
0.0
 11
841.0
 21
764.2999999999932
 31
0.0
  0
LINE
  5
1F5
330
1F
100
AcDbEntity
  8
LAY-1
  6
CONTINUOUS
 62
     3
100
AcDbLine
 10
842.0
 20
782.2999999999935
 30
0.0
 11
842.0
 21
765.29999999999
 31
0.0
  0
LINE
  5
1F6
330
1F
100
AcDbEntity
  8
LAY-1
  6
CONTINUOUS
 62
     3
100
AcDbLine
 10
695.75
 20
787.7999999999922
 30
0.0
 11
695.75
 21
793.75758622134
 31
0.0
  0
LINE
  5
1F7
330
1F
100
AcDbEntity
  8
LAY-1
  6
CONTINUOUS
 62
     3
100
AcDbLine
 10
695.75
 20
793.7575862213441
 30
0.0
 11
690.9999999999977
 21
796.4999999999961
 31
0.0
  0
LINE
  5
1F8
330
1F
100
AcDbEntity
  8
LAY-1
  6
CONTINUOUS
 62
     3
100
AcDbLine
 10
691.0
 20
796.4999999999956
 30
0.0
 11
678.9999999999999
 21
796.4999999999956
 31
0.0
  0
ARC
  5
1F9
330
1F
100
AcDbEntity
  8
LAY-1
  6
CONTINUOUS
 62
     3
100
AcDbCircle
 10
631.835008385784
 20
712.5000000000006
 30
0.0
 40
30.0
100
AcDbArc
 50
117.1024821993792
 51
169.3280707142377
  0
ARC
  5
1FA
330
1F
100
AcDbEntity
  8
LAY-1
  6
CONTINUOUS
 62
     3
100
AcDbCircle
 10
604.5
 20
765.9115841044728
 30
0.0
 40
30.0
100
AcDbArc
 50
297.1024821993792
 51
341.7164733222946
  0
ARC
  5
1FB
330
1F
100
AcDbEntity
  8
LAY-1
  6
CONTINUOUS
 62
     3
100
AcDbCircle
 10
729.5
 20
765.9115841044728
 30
0.0
 40
30.0
100
AcDbArc
 50
198.2835266777053
 51
242.897517800621
  0
ARC
  5
1FC
330
1F
100
AcDbEntity
  8
LAY-1
  6
CONTINUOUS
 62
     3
100
AcDbCircle
 10
702.1649916142159
 20
712.5000000000006
 30
0.0
 40
30.0
100
AcDbArc
 50
10.67192928576236
 51
62.89751780062072
  0
LINE
  5
1FD
330
1F
100
AcDbEntity
  8
LAY-1
  6
CONTINUOUS
 62
     3
100
AcDbLine
 10
639.5
 20
756.4999999999999
 30
0.0
 11
639.5
 21
759.5000000000001
 31
0.0
  0
LINE
  5
1FE
330
1F
100
AcDbEntity
  8
LAY-1
  6
CONTINUOUS
 62
     3
100
AcDbLine
 10
694.5
 20
756.4999999999999
 30
0.0
 11
694.5
 21
759.5000000000001
 31
0.0
  0
LINE
  5
1FF
330
1F
100
AcDbEntity
  8
LAY-1
  6
CONTINUOUS
 62
     3
100
AcDbLine
 10
559.5
 20
324.5000000000003
 30
0.0
 11
602.9305406993237
 21
324.5000000000003
 31
0.0
  0
ARC
  5
200
330
1F
100
AcDbEntity
  8
LAY-1
  6
CONTINUOUS
 62
     3
100
AcDbCircle
 10
602.9305406993237
 20
314.5000000000003
 30
0.0
 40
10.0
100
AcDbArc
 50
25.05091198871905
 51
90.00000000000001
  0
ARC
  5
201
330
1F
100
AcDbEntity
  8
LAY-1
  6
CONTINUOUS
 62
     3
100
AcDbCircle
 10
731.0694593006763
 20
314.5000000000003
 30
0.0
 40
10.0
100
AcDbArc
 50
90.00000000000001
 51
154.9490880112808
  0
LINE
  5
202
330
1F
100
AcDbEntity
  8
LAY-1
  6
CONTINUOUS
 62
     3
100
AcDbLine
 10
653.20976105923
 20
292.5
 30
0.0
 11
680.79023894077
 21
292.5
 31
0.0
  0
LINE
  5
203
330
1F
100
AcDbEntity
  8
LAY-1
  6
CONTINUOUS
 62
     3
100
AcDbLine
 10
774.5
 20
324.5000000000003
 30
0.0
 11
731.0694593006763
 21
324.5000000000002
 31
0.0
  0
ARC
  5
204
330
1F
100
AcDbEntity
  8
LAY-1
  6
CONTINUOUS
 62
     3
100
AcDbCircle
 10
559.5
 20
568.5
 30
0.0
 40
2.0
100
AcDbArc
 50
90.00000000000001
 51
180.0
  0
LINE
  5
205
330
1F
100
AcDbEntity
  8
LAY-1
  6
CONTINUOUS
 62
     3
100
AcDbLine
 10
557.5
 20
326.5000000000003
 30
0.0
 11
557.5
 21
568.5
 31
0.0
  0
ARC
  5
206
330
1F
100
AcDbEntity
  8
LAY-1
  6
CONTINUOUS
 62
     3
100
AcDbCircle
 10
559.5
 20
326.5000000000003
 30
0.0
 40
2.0
100
AcDbArc
 50
180.0
 51
270.0
  0
ARC
  5
207
330
1F
100
AcDbEntity
  8
LAY-1
  6
CONTINUOUS
 62
     3
100
AcDbCircle
 10
559.5
 20
568.5
 30
0.0
 40
2.0
100
AcDbArc
 50
90.00000000000001
 51
180.0
  0
ARC
  5
208
330
1F
100
AcDbEntity
  8
LAY-1
  6
CONTINUOUS
 62
     3
100
AcDbCircle
 10
386.0
 20
328.0
 30
0.0
 40
3.0
100
AcDbArc
 50
270.0
 51
0.0
  0
LINE
  5
209
330
1F
100
AcDbEntity
  8
LAY-1
  6
CONTINUOUS
 62
     3
100
AcDbLine
 10
377.0
 20
325.0
 30
0.0
 11
377.0
 21
280.0
 31
0.0
  0
LINE
  5
20A
330
1F
100
AcDbEntity
  8
LAY-1
  6
CONTINUOUS
 62
     3
100
AcDbLine
 10
386.0
 20
325.0
 30
0.0
 11
377.0
 21
325.0
 31
0.0
  0
LINE
  5
20B
330
1F
100
AcDbEntity
  8
LAY-1
  6
CONTINUOUS
 62
     3
100
AcDbLine
 10
384.5
 20
555.0
 30
0.0
 11
384.5
 21
540.0
 31
0.0
  0
ARC
  5
20C
330
1F
100
AcDbEntity
  8
LAY-1
  6
CONTINUOUS
 62
     3
100
AcDbCircle
 10
385.5
 20
540.0
 30
0.0
 40
1.0
100
AcDbArc
 50
180.0
 51
270.0
  0
ARC
  5
20D
330
1F
100
AcDbEntity
  8
LAY-1
  6
CONTINUOUS
 62
     3
100
AcDbCircle
 10
388.0
 20
538.0
 30
0.0
 40
1.0
100
AcDbArc
 50
0.0
 51
90.00000000000001
  0
LINE
  5
20E
330
1F
100
AcDbEntity
  8
LAY-1
  6
CONTINUOUS
 62
     3
100
AcDbLine
 10
504.5
 20
280.0
 30
0.0
 11
377.0
 21
280.0
 31
0.0
  0
ARC
  5
20F
330
1F
100
AcDbEntity
  8
LAY-1
  6
CONTINUOUS
 62
     3
100
AcDbCircle
 10
504.5
 20
300.5
 30
0.0
 40
20.5
100
AcDbArc
 50
270.0
 51
0.0
  0
LINE
  5
210
330
1F
100
AcDbEntity
  8
LAY-1
  6
CONTINUOUS
 62
     3
100
AcDbLine
 10
529.5
 20
555.0
 30
0.0
 11
529.5
 21
533.0
 31
0.0
  0
ARC
  5
211
330
1F
100
AcDbEntity
  8
LAY-1
  6
CONTINUOUS
 62
     3
100
AcDbCircle
 10
534.5
 20
533.0
 30
0.0
 40
5.0
100
AcDbArc
 50
180.0
 51
270.0
  0
ARC
  5
212
330
1F
100
AcDbEntity
  8
LAY-1
  6
CONTINUOUS
 62
     3
100
AcDbCircle
 10
530.0
 20
362.0
 30
0.0
 40
5.0
100
AcDbArc
 50
90.00000000000001
 51
180.0
  0
LINE
  5
213
330
1F
100
AcDbEntity
  8
LAY-1
  6
CONTINUOUS
 62
     3
100
AcDbLine
 10
546.3000966
 20
367.0
 30
0.0
 11
530.0
 21
367.0
 31
0.0
  0
LINE
  5
214
330
1F
100
AcDbEntity
  8
LAY-1
  6
CONTINUOUS
 62
     3
100
AcDbLine
 10
534.5
 20
528.0
 30
0.0
 11
546.3311110673599
 21
528.0
 31
0.0
  0
ARC
  5
215
330
1F
100
AcDbEntity
  8
LAY-1
  6
CONTINUOUS
 62
     3
100
AcDbCircle
 10
526.0
 20
538.0
 30
0.0
 40
1.0
100
AcDbArc
 50
90.00000000000001
 51
180.0
  0
ARC
  5
216
330
1F
100
AcDbEntity
  8
LAY-1
  6
CONTINUOUS
 62
     3
100
AcDbCircle
 10
528.5
 20
540.0
 30
0.0
 40
1.0
100
AcDbArc
 50
270.0
 51
0.0
  0
LINE
  5
217
330
1F
100
AcDbEntity
  8
LAY-1
  6
CONTINUOUS
 62
     3
100
AcDbLine
 10
525.0
 20
300.5
 30
0.0
 11
525.0
 21
539.0
 31
0.0
  0
LINE
  5
218
330
1F
100
AcDbEntity
  8
LAY-1
  6
CONTINUOUS
 62
     3
100
AcDbLine
 10
359.53
 20
314.5
 30
0.0
 11
372.0
 21
314.5
 31
0.0
  0
LINE
  5
219
330
1F
100
AcDbEntity
  8
LAY-1
  6
CONTINUOUS
 62
     3
100
AcDbLine
 10
359.5300000000002
 20
314.5
 30
0.0
 11
359.5300000000002
 21
302.5
 31
0.0
  0
LINE
  5
21A
330
1F
100
AcDbEntity
  8
LAY-1
  6
CONTINUOUS
 62
     1
100
AcDbLine
 10
359.53
 20
314.5
 30
0.0
 11
372.0
 21
302.5
 31
0.0
  0
LINE
  5
21B
330
1F
100
AcDbEntity
  8
LAY-1
  6
CONTINUOUS
 62
     1
100
AcDbLine
 10
359.53
 20
302.5
 30
0.0
 11
372.0
 21
314.5
 31
0.0
  0
LINE
  5
21C
330
1F
100
AcDbEntity
  8
LAY-1
  6
CONTINUOUS
 62
     3
100
AcDbLine
 10
359.53
 20
290.5
 30
0.0
 11
372.0
 21
290.5
 31
0.0
  0
LINE
  5
21D
330
1F
100
AcDbEntity
  8
LAY-1
  6
CONTINUOUS
 62
     3
100
AcDbLine
 10
359.5300000000002
 20
290.5
 30
0.0
 11
359.5300000000002
 21
302.5
 31
0.0
  0
LINE
  5
21E
330
1F
100
AcDbEntity
  8
LAY-1
  6
CONTINUOUS
 62
     1
100
AcDbLine
 10
359.53
 20
290.5
 30
0.0
 11
372.0
 21
302.5
 31
0.0
  0
LINE
  5
21F
330
1F
100
AcDbEntity
  8
LAY-1
  6
CONTINUOUS
 62
     1
100
AcDbLine
 10
359.53
 20
302.5
 30
0.0
 11
372.0
 21
290.5
 31
0.0
  0
LINE
  5
220
330
1F
100
AcDbEntity
  8
LAY-1
  6
CONTINUOUS
 62
     3
100
AcDbLine
 10
372.0
 20
289.2795
 30
0.0
 11
372.0
 21
315.7205
 31
0.0
  0
LINE
  5
221
330
1F
100
AcDbEntity
  8
LAY-1
  6
CONTINUOUS
 62
     3
100
AcDbLine
 10
377.0
 20
315.5458961525412
 30
0.0
 11
372.0
 21
315.7204999999999
 31
0.0
  0
LINE
  5
222
330
1F
100
AcDbEntity
  8
LAY-1
  6
CONTINUOUS
 62
     1
100
AcDbLine
 10
377.0
 20
314.3831878620661
 30
0.0
 11
372.0000000000002
 21
314.5577917095247
 31
0.0
  0
LINE
  5
223
330
1F
100
AcDbEntity
  8
LAY-1
  6
CONTINUOUS
 62
     1
100
AcDbLine
 10
377.0
 20
290.6168121379339
 30
0.0
 11
372.0000000000002
 21
290.4422082904753
 31
0.0
  0
LINE
  5
224
330
1F
100
AcDbEntity
  8
LAY-1
  6
CONTINUOUS
 62
     3
100
AcDbLine
 10
377.0405532151681
 20
289.4555199969378
 30
0.0
 11
372.0
 21
289.2795000000001
 31
0.0
  0
ARC
  5
225
330
1F
100
AcDbEntity
  8
LAY-1
  6
CONTINUOUS
 62
     3
100
AcDbCircle
 10
409.5
 20
300.5
 30
0.0
 40
20.5
100
AcDbArc
 50
180.0
 51
270.0
  0
LINE
  5
226
330
1F
100
AcDbEntity
  8
LAY-1
  6
CONTINUOUS
 62
     3
100
AcDbLine
 10
389.0
 20
300.5
 30
0.0
 11
389.0
 21
538.0
 31
0.0
  0
LINE
  5
227
330
1F
100
AcDbEntity
  8
LAY-1
  6
CONTINUOUS
 62
     3
100
AcDbLine
 10
457.0
 20
294.0
 30
0.0
 11
472.0
 21
294.0
 31
0.0
  0
LINE
  5
228
330
1F
100
AcDbEntity
  8
LAY-1
  6
CONTINUOUS
 62
     3
100
AcDbLine
 10
472.0
 20
280.0
 30
0.0
 11
472.0
 21
294.0
 31
0.0
  0
LINE
  5
229
330
1F
100
AcDbEntity
  8
LAY-1
  6
CONTINUOUS
 62
     3
100
AcDbLine
 10
457.0
 20
294.0
 30
0.0
 11
442.0
 21
294.0
 31
0.0
  0
LINE
  5
22A
330
1F
100
AcDbEntity
  8
LAY-1
  6
CONTINUOUS
 62
     3
100
AcDbLine
 10
442.0
 20
280.0
 30
0.0
 11
442.0
 21
294.0
 31
0.0
  0
ARC
  5
22B
330
1F
100
AcDbEntity
  8
LAY-1
  6
CONTINUOUS
 62
     3
100
AcDbCircle
 10
431.5
 20
631.9999999999983
 30
0.0
 40
2.0
100
AcDbArc
 50
90.00000000000001
 51
180.0
  0
LINE
  5
22C
330
1F
100
AcDbEntity
  8
LAY-1
  6
CONTINUOUS
 62
     3
100
AcDbLine
 10
429.5
 20
590.9999999999977
 30
0.0
 11
429.5
 21
631.9999999999983
 31
0.0
  0
ARC
  5
22D
330
1F
100
AcDbEntity
  8
LAY-1
  6
CONTINUOUS
 62
     3
100
AcDbCircle
 10
431.5
 20
590.9999999999977
 30
0.0
 40
2.0
100
AcDbArc
 50
180.0
 51
270.0
  0
LINE
  5
22E
330
1F
100
AcDbEntity
  8
LAY-1
  6
CONTINUOUS
 62
     3
100
AcDbLine
 10
477.784699
 20
660.0
 30
0.0
 11
436.2153170000001
 21
660.0
 31
0.0
  0
ARC
  5
22F
330
1F
100
AcDbEntity
  8
LAY-1
  6
CONTINUOUS
 62
     3
100
AcDbCircle
 10
469.8013920000001
 20
659.1999969999999
 30
0.0
 40
0.8
100
AcDbArc
 50
90.00001984784183
 51
180.0000011238747
  0
ARC
  5
230
330
1F
100
AcDbEntity
  8
LAY-1
  6
CONTINUOUS
 62
     3
100
AcDbCircle
 10
444.2013550000001
 20
659.1999969999999
 30
0.0
 40
0.8
100
AcDbArc
 50
359.9999988761253
 51
89.99998015215814
  0
LINE
  5
231
330
1F
100
AcDbEntity
  8
LAY-1
  6
CONTINUOUS
 62
     3
100
AcDbLine
 10
474.0013739999999
 20
675.000107
 30
0.0
 11
440.0013739999999
 21
675.000107
 31
0.0
  0
LINE
  5
232
330
1F
100
AcDbEntity
  8
LAY-1
  6
CONTINUOUS
 62
     3
100
AcDbLine
 10
474.0013739999999
 20
675.000107
 30
0.0
 11
477.7861330000001
 21
672.814972
 31
0.0
  0
ARC
  5
233
330
1F
100
AcDbEntity
  8
LAY-1
  6
CONTINUOUS
 62
     3
100
AcDbCircle
 10
456.9985200000001
 20
649.1802519999999
 30
0.0
 40
25.819658
100
AcDbArc
 50
66.25899794458176
 51
113.7270615809029
  0
ARC
  5
234
330
1F
100
AcDbEntity
  8
LAY-1
  6
CONTINUOUS
 62
     3
100
AcDbCircle
 10
474.1572270000001
 20
663.443039
 30
0.0
 40
11.557911
100
AcDbArc
 50
90.77259613879738
 51
125.8149813678961
  0
LINE
  5
235
330
1F
100
AcDbEntity
  8
LAY-1
  6
CONTINUOUS
 62
     3
100
AcDbLine
 10
440.0013739999999
 20
675.000107
 30
0.0
 11
436.2166139999999
 21
672.8149719999999
 31
0.0
  0
ARC
  5
236
330
1F
100
AcDbEntity
  8
LAY-1
  6
CONTINUOUS
 62
     3
100
AcDbCircle
 10
439.8455200000001
 20
663.443039
 30
0.0
 40
11.557911
100
AcDbArc
 50
54.18507592788358
 51
89.22740386120266
  0
LINE
  5
237
330
1F
100
AcDbEntity
  8
LAY-1
  6
CONTINUOUS
 62
     3
100
AcDbLine
 10
477.784699
 20
660.0
 30
0.0
 11
477.7861480000001
 21
672.814972
 31
0.0
  0
LINE
  5
238
330
1F
100
AcDbEntity
  8
LAY-1
  6
CONTINUOUS
 62
     3
100
AcDbLine
 10
467.392182
 20
660.000092
 30
0.0
 11
467.3936160000001
 21
672.815857
 31
0.0
  0
LINE
  5
239
330
1F
100
AcDbEntity
  8
LAY-1
  6
CONTINUOUS
 62
     3
100
AcDbLine
 10
446.6076969999999
 20
660.000092
 30
0.0
 11
446.6091310000002
 21
672.8176269999999
 31
0.0
  0
LINE
  5
23A
330
1F
100
AcDbEntity
  8
LAY-1
  6
CONTINUOUS
 62
     3
100
AcDbLine
 10
436.2153170000001
 20
660.0
 30
0.0
 11
436.2167509999999
 21
672.8185119999999
 31
0.0
  0
LINE
  5
23B
330
1F
100
AcDbEntity
  8
LAY-1
  6
CONTINUOUS
 62
     3
100
AcDbLine
 10
445.0013580000002
 20
654.3
 30
0.0
 11
469.001389
 21
654.299985
 31
0.0
  0
LINE
  5
23C
330
1F
100
AcDbEntity
  8
LAY-1
  6
CONTINUOUS
 62
     1
100
AcDbLine
 10
469.001389
 20
658.799985
 30
0.0
 11
467.3773960000001
 21
654.299985
 31
0.0
  0
LINE
  5
23D
330
1F
100
AcDbEntity
  8
LAY-1
  6
CONTINUOUS
 62
     1
100
AcDbLine
 10
445.0013580000002
 20
658.799985
 30
0.0
 11
446.6253510000001
 21
654.299985
 31
0.0
  0
ARC
  5
23E
330
1F
100
AcDbEntity
  8
LAY-1
  6
CONTINUOUS
 62
     3
100
AcDbCircle
 10
482.5
 20
631.9999999999983
 30
0.0
 40
2.0
100
AcDbArc
 50
0.0
 51
90.00000000000001
  0
LINE
  5
23F
330
1F
100
AcDbEntity
  8
LAY-1
  6
CONTINUOUS
 62
     3
100
AcDbLine
 10
484.5
 20
590.9999999999977
 30
0.0
 11
484.5
 21
631.9999999999983
 31
0.0
  0
ARC
  5
240
330
1F
100
AcDbEntity
  8
LAY-1
  6
CONTINUOUS
 62
     3
100
AcDbCircle
 10
482.5
 20
590.9999999999977
 30
0.0
 40
2.0
100
AcDbArc
 50
270.0
 51
0.0
  0
LINE
  5
241
330
1F
100
AcDbEntity
  8
LAY-1
  6
CONTINUOUS
 62
     3
100
AcDbLine
 10
384.5
 20
555.0
 30
0.0
 11
394.5
 21
555.0
 31
0.0
  0
LINE
  5
242
330
1F
100
AcDbEntity
  8
LAY-1
  6
CONTINUOUS
 62
     3
100
AcDbLine
 10
384.5
 20
562.9999999999993
 30
0.0
 11
384.5
 21
555.0
 31
0.0
  0
ARC
  5
243
330
1F
100
AcDbEntity
  8
LAY-1
  6
CONTINUOUS
 62
     3
100
AcDbCircle
 10
386.5
 20
562.9999999999993
 30
0.0
 40
2.0
100
AcDbArc
 50
90.00000000000001
 51
180.0
  0
LINE
  5
244
330
1F
100
AcDbEntity
  8
LAY-1
  6
CONTINUOUS
 62
     3
100
AcDbLine
 10
432.5
 20
564.9999999999993
 30
0.0
 11
386.5
 21
564.9999999999993
 31
0.0
  0
ARC
  5
245
330
1F
100
AcDbEntity
  8
LAY-1
  6
CONTINUOUS
 62
     3
100
AcDbCircle
 10
527.5
 20
562.9999999999993
 30
0.0
 40
2.0
100
AcDbArc
 50
0.0
 51
90.00000000000001
  0
LINE
  5
246
330
1F
100
AcDbEntity
  8
LAY-1
  6
CONTINUOUS
 62
     3
100
AcDbLine
 10
481.5
 20
564.9999999999993
 30
0.0
 11
527.5
 21
564.9999999999993
 31
0.0
  0
LINE
  5
247
330
1F
100
AcDbEntity
  8
LAY-1
  6
CONTINUOUS
 62
     3
100
AcDbLine
 10
529.5
 20
562.9999999999993
 30
0.0
 11
529.5
 21
555.0
 31
0.0
  0
ARC
  5
248
330
1F
100
AcDbEntity
  8
LAY-1
  6
CONTINUOUS
 62
     3
100
AcDbCircle
 10
479.5
 20
525.0
 30
0.0
 40
2.0
100
AcDbArc
 50
270.0
 51
0.0
  0
LINE
  5
249
330
1F
100
AcDbEntity
  8
LAY-1
  6
CONTINUOUS
 62
     3
100
AcDbLine
 10
457.0
 20
523.0
 30
0.0
 11
479.5
 21
523.0
 31
0.0
  0
LINE
  5
24A
330
1F
100
AcDbEntity
  8
LAY-1
  6
CONTINUOUS
 62
     3
100
AcDbLine
 10
481.5
 20
525.0
 30
0.0
 11
481.5
 21
633.9999999999983
 31
0.0
  0
LINE
  5
24B
330
1F
100
AcDbEntity
  8
LAY-1
  6
CONTINUOUS
 62
     3
100
AcDbLine
 10
467.0
 20
579.0
 30
0.0
 11
467.0
 21
633.9999999999983
 31
0.0
  0
LINE
  5
24C
330
1F
100
AcDbEntity
  8
LAY-1
  6
CONTINUOUS
 62
     3
100
AcDbLine
 10
482.5
 20
633.9999999999983
 30
0.0
 11
457.0
 21
633.9999999999983
 31
0.0
  0
LINE
  5
24D
330
1F
100
AcDbEntity
  8
LAY-1
  6
CONTINUOUS
 62
     3
100
AcDbLine
 10
431.5
 20
633.9999999999983
 30
0.0
 11
457.0
 21
633.9999999999983
 31
0.0
  0
LINE
  5
24E
330
1F
100
AcDbEntity
  8
LAY-1
  6
CONTINUOUS
 62
     1
100
AcDbLine
 10
467.3773960000001
 20
654.29998601499
 30
0.0
 11
467.3773960000001
 21
633.9999999999983
 31
0.0
  0
LINE
  5
24F
330
1F
100
AcDbEntity
  8
LAY-1
  6
CONTINUOUS
 62
     3
100
AcDbLine
 10
469.001389
 20
633.9999999999983
 30
0.0
 11
469.001389
 21
659.999997
 31
0.0
  0
LINE
  5
250
330
1F
100
AcDbEntity
  8
LAY-1
  6
CONTINUOUS
 62
     1
100
AcDbLine
 10
446.6226039999999
 20
654.29998601499
 30
0.0
 11
446.6226039999999
 21
633.9999999999983
 31
0.0
  0
LINE
  5
251
330
1F
100
AcDbEntity
  8
LAY-1
  6
CONTINUOUS
 62
     3
100
AcDbLine
 10
444.998611
 20
633.9999999999983
 30
0.0
 11
444.998611
 21
659.999997
 31
0.0
  0
LINE
  5
252
330
1F
100
AcDbEntity
  8
LAY-1
  6
CONTINUOUS
 62
     3
100
AcDbLine
 10
447.0
 20
579.0
 30
0.0
 11
447.0
 21
633.9999999999983
 31
0.0
  0
LINE
  5
253
330
1F
100
AcDbEntity
  8
LAY-1
  6
CONTINUOUS
 62
     3
100
AcDbLine
 10
445.001358
 20
633.9999999999983
 30
0.0
 11
445.001358
 21
659.9999999999999
 31
0.0
  0
LINE
  5
254
330
1F
100
AcDbEntity
  8
LAY-1
  6
CONTINUOUS
 62
     3
100
AcDbLine
 10
432.5
 20
525.0
 30
0.0
 11
432.5
 21
633.9999999999983
 31
0.0
  0
LINE
  5
255
330
1F
100
AcDbEntity
  8
LAY-1
  6
CONTINUOUS
 62
     3
100
AcDbLine
 10
481.5
 20
588.9999999999977
 30
0.0
 11
482.5
 21
588.9999999999977
 31
0.0
  0
LINE
  5
256
330
1F
100
AcDbEntity
  8
LAY-1
  6
CONTINUOUS
 62
     3
100
AcDbLine
 10
431.5
 20
588.9999999999977
 30
0.0
 11
432.5
 21
588.9999999999977
 31
0.0
  0
LINE
  5
257
330
1F
100
AcDbEntity
  8
LAY-1
  6
CONTINUOUS
 62
     3
100
AcDbLine
 10
529.5
 20
555.0
 30
0.0
 11
481.5
 21
555.0
 31
0.0
  0
LINE
  5
258
330
1F
100
AcDbEntity
  8
LAY-1
  6
CONTINUOUS
 62
     3
100
AcDbLine
 10
432.5
 20
555.0
 30
0.0
 11
384.5
 21
555.0
 31
0.0
  0
ARC
  5
259
330
1F
100
AcDbEntity
  8
LAY-1
  6
CONTINUOUS
 62
     3
100
AcDbCircle
 10
434.5
 20
525.0
 30
0.0
 40
2.0
100
AcDbArc
 50
180.0
 51
270.0
  0
LINE
  5
25A
330
1F
100
AcDbEntity
  8
LAY-1
  6
CONTINUOUS
 62
     3
100
AcDbLine
 10
457.0
 20
523.0
 30
0.0
 11
434.5
 21
523.0
 31
0.0
  0
LINE
  5
25B
330
1F
100
AcDbEntity
  8
LAY-1
  6
CONTINUOUS
 62
     3
100
AcDbLine
 10
638.25
 20
793.7575862213441
 30
0.0
 11
643.0000000000023
 21
796.4999999999961
 31
0.0
  0
LINE
  5
25C
330
1F
100
AcDbEntity
  8
LAY-1
  6
CONTINUOUS
 62
     3
100
AcDbLine
 10
695.75
 20
793.7575862213441
 30
0.0
 11
690.9999999999977
 21
796.4999999999961
 31
0.0
  0
LINE
  5
25D
330
1F
100
AcDbEntity
  8
LAY-1
  6
CONTINUOUS
 62
     3
100
AcDbLine
 10
643.0
 20
796.4999999999956
 30
0.0
 11
667.0
 21
796.4999999999956
 31
0.0
  0
LINE
  5
25E
330
1F
100
AcDbEntity
  8
LAY-1
  6
CONTINUOUS
 62
     3
100
AcDbLine
 10
691.0
 20
796.4999999999956
 30
0.0
 11
667.0
 21
796.4999999999956
 31
0.0
  0
ARC
  5
25F
330
1F
100
AcDbEntity
  8
LAY-1
  6
CONTINUOUS
 62
     3
100
AcDbCircle
 10
694.5059168183889
 20
766.2144990896664
 30
0.0
 40
30.48775193626576
100
AcDbArc
 50
96.60329462802913
 51
115.3893740513112
  0
ARC
  5
260
330
1F
100
AcDbEntity
  8
LAY-1
  6
CONTINUOUS
 62
     3
100
AcDbCircle
 10
667.0
 20
757.1452227695899
 30
0.0
 40
39.3547772304102
100
AcDbArc
 50
68.48406582308967
 51
111.5159341769104
  0
ARC
  5
261
330
1F
100
AcDbEntity
  8
LAY-1
  6
CONTINUOUS
 62
     3
100
AcDbCircle
 10
639.4940831816111
 20
766.2144990896664
 30
0.0
 40
30.48775193626576
100
AcDbArc
 50
64.61062594868883
 51
83.39670537197087
  0
LINE
  5
262
330
1F
100
AcDbEntity
  8
LAY-1
  6
CONTINUOUS
 62
     3
100
AcDbLine
 10
634.5
 20
787.7999999999922
 30
0.0
 11
666.9999999999999
 21
787.7999999999922
 31
0.0
  0
LINE
  5
263
330
1F
100
AcDbEntity
  8
LAY-1
  6
CONTINUOUS
 62
     3
100
AcDbLine
 10
699.5
 20
787.7999999999922
 30
0.0
 11
666.9999999999999
 21
787.7999999999922
 31
0.0
  0
LINE
  5
264
330
1F
100
AcDbEntity
  8
LAY-1
  6
CONTINUOUS
 62
     3
100
AcDbLine
 10
634.5
 20
759.7999999999932
 30
0.0
 11
666.9999999999999
 21
759.7999999999932
 31
0.0
  0
LINE
  5
265
330
1F
100
AcDbEntity
  8
LAY-1
  6
CONTINUOUS
 62
     3
100
AcDbLine
 10
699.5
 20
759.7999999999932
 30
0.0
 11
667.0
 21
759.7999999999932
 31
0.0
  0
LINE
  5
266
330
1F
100
AcDbEntity
  8
LAY-1
  6
CONTINUOUS
 62
     3
100
AcDbLine
 10
652.5662432703
 20
793.75758622134
 30
0.0
 11
652.5662432703
 21
787.7999999999922
 31
0.0
  0
LINE
  5
267
330
1F
100
AcDbEntity
  8
LAY-1
  6
CONTINUOUS
 62
     3
100
AcDbLine
 10
681.4337567297
 20
793.75758622134
 30
0.0
 11
681.4337567297
 21
787.7999999999922
 31
0.0
  0
LINE
  5
268
330
1F
100
AcDbEntity
  8
LAY-1
  6
CONTINUOUS
 62
     3
100
AcDbLine
 10
666.9999999999999
 20
759.5000000000001
 30
0.0
 11
639.5
 21
759.5000000000001
 31
0.0
  0
LINE
  5
269
330
1F
100
AcDbEntity
  8
LAY-1
  6
CONTINUOUS
 62
     3
100
AcDbLine
 10
666.9999999999999
 20
759.5000000000001
 30
0.0
 11
694.5
 21
759.5000000000001
 31
0.0
  0
LINE
  5
26A
330
1F
100
AcDbEntity
  8
LAY-1
  6
CONTINUOUS
 62
     3
100
AcDbLine
 10
666.9999999999999
 20
756.4999999999999
 30
0.0
 11
632.9854714660701
 21
756.4999999999999
 31
0.0
  0
LINE
  5
26B
330
1F
100
AcDbEntity
  8
LAY-1
  6
CONTINUOUS
 62
     3
100
AcDbLine
 10
666.9999999999999
 20
756.4999999999999
 30
0.0
 11
701.01452853393
 21
756.4999999999999
 31
0.0
  0
LINE
  5
26C
330
1F
100
AcDbEntity
  8
LAY-1
  6
CONTINUOUS
 62
     3
100
AcDbLine
 10
631.0
 20
727.4999999999982
 30
0.0
 11
666.9999999999999
 21
727.4999999999982
 31
0.0
  0
LINE
  5
26D
330
1F
100
AcDbEntity
  8
LAY-1
  6
CONTINUOUS
 62
     3
100
AcDbLine
 10
702.16499161422
 20
727.4999999999982
 30
0.0
 11
667.0
 21
727.4999999999982
 31
0.0
  0
LINE
  5
26E
330
1F
100
AcDbEntity
  8
LAY-1
  6
CONTINUOUS
 62
     3
100
AcDbLine
 10
666.9999999999999
 20
721.499999999996
 30
0.0
 11
641.0
 21
721.499999999996
 31
0.0
  0
LINE
  5
26F
330
1F
100
AcDbEntity
  8
LAY-1
  6
CONTINUOUS
 62
     3
100
AcDbLine
 10
667.0
 20
721.499999999996
 30
0.0
 11
693.0
 21
721.499999999996
 31
0.0
  0
LINE
  5
270
330
1F
100
AcDbEntity
  8
LAY-1
  6
CONTINUOUS
 62
     3
100
AcDbLine
 10
634.5
 20
753.0
 30
0.0
 11
634.5
 21
727.4999999999982
 31
0.0
  0
LINE
  5
271
330
1F
100
AcDbEntity
  8
LAY-1
  6
CONTINUOUS
 62
     3
100
AcDbLine
 10
699.5
 20
753.0
 30
0.0
 11
699.5
 21
727.4999999999982
 31
0.0
  0
LINE
  5
272
330
1F
100
AcDbEntity
  8
LAY-1
  6
CONTINUOUS
 62
     3
100
AcDbLine
 10
590.5
 20
697.5000000000024
 30
0.0
 11
590.5
 21
712.500000000002
 31
0.0
  0
LINE
  5
273
330
1F
100
AcDbEntity
  8
LAY-1
  6
CONTINUOUS
 62
     3
100
AcDbLine
 10
594.5000000000002
 20
697.5000000000024
 30
0.0
 11
594.5000000000002
 21
712.500000000002
 31
0.0
  0
LINE
  5
274
330
1F
100
AcDbEntity
  8
LAY-1
  6
CONTINUOUS
 62
     3
100
AcDbLine
 10
599.5
 20
712.500000000002
 30
0.0
 11
599.5
 21
697.5000000000024
 31
0.0
  0
LINE
  5
275
330
1F
100
AcDbEntity
  8
LAY-1
  6
CONTINUOUS
 62
     3
100
AcDbLine
 10
590.5
 20
662.5000000000034
 30
0.0
 11
590.5
 21
697.5
 31
0.0
  0
LINE
  5
276
330
1F
100
AcDbEntity
  8
LAY-1
  6
CONTINUOUS
 62
     3
100
AcDbLine
 10
594.5000000000002
 20
662.5000000000034
 30
0.0
 11
594.5000000000002
 21
697.5000000000024
 31
0.0
  0
LINE
  5
277
330
1F
100
AcDbEntity
  8
LAY-1
  6
CONTINUOUS
 62
     3
100
AcDbLine
 10
599.5
 20
697.5000000000024
 30
0.0
 11
599.5
 21
662.5000000000034
 31
0.0
  0
LINE
  5
278
330
1F
100
AcDbEntity
  8
LAY-1
  6
CONTINUOUS
 62
     3
100
AcDbLine
 10
590.5
 20
647.5
 30
0.0
 11
590.5
 21
662.5000000000034
 31
0.0
  0
LINE
  5
279
330
1F
100
AcDbEntity
  8
LAY-1
  6
CONTINUOUS
 62
     3
100
AcDbLine
 10
594.5000000000002
 20
647.5
 30
0.0
 11
594.5000000000002
 21
662.5000000000034
 31
0.0
  0
LINE
  5
27A
330
1F
100
AcDbEntity
  8
LAY-1
  6
CONTINUOUS
 62
     3
100
AcDbLine
 10
599.5
 20
662.5000000000034
 30
0.0
 11
599.5
 21
647.5
 31
0.0
  0
LINE
  5
27B
330
1F
100
AcDbEntity
  8
LAY-1
  6
CONTINUOUS
 62
     3
100
AcDbLine
 10
590.5
 20
652.6848848419143
 30
0.0
 11
582.4036249999999
 21
652.684845
 31
0.0
  0
LINE
  5
27C
330
1F
100
AcDbEntity
  8
LAY-1
  6
CONTINUOUS
 62
     3
100
AcDbLine
 10
590.5
 20
672.3149918300219
 30
0.0
 11
582.4036249999999
 21
672.3150330000001
 31
0.0
  0
LINE
  5
27D
330
1F
100
AcDbEntity
  8
LAY-1
  6
CONTINUOUS
 62
     3
100
AcDbLine
 10
588.5
 20
656.0
 30
0.0
 11
588.5
 21
672.3149918300219
 31
0.0
  0
LINE
  5
27E
330
1F
100
AcDbEntity
  8
LAY-1
  6
CONTINUOUS
 62
     3
100
AcDbLine
 10
588.5
 20
687.6848848419143
 30
0.0
 11
588.5
 21
706.0
 31
0.0
  0
LINE
  5
27F
330
1F
100
AcDbEntity
  8
LAY-1
  6
CONTINUOUS
 62
     3
100
AcDbLine
 10
734.5
 20
712.500000000002
 30
0.0
 11
734.5
 21
695.5
 31
0.0
  0
LINE
  5
280
330
1F
100
AcDbEntity
  8
LAY-1
  6
CONTINUOUS
 62
     3
100
AcDbLine
 10
739.4999999999998
 20
695.5
 30
0.0
 11
739.4999999999998
 21
712.500000000002
 31
0.0
  0
LINE
  5
281
330
1F
100
AcDbEntity
  8
LAY-1
  6
CONTINUOUS
 62
     3
100
AcDbLine
 10
743.5
 20
695.5
 30
0.0
 11
743.5
 21
712.500000000002
 31
0.0
  0
LINE
  5
282
330
1F
100
AcDbEntity
  8
LAY-1
  6
CONTINUOUS
 62
     3
100
AcDbLine
 10
743.5
 20
662.5000000000034
 30
0.0
 11
743.5
 21
679.5
 31
0.0
  0
LINE
  5
283
330
1F
100
AcDbEntity
  8
LAY-1
  6
CONTINUOUS
 62
     3
100
AcDbLine
 10
734.5
 20
662.5000000000034
 30
0.0
 11
734.5
 21
647.5
 31
0.0
  0
LINE
  5
284
330
1F
100
AcDbEntity
  8
LAY-1
  6
CONTINUOUS
 62
     3
100
AcDbLine
 10
739.4999999999998
 20
647.5
 30
0.0
 11
739.4999999999998
 21
662.5000000000034
 31
0.0
  0
LINE
  5
285
330
1F
100
AcDbEntity
  8
LAY-1
  6
CONTINUOUS
 62
     3
100
AcDbLine
 10
743.5
 20
647.5
 30
0.0
 11
743.5
 21
662.5
 31
0.0
  0
LINE
  5
286
330
1F
100
AcDbEntity
  8
LAY-1
  6
CONTINUOUS
 62
     3
100
AcDbLine
 10
743.5
 20
672.3149918300219
 30
0.0
 11
751.596375
 21
672.3150330000001
 31
0.0
  0
LINE
  5
287
330
1F
100
AcDbEntity
  8
LAY-1
  6
CONTINUOUS
 62
     3
100
AcDbLine
 10
743.5
 20
652.6848848419143
 30
0.0
 11
751.596375
 21
652.684845
 31
0.0
  0
LINE
  5
288
330
1F
100
AcDbEntity
  8
LAY-1
  6
CONTINUOUS
 62
     3
100
AcDbLine
 10
745.5000000000001
 20
656.0
 30
0.0
 11
745.5000000000001
 21
672.315002
 31
0.0
  0
LINE
  5
289
330
1F
100
AcDbEntity
  8
LAY-1
  6
CONTINUOUS
 62
     3
100
AcDbLine
 10
666.9999999999999
 20
700.0
 30
0.0
 11
642.0
 21
700.0
 31
0.0
  0
LINE
  5
28A
330
1F
100
AcDbEntity
  8
LAY-1
  6
CONTINUOUS
 62
     3
100
AcDbLine
 10
692.0
 20
700.0
 30
0.0
 11
667.0
 21
700.0
 31
0.0
  0
LINE
  5
28B
330
1F
100
AcDbEntity
  8
LAY-1
  6
CONTINUOUS
 62
     3
100
AcDbLine
 10
666.9999999999999
 20
675.0
 30
0.0
 11
642.0
 21
675.0
 31
0.0
  0
LINE
  5
28C
330
1F
100
AcDbEntity
  8
LAY-1
  6
CONTINUOUS
 62
     3
100
AcDbLine
 10
692.0
 20
675.0
 30
0.0
 11
667.0
 21
675.0
 31
0.0
  0
LINE
  5
28D
330
1F
100
AcDbEntity
  8
LAY-1
  6
CONTINUOUS
 62
     3
100
AcDbLine
 10
658.5
 20
692.407425
 30
0.0
 11
658.5
 21
682.592483
 31
0.0
  0
LINE
  5
28E
330
1F
100
AcDbEntity
  8
LAY-1
  6
CONTINUOUS
 62
     3
100
AcDbLine
 10
675.5
 20
682.592575
 30
0.0
 11
675.5
 21
692.407425
 31
0.0
  0
LINE
  5
28F
330
1F
100
AcDbEntity
  8
LAY-1
  6
CONTINUOUS
 62
     3
100
AcDbLine
 10
666.999939
 20
697.315063
 30
0.0
 11
675.5
 21
692.407425
 31
0.0
  0
LINE
  5
290
330
1F
100
AcDbEntity
  8
LAY-1
  6
CONTINUOUS
 62
     3
100
AcDbLine
 10
666.999939
 20
697.315063
 30
0.0
 11
658.499939
 21
692.407425
 31
0.0
  0
LINE
  5
291
330
1F
100
AcDbEntity
  8
LAY-1
  6
CONTINUOUS
 62
     3
100
AcDbLine
 10
658.499939
 20
682.592483
 30
0.0
 11
667.0
 21
677.684952
 31
0.0
  0
LINE
  5
292
330
1F
100
AcDbEntity
  8
LAY-1
  6
CONTINUOUS
 62
     3
100
AcDbLine
 10
667.0
 20
677.685058
 30
0.0
 11
675.5
 21
682.592575
 31
0.0
  0
CIRCLE
  5
293
330
1F
100
AcDbEntity
  8
LAY-1
  6
CONTINUOUS
 62
     3
100
AcDbCircle
 10
667.0
 20
687.5
 30
0.0
 40
8.25
  0
LINE
  5
294
330
1F
100
AcDbEntity
  8
LAY-1
  6
CONTINUOUS
 62
     3
100
AcDbLine
 10
655.0
 20
721.499999999996
 30
0.0
 11
655.0
 21
700.0
 31
0.0
  0
LINE
  5
295
330
1F
100
AcDbEntity
  8
LAY-1
  6
CONTINUOUS
 62
     3
100
AcDbLine
 10
678.9999999999999
 20
721.499999999996
 30
0.0
 11
678.9999999999999
 21
700.0
 31
0.0
  0
LINE
  5
296
330
1F
100
AcDbEntity
  8
LAY-1
  6
CONTINUOUS
 62
     3
100
AcDbLine
 10
666.9999999999999
 20
650.5000000000007
 30
0.0
 11
632.0
 21
650.5000000000007
 31
0.0
  0
LINE
  5
297
330
1F
100
AcDbEntity
  8
LAY-1
  6
CONTINUOUS
 62
     3
100
AcDbLine
 10
667.0
 20
650.5000000000007
 30
0.0
 11
702.0
 21
650.5000000000007
 31
0.0
  0
LINE
  5
298
330
1F
100
AcDbEntity
  8
LAY-1
  6
CONTINUOUS
 62
     3
100
AcDbLine
 10
666.9999999999999
 20
632.5000000000002
 30
0.0
 11
632.0
 21
632.5000000000002
 31
0.0
  0
LINE
  5
299
330
1F
100
AcDbEntity
  8
LAY-1
  6
CONTINUOUS
 62
     3
100
AcDbLine
 10
667.0
 20
632.5000000000002
 30
0.0
 11
702.0
 21
632.5000000000002
 31
0.0
  0
LINE
  5
29A
330
1F
100
AcDbEntity
  8
LAY-1
  6
CONTINUOUS
 62
     3
100
AcDbLine
 10
636.7502446186295
 20
617.5000000000001
 30
0.0
 11
667.0
 21
617.5000000000001
 31
0.0
  0
LINE
  5
29B
330
1F
100
AcDbEntity
  8
LAY-1
  6
CONTINUOUS
 62
     3
100
AcDbLine
 10
697.2497553813705
 20
617.5000000000001
 30
0.0
 11
667.0
 21
617.5000000000001
 31
0.0
  0
LINE
  5
29C
330
1F
100
AcDbEntity
  8
LAY-1
  6
CONTINUOUS
 62
     3
100
AcDbLine
 10
655.0
 20
675.0
 30
0.0
 11
655.0
 21
650.5000000000007
 31
0.0
  0
LINE
  5
29D
330
1F
100
AcDbEntity
  8
LAY-1
  6
CONTINUOUS
 62
     3
100
AcDbLine
 10
678.9999999999999
 20
675.0
 30
0.0
 11
678.9999999999999
 21
650.5000000000007
 31
0.0
  0
LINE
  5
29E
330
1F
100
AcDbEntity
  8
LAY-1
  6
CONTINUOUS
 62
     3
100
AcDbLine
 10
685.5
 20
617.5000000000001
 30
0.0
 11
685.5
 21
632.5000000000002
 31
0.0
  0
LINE
  5
29F
330
1F
100
AcDbEntity
  8
LAY-1
  6
CONTINUOUS
 62
     3
100
AcDbLine
 10
648.5
 20
617.5000000000001
 30
0.0
 11
648.5
 21
632.5000000000002
 31
0.0
  0
LINE
  5
2A0
330
1F
100
AcDbEntity
  8
LAY-1
  6
CONTINUOUS
 62
     3
100
AcDbLine
 10
652.0
 20
632.5000000000002
 30
0.0
 11
652.0
 21
650.5000000000007
 31
0.0
  0
LINE
  5
2A1
330
1F
100
AcDbEntity
  8
LAY-1
  6
CONTINUOUS
 62
     3
100
AcDbLine
 10
657.999969
 20
660.5
 30
0.0
 11
675.999969
 21
660.5
 31
0.0
  0
LINE
  5
2A2
330
1F
100
AcDbEntity
  8
LAY-1
  6
CONTINUOUS
 62
     3
100
AcDbLine
 10
675.999969
 20
660.5
 30
0.0
 11
677.9697570000001
 21
659.362732
 31
0.0
  0
ARC
  5
2A3
330
1F
100
AcDbEntity
  8
LAY-1
  6
CONTINUOUS
 62
     3
100
AcDbCircle
 10
666.9993589999999
 20
646.705231
 30
0.0
 40
13.794775
100
AcDbArc
 50
66.5695410695425
 51
113.4257430764437
  0
ARC
  5
2A4
330
1F
100
AcDbEntity
  8
LAY-1
  6
CONTINUOUS
 62
     3
100
AcDbCircle
 10
676.085846
 20
654.230133
 30
0.0
 40
6.271714
100
AcDbArc
 50
90.78468554827452
 51
125.0556976977885
  0
LINE
  5
2A5
330
1F
100
AcDbEntity
  8
LAY-1
  6
CONTINUOUS
 62
     3
100
AcDbLine
 10
657.999969
 20
660.5
 30
0.0
 11
656.030182
 21
659.362732
 31
0.0
  0
ARC
  5
2A6
330
1F
100
AcDbEntity
  8
LAY-1
  6
CONTINUOUS
 62
     3
100
AcDbCircle
 10
657.9140930000001
 20
654.230133
 30
0.0
 40
6.271714
100
AcDbArc
 50
54.94430230221137
 51
89.21531445172552
  0
LINE
  5
2A7
330
1F
100
AcDbEntity
  8
LAY-1
  6
CONTINUOUS
 62
     3
100
AcDbLine
 10
677.9696959999999
 20
650.5
 30
0.0
 11
656.0303039999999
 21
650.5
 31
0.0
  0
LINE
  5
2A8
330
1F
100
AcDbEntity
  8
LAY-1
  6
CONTINUOUS
 62
     3
100
AcDbLine
 10
677.9697269999999
 20
659.362732
 30
0.0
 11
677.9696959999999
 21
650.5
 31
0.0
  0
LINE
  5
2A9
330
1F
100
AcDbEntity
  8
LAY-1
  6
CONTINUOUS
 62
     3
100
AcDbLine
 10
672.484741
 20
659.362732
 30
0.0
 11
672.4847259999999
 21
650.500061
 31
0.0
  0
LINE
  5
2AA
330
1F
100
AcDbEntity
  8
LAY-1
  6
CONTINUOUS
 62
     3
100
AcDbLine
 10
661.5152129999999
 20
659.362732
 30
0.0
 11
661.515198
 21
650.500061
 31
0.0
  0
LINE
  5
2AB
330
1F
100
AcDbEntity
  8
LAY-1
  6
CONTINUOUS
 62
     3
100
AcDbLine
 10
656.0302120000001
 20
659.362732
 30
0.0
 11
656.030197
 21
650.5
 31
0.0
  0
LINE
  5
2AC
330
1F
100
AcDbEntity
  8
LAY-1
  6
CONTINUOUS
 62
     3
100
AcDbLine
 10
672.9998780000001
 20
660.4999980016701
 30
0.0
 11
660.9998780000001
 21
660.4999980016701
 31
0.0
  0
ARC
  5
2AD
330
1F
100
AcDbEntity
  8
LAY-1
  6
CONTINUOUS
 62
     3
100
AcDbCircle
 10
666.9998169999999
 20
652.50008200167
 30
0.0
 40
9.999918
100
AcDbArc
 50
53.12951802966313
 51
126.869891412448
  0
LINE
  5
2AE
330
1F
100
AcDbEntity
  8
LAY-1
  6
CONTINUOUS
 62
     1
100
AcDbLine
 10
661.9967569999999
 20
627.925
 30
0.0
 11
660.9997559999999
 21
625.299992
 31
0.0
  0
LINE
  5
2AF
330
1F
100
AcDbEntity
  8
LAY-1
  6
CONTINUOUS
 62
     1
100
AcDbLine
 10
672.002876
 20
627.925
 30
0.0
 11
672.9998780000001
 21
625.299992
 31
0.0
  0
LINE
  5
2B0
330
1F
100
AcDbEntity
  8
LAY-1
  6
CONTINUOUS
 62
     3
100
AcDbLine
 10
672.9998780000001
 20
627.924992
 30
0.0
 11
660.9998780000001
 21
627.924992
 31
0.0
  0
LINE
  5
2B1
330
1F
100
AcDbEntity
  8
LAY-1
  6
CONTINUOUS
 62
     3
100
AcDbLine
 10
660.9999310000001
 20
625.299992
 30
0.0
 11
660.9999493216883
 21
617.5000000000001
 31
0.0
  0
LINE
  5
2B2
330
1F
100
AcDbEntity
  8
LAY-1
  6
CONTINUOUS
 62
     3
100
AcDbLine
 10
672.9999310000001
 20
625.299992
 30
0.0
 11
672.9999493216883
 21
617.5000000000001
 31
0.0
  0
LINE
  5
2B3
330
1F
100
AcDbEntity
  8
LAY-1
  6
CONTINUOUS
 62
     3
100
AcDbLine
 10
660.9999310000001
 20
625.299992
 30
0.0
 11
660.9999141336943
 21
632.4999976648551
 31
0.0
  0
LINE
  5
2B4
330
1F
100
AcDbEntity
  8
LAY-1
  6
CONTINUOUS
 62
     1
100
AcDbLine
 10
661.9967569999999
 20
632.5000000000002
 30
0.0
 11
661.9967569999999
 21
627.925
 31
0.0
  0
LINE
  5
2B5
330
1F
100
AcDbEntity
  8
LAY-1
  6
CONTINUOUS
 62
     1
100
AcDbLine
 10
672.002876
 20
632.5
 30
0.0
 11
672.002876
 21
627.925
 31
0.0
  0
LINE
  5
2B6
330
1F
100
AcDbEntity
  8
LAY-1
  6
CONTINUOUS
 62
     3
100
AcDbLine
 10
672.9999310000001
 20
625.299992
 30
0.0
 11
672.9999141336658
 21
632.5000000000002
 31
0.0
  0
LINE
  5
2B7
330
1F
100
AcDbEntity
  8
LAY-1
  6
CONTINUOUS
 62
     3
100
AcDbLine
 10
590.8
 20
595.5
 30
0.0
 11
667.0
 21
595.5
 31
0.0
  0
LINE
  5
2B8
330
1F
100
AcDbEntity
  8
LAY-1
  6
CONTINUOUS
 62
     3
100
AcDbLine
 10
743.2
 20
595.5
 30
0.0
 11
667.0
 21
595.5
 31
0.0
  0
LINE
  5
2B9
330
1F
100
AcDbEntity
  8
LAY-1
  6
CONTINUOUS
 62
     3
100
AcDbLine
 10
744.5
 20
561.5
 30
0.0
 11
744.5
 21
577.5
 31
0.0
  0
ARC
  5
2BA
330
1F
100
AcDbEntity
  8
LAY-1
  6
CONTINUOUS
 62
     3
100
AcDbCircle
 10
742.5
 20
561.5
 30
0.0
 40
2.0
100
AcDbArc
 50
270.0
 51
0.0
  0
LINE
  5
2BB
330
1F
100
AcDbEntity
  8
LAY-1
  6
CONTINUOUS
 62
     3
100
AcDbLine
 10
589.5
 20
577.5
 30
0.0
 11
589.5
 21
561.5
 31
0.0
  0
ARC
  5
2BC
330
1F
100
AcDbEntity
  8
LAY-1
  6
CONTINUOUS
 62
     3
100
AcDbCircle
 10
591.5
 20
561.5
 30
0.0
 40
2.0
100
AcDbArc
 50
180.0
 51
270.0
  0
CIRCLE
  5
2BD
330
1F
100
AcDbEntity
  8
LAY-1
  6
CONTINUOUS
 62
     3
100
AcDbCircle
 10
667.0
 20
490.0
 30
0.0
 40
92.5
  0
CIRCLE
  5
2BE
330
1F
100
AcDbEntity
  8
LAY-1
  6
EXLTYPE2
 62
     1
100
AcDbCircle
 10
667.0
 20
490.0
 30
0.0
 40
75.0
  0
CIRCLE
  5
2BF
330
1F
100
AcDbEntity
  8
LAY-1
  6
CONTINUOUS
 62
     3
100
AcDbCircle
 10
736.29096493834
 20
518.7012574273899
 30
0.0
 40
9.5
  0
CIRCLE
  5
2C0
330
1F
100
AcDbEntity
  8
LAY-1
  6
CONTINUOUS
 62
     3
100
AcDbCircle
 10
695.7012574273714
 20
559.2909649383478
 30
0.0
 40
9.5
  0
CIRCLE
  5
2C1
330
1F
100
AcDbEntity
  8
LAY-1
  6
CONTINUOUS
 62
     3
100
AcDbCircle
 10
638.2987425726287
 20
559.2909649383478
 30
0.0
 40
9.5
  0
CIRCLE
  5
2C2
330
1F
100
AcDbEntity
  8
LAY-1
  6
CONTINUOUS
 62
     3
100
AcDbCircle
 10
597.70903506166
 20
518.7012574273899
 30
0.0
 40
9.5
  0
CIRCLE
  5
2C3
330
1F
100
AcDbEntity
  8
LAY-1
  6
CONTINUOUS
 62
     3
100
AcDbCircle
 10
597.70903506166
 20
461.2987425726103
 30
0.0
 40
9.5
  0
CIRCLE
  5
2C4
330
1F
100
AcDbEntity
  8
LAY-1
  6
CONTINUOUS
 62
     3
100
AcDbCircle
 10
638.2987425726287
 20
420.7090350616525
 30
0.0
 40
9.5
  0
CIRCLE
  5
2C5
330
1F
100
AcDbEntity
  8
LAY-1
  6
CONTINUOUS
 62
     3
100
AcDbCircle
 10
695.7012574273713
 20
420.7090350616525
 30
0.0
 40
9.5
  0
CIRCLE
  5
2C6
330
1F
100
AcDbEntity
  8
LAY-1
  6
CONTINUOUS
 62
     3
100
AcDbCircle
 10
736.29096493834
 20
461.2987425726103
 30
0.0
 40
9.5
  0
CIRCLE
  5
2C7
330
1F
100
AcDbEntity
  8
LAY-1
  6
CONTINUOUS
 62
     3
100
AcDbCircle
 10
667.0
 20
490.0
 30
0.0
 40
63.0
  0
CIRCLE
  5
2C8
330
1F
100
AcDbEntity
  8
LAY-1
  6
CONTINUOUS
 62
     3
100
AcDbCircle
 10
667.0
 20
490.0
 30
0.0
 40
40.0
  0
LINE
  5
2C9
330
1F
100
AcDbEntity
  8
LAY-1
  6
CONTINUOUS
 62
     3
100
AcDbLine
 10
742.5
 20
559.5
 30
0.0
 11
728.04096984813
 21
559.5
 31
0.0
  0
LINE
  5
2CA
330
1F
100
AcDbEntity
  8
LAY-1
  6
CONTINUOUS
 62
     3
100
AcDbLine
 10
591.5
 20
559.5
 30
0.0
 11
605.9590301518701
 21
559.5
 31
0.0
  0
LINE
  5
2CB
330
1F
100
AcDbEntity
  8
LAY-1
  6
CONTINUOUS
 62
     3
100
AcDbLine
 10
595.3958925991001
 20
608.499988
 30
0.0
 11
618.3958925991001
 21
608.499988
 31
0.0
  0
LINE
  5
2CC
330
1F
100
AcDbEntity
  8
LAY-1
  6
CONTINUOUS
 62
     3
100
AcDbLine
 10
618.3958925991001
 20
608.499988
 30
0.0
 11
620.7523985990999
 21
607.139461
 31
0.0
  0
ARC
  5
2CD
330
1F
100
AcDbEntity
  8
LAY-1
  6
CONTINUOUS
 62
     3
100
AcDbCircle
 10
606.8958925991001
 20
590.180061
 30
0.0
 40
18.31995
100
AcDbArc
 50
67.77928415818172
 51
112.220870129063
  0
ARC
  5
2CE
330
1F
100
AcDbEntity
  8
LAY-1
  6
CONTINUOUS
 62
     3
100
AcDbCircle
 10
618.4771605991
 20
599.864738
 30
0.0
 40
8.635792
100
AcDbArc
 50
90.53923042884043
 51
122.6040685882033
  0
LINE
  5
2CF
330
1F
100
AcDbEntity
  8
LAY-1
  6
CONTINUOUS
 62
     3
100
AcDbLine
 10
595.3958625990999
 20
608.499988
 30
0.0
 11
593.0393555991
 21
607.139461
 31
0.0
  0
ARC
  5
2D0
330
1F
100
AcDbEntity
  8
LAY-1
  6
CONTINUOUS
 62
     3
100
AcDbCircle
 10
595.3145935991001
 20
599.864738
 30
0.0
 40
8.635792
100
AcDbArc
 50
57.39593141179666
 51
89.46082686693907
  0
LINE
  5
2D1
330
1F
100
AcDbEntity
  8
LAY-1
  6
CONTINUOUS
 62
     3
100
AcDbLine
 10
620.7523685991
 20
595.5
 30
0.0
 11
593.0394935990998
 21
595.5
 31
0.0
  0
LINE
  5
2D2
330
1F
100
AcDbEntity
  8
LAY-1
  6
CONTINUOUS
 62
     3
100
AcDbLine
 10
620.7523985990999
 20
607.139465
 30
0.0
 11
620.7523685991
 21
595.5
 31
0.0
  0
LINE
  5
2D3
330
1F
100
AcDbEntity
  8
LAY-1
  6
CONTINUOUS
 62
     3
100
AcDbLine
 10
599.9677155990998
 20
607.139377
 30
0.0
 11
599.9677465990999
 21
595.500046
 31
0.0
  0
LINE
  5
2D4
330
1F
100
AcDbEntity
  8
LAY-1
  6
CONTINUOUS
 62
     3
100
AcDbLine
 10
613.8240395990999
 20
607.1394310000001
 30
0.0
 11
613.8240695990999
 21
595.500046
 31
0.0
  0
LINE
  5
2D5
330
1F
100
AcDbEntity
  8
LAY-1
  6
CONTINUOUS
 62
     3
100
AcDbLine
 10
593.0393555991
 20
607.139465
 30
0.0
 11
593.0393555991
 21
595.5
 31
0.0
  0
LINE
  5
2D6
330
1F
100
AcDbEntity
  8
LAY-1
  6
CONTINUOUS
 62
     3
100
AcDbLine
 10
614.8960305991
 20
612.50005300075
 30
0.0
 11
598.8960305991
 21
612.50005300075
 31
0.0
  0
ARC
  5
2D7
330
1F
100
AcDbEntity
  8
LAY-1
  6
CONTINUOUS
 62
     3
100
AcDbCircle
 10
606.8960835990999
 20
597.49919900075
 30
0.0
 40
17.000801
100
AcDbArc
 50
61.92900384728226
 51
118.0712650315215
  0
LINE
  5
2D8
330
1F
100
AcDbEntity
  8
LAY-1
  6
CONTINUOUS
 62
     1
100
AcDbLine
 10
599.9781375991001
 20
608.499988
 30
0.0
 11
599.9781375991001
 21
613.0288241663064
 31
0.0
  0
ARC
  5
2D9
330
1F
100
AcDbEntity
  8
LAY-1
  6
CONTINUOUS
 62
     3
100
AcDbCircle
 10
586.7051744285004
 20
620.5
 30
0.0
 40
25.0
100
AcDbArc
 50
348.0146280410743
 51
18.94712110409678
  0
LINE
  5
2DA
330
1F
100
AcDbEntity
  8
LAY-1
  6
CONTINUOUS
 62
     3
100
AcDbLine
 10
598.8959941163223
 20
608.499988
 30
0.0
 11
598.8960004612932
 21
612.5000783801099
 31
0.0
  0
LINE
  5
2DB
330
1F
100
AcDbEntity
  8
LAY-1
  6
CONTINUOUS
 62
     1
100
AcDbLine
 10
613.8137095991001
 20
608.499988
 30
0.0
 11
613.8137095991001
 21
613.0288241663064
 31
0.0
  0
LINE
  5
2DC
330
1F
100
AcDbEntity
  8
LAY-1
  6
CONTINUOUS
 62
     3
100
AcDbLine
 10
614.8958530818777
 20
608.499988
 30
0.0
 11
614.8958467369068
 21
612.5000783801099
 31
0.0
  0
LINE
  5
2DD
330
1F
100
AcDbEntity
  8
LAY-1
  6
CONTINUOUS
 62
     3
100
AcDbLine
 10
738.6041074009
 20
608.499988
 30
0.0
 11
715.6041074009
 21
608.499988
 31
0.0
  0
LINE
  5
2DE
330
1F
100
AcDbEntity
  8
LAY-1
  6
CONTINUOUS
 62
     3
100
AcDbLine
 10
715.6041074009
 20
608.499988
 30
0.0
 11
713.2476014009001
 21
607.139461
 31
0.0
  0
ARC
  5
2DF
330
1F
100
AcDbEntity
  8
LAY-1
  6
CONTINUOUS
 62
     3
100
AcDbCircle
 10
727.1041074008999
 20
590.180061
 30
0.0
 40
18.31995
100
AcDbArc
 50
67.77912987093696
 51
112.2207158418183
  0
ARC
  5
2E0
330
1F
100
AcDbEntity
  8
LAY-1
  6
CONTINUOUS
 62
     3
100
AcDbCircle
 10
715.5228394009
 20
599.864738
 30
0.0
 40
8.635792
100
AcDbArc
 50
57.39593141179666
 51
89.46076957115986
  0
LINE
  5
2E1
330
1F
100
AcDbEntity
  8
LAY-1
  6
CONTINUOUS
 62
     3
100
AcDbLine
 10
738.6041374009001
 20
608.499988
 30
0.0
 11
740.9606444009
 21
607.139461
 31
0.0
  0
ARC
  5
2E2
330
1F
100
AcDbEntity
  8
LAY-1
  6
CONTINUOUS
 62
     3
100
AcDbCircle
 10
738.6854064009
 20
599.864738
 30
0.0
 40
8.635792
100
AcDbArc
 50
90.53917313306144
 51
122.6040685882034
  0
LINE
  5
2E3
330
1F
100
AcDbEntity
  8
LAY-1
  6
CONTINUOUS
 62
     3
100
AcDbLine
 10
719.1039694009
 20
612.50005300075
 30
0.0
 11
735.1039694009
 21
612.50005300075
 31
0.0
  0
ARC
  5
2E4
330
1F
100
AcDbEntity
  8
LAY-1
  6
CONTINUOUS
 62
     3
100
AcDbCircle
 10
727.1039164009001
 20
597.49919900075
 30
0.0
 40
17.000801
100
AcDbArc
 50
61.92873496847881
 51
118.0709961527179
  0
LINE
  5
2E5
330
1F
100
AcDbEntity
  8
LAY-1
  6
CONTINUOUS
 62
     1
100
AcDbLine
 10
734.0218624009
 20
608.499988
 30
0.0
 11
734.0218624009
 21
613.0288241663064
 31
0.0
  0
LINE
  5
2E6
330
1F
100
AcDbEntity
  8
LAY-1
  6
CONTINUOUS
 62
     3
100
AcDbLine
 10
735.1040058836777
 20
608.499988
 30
0.0
 11
735.1039995387067
 21
612.5000783801099
 31
0.0
  0
LINE
  5
2E7
330
1F
100
AcDbEntity
  8
LAY-1
  6
CONTINUOUS
 62
     1
100
AcDbLine
 10
720.1862904008999
 20
608.499988
 30
0.0
 11
720.1862904008999
 21
613.0288241663064
 31
0.0
  0
LINE
  5
2E8
330
1F
100
AcDbEntity
  8
LAY-1
  6
CONTINUOUS
 62
     3
100
AcDbLine
 10
719.1041469181223
 20
608.499988
 30
0.0
 11
719.1041532630932
 21
612.5000783801099
 31
0.0
  0
LINE
  5
2E9
330
1F
100
AcDbEntity
  8
LAY-1
  6
CONTINUOUS
 62
     3
100
AcDbLine
 10
740.9606444009
 20
607.139465
 30
0.0
 11
740.9606444009
 21
595.5
 31
0.0
  0
LINE
  5
2EA
330
1F
100
AcDbEntity
  8
LAY-1
  6
CONTINUOUS
 62
     3
100
AcDbLine
 10
734.0322844009
 20
607.139377
 30
0.0
 11
734.0322534009
 21
595.500046
 31
0.0
  0
LINE
  5
2EB
330
1F
100
AcDbEntity
  8
LAY-1
  6
CONTINUOUS
 62
     3
100
AcDbLine
 10
720.1759604009001
 20
607.1394310000001
 30
0.0
 11
720.1759304009
 21
595.500046
 31
0.0
  0
LINE
  5
2EC
330
1F
100
AcDbEntity
  8
LAY-1
  6
CONTINUOUS
 62
     3
100
AcDbLine
 10
713.2476014009001
 20
607.139465
 30
0.0
 11
713.2476314009
 21
595.5
 31
0.0
  0
ARC
  5
2ED
330
1F
100
AcDbEntity
  8
LAY-1
  6
CONTINUOUS
 62
     3
100
AcDbCircle
 10
747.2948255714997
 20
620.5
 30
0.0
 40
25.0
100
AcDbArc
 50
161.0528788959033
 51
189.0633664934999
  0
LINE
  5
2EE
330
1F
100
AcDbEntity
  8
LAY-1
  6
CONTINUOUS
 62
     3
100
AcDbLine
 10
589.5
 20
577.5
 30
0.0
 11
637.0
 21
577.5
 31
0.0
  0
LINE
  5
2EF
330
1F
100
AcDbEntity
  8
LAY-1
  6
CONTINUOUS
 62
     3
100
AcDbLine
 10
744.5
 20
577.5
 30
0.0
 11
697.0
 21
577.5
 31
0.0
  0
LINE
  5
2F0
330
1F
100
AcDbEntity
  8
LAY-1
  6
CONTINUOUS
 62
     3
100
AcDbLine
 10
577.0
 20
511.3600093632937
 30
0.0
 11
577.0
 21
570.5
 31
0.0
  0
LINE
  5
2F1
330
1F
100
AcDbEntity
  8
LAY-1
  6
CONTINUOUS
 62
     3
100
AcDbLine
 10
575.5
 20
503.5646599662502
 30
0.0
 11
575.5
 21
570.5
 31
0.0
  0
LINE
  5
2F2
330
1F
100
AcDbEntity
  8
LAY-1
  6
CONTINUOUS
 62
     3
100
AcDbLine
 10
577.0
 20
324.5000000000003
 30
0.0
 11
577.0
 21
468.6399906367063
 31
0.0
  0
LINE
  5
2F3
330
1F
100
AcDbEntity
  8
LAY-1
  6
CONTINUOUS
 62
     3
100
AcDbLine
 10
575.5
 20
324.5000000000003
 30
0.0
 11
575.5
 21
476.4353400337498
 31
0.0
  0
LINE
  5
2F4
330
1F
100
AcDbEntity
  8
LAY-1
  6
CONTINUOUS
 62
     3
100
AcDbLine
 10
757.0
 20
511.360009363294
 30
0.0
 11
757.0
 21
570.5
 31
0.0
  0
LINE
  5
2F5
330
1F
100
AcDbEntity
  8
LAY-1
  6
CONTINUOUS
 62
     3
100
AcDbLine
 10
758.5
 20
503.5646599662507
 30
0.0
 11
758.5
 21
570.5
 31
0.0
  0
LINE
  5
2F6
330
1F
100
AcDbEntity
  8
LAY-1
  6
CONTINUOUS
 62
     3
100
AcDbLine
 10
757.0
 20
324.5000000000003
 30
0.0
 11
757.0
 21
468.639990636706
 31
0.0
  0
LINE
  5
2F7
330
1F
100
AcDbEntity
  8
LAY-1
  6
CONTINUOUS
 62
     3
100
AcDbLine
 10
758.5
 20
324.5000000000003
 30
0.0
 11
758.5
 21
476.4353400337493
 31
0.0
  0
ARC
  5
2F8
330
1F
100
AcDbEntity
  8
LAY-1
  6
CONTINUOUS
 62
     3
100
AcDbCircle
 10
653.20976105923
 20
338.0
 30
0.0
 40
45.5
100
AcDbArc
 50
180.0
 51
270.0
  0
LINE
  5
2F9
330
1F
100
AcDbEntity
  8
LAY-1
  6
CONTINUOUS
 62
     3
100
AcDbLine
 10
607.7097610592293
 20
333.9
 30
0.0
 11
607.7097610592293
 21
357.5000000000372
 31
0.0
  0
LINE
  5
2FA
330
1F
100
AcDbEntity
  8
LAY-1
  6
CONTINUOUS
 62
     3
100
AcDbLine
 10
607.7097610592293
 20
357.5000000000372
 30
0.0
 11
601.8635198319716
 21
424.3228430021513
 31
0.0
  0
ARC
  5
2FB
330
1F
100
AcDbEntity
  8
LAY-1
  6
CONTINUOUS
 62
     3
100
AcDbCircle
 10
731.0694593006763
 20
314.5000000000003
 30
0.0
 40
10.0
100
AcDbArc
 50
90.00000000000001
 51
154.9490880112808
  0
LINE
  5
2FC
330
1F
100
AcDbEntity
  8
LAY-1
  6
CONTINUOUS
 62
     3
100
AcDbLine
 10
726.2902389407707
 20
333.9
 30
0.0
 11
726.2902389407707
 21
357.5000000000372
 31
0.0
  0
LINE
  5
2FD
330
1F
100
AcDbEntity
  8
LAY-1
  6
CONTINUOUS
 62
     3
100
AcDbLine
 10
726.2902389407707
 20
357.5000000000372
 30
0.0
 11
732.1364801680282
 21
424.3228430021513
 31
0.0
  0
ARC
  5
2FE
330
1F
100
AcDbEntity
  8
LAY-1
  6
CONTINUOUS
 62
     3
100
AcDbCircle
 10
680.79023894077
 20
338.0
 30
0.0
 40
45.5
100
AcDbArc
 50
270.0
 51
354.8509898536699
  0
LINE
  5
2FF
330
1F
100
AcDbEntity
  8
LAY-1
  6
CONTINUOUS
 62
     3
100
AcDbLine
 10
734.5
 20
687.5
 30
0.0
 11
734.5
 21
662.5000000000034
 31
0.0
  0
LINE
  5
300
330
1F
100
AcDbEntity
  8
LAY-1
  6
CONTINUOUS
 62
     3
100
AcDbLine
 10
739.4999999999998
 20
662.5000000000034
 30
0.0
 11
739.4999999999998
 21
687.5
 31
0.0
  0
LINE
  5
301
330
1F
100
AcDbEntity
  8
LAY-1
  6
CONTINUOUS
 62
     3
100
AcDbLine
 10
734.5
 20
687.5
 30
0.0
 11
739.5
 21
687.5
 31
0.0
  0
LINE
  5
302
330
1F
100
AcDbEntity
  8
LAY-1
  6
CONTINUOUS
 62
     3
100
AcDbLine
 10
888.5063509461099
 20
679.5
 30
0.0
 11
739.4999999999998
 21
679.5
 31
0.0
  0
LINE
  5
303
330
1F
100
AcDbEntity
  8
LAY-1
  6
CONTINUOUS
 62
     3
100
AcDbLine
 10
734.5
 20
679.5
 30
0.0
 11
692.0
 21
679.5
 31
0.0
  0
LINE
  5
304
330
1F
100
AcDbEntity
  8
LAY-1
  6
EXLTYPE2
 62
     1
100
AcDbLine
 10
945.0
 20
302.5
 30
0.0
 11
979.0
 21
302.5
 31
0.0
  0
LINE
  5
305
330
1F
100
AcDbEntity
  8
LAY-1
  6
EXLTYPE2
 62
     1
100
AcDbLine
 10
389.0
 20
302.5
 30
0.0
 11
355.0
 21
302.5
 31
0.0
  0
LINE
  5
306
330
1F
100
AcDbEntity
  8
LAY-1
  6
EXLTYPE2
 62
     1
100
AcDbLine
 10
564.0
 20
490.0000000000001
 30
0.0
 11
769.0
 21
490.0000000000001
 31
0.0
  0
LINE
  5
307
330
1F
100
AcDbEntity
  8
LAY-1
  6
EXLTYPE2
 62
     1
100
AcDbLine
 10
727.1040764009
 20
619.3
 30
0.0
 11
727.1040764009
 21
590.0
 31
0.0
  0
LINE
  5
308
330
1F
100
AcDbEntity
  8
LAY-1
  6
EXLTYPE2
 62
     1
100
AcDbLine
 10
606.8959235991001
 20
619.3
 30
0.0
 11
606.8959235991001
 21
590.0
 31
0.0
  0
LINE
  5
309
330
1F
100
AcDbEntity
  8
LAY-1
  6
EXLTYPE2
 62
     1
100
AcDbLine
 10
457.0
 20
269.0000000000001
 30
0.0
 11
457.0
 21
684.0
 31
0.0
  0
LINE
  5
30A
330
1F
100
AcDbEntity
  8
LAY-1
  6
EXLTYPE2
 62
     1
100
AcDbLine
 10
877.0
 20
269.0
 30
0.0
 11
877.0
 21
684.0
 31
0.0
  0
LINE
  5
30B
330
1F
100
AcDbEntity
  8
LAY-1
  6
EXLTYPE2
 62
     1
100
AcDbLine
 10
897.0
 20
687.5
 30
0.0
 11
639.5
 21
687.5
 31
0.0
  0
LINE
  5
30C
330
1F
100
AcDbEntity
  8
LAY-1
  6
EXLTYPE2
 62
     1
100
AcDbLine
 10
599.5
 20
697.5000000000024
 30
0.0
 11
578.0
 21
697.5000000000024
 31
0.0
  0
LINE
  5
30D
330
1F
100
AcDbEntity
  8
LAY-1
  6
EXLTYPE2
 62
     1
100
AcDbLine
 10
599.5
 20
662.5000000000034
 30
0.0
 11
578.0
 21
662.5000000000034
 31
0.0
  0
LINE
  5
30E
330
1F
100
AcDbEntity
  8
LAY-1
  6
EXLTYPE2
 62
     1
100
AcDbLine
 10
734.5
 20
697.5000000000024
 30
0.0
 11
756.0
 21
697.5000000000024
 31
0.0
  0
LINE
  5
30F
330
1F
100
AcDbEntity
  8
LAY-1
  6
EXLTYPE2
 62
     1
100
AcDbLine
 10
734.5
 20
662.5000000000034
 30
0.0
 11
756.0
 21
662.5000000000034
 31
0.0
  0
LINE
  5
310
330
1F
100
AcDbEntity
  8
LAY-1
  6
EXLTYPE2
 62
     1
100
AcDbLine
 10
702.3982174937646
 20
575.4588567572965
 30
0.0
 11
691.1090562389943
 21
548.2044105482137
 31
0.0
  0
LINE
  5
311
330
1F
100
AcDbEntity
  8
LAY-1
  6
EXLTYPE2
 62
     1
100
AcDbLine
 10
752.4588567572914
 20
525.398217493777
 30
0.0
 11
725.2044105482084
 21
514.109056239007
 31
0.0
  0
LINE
  5
312
330
1F
100
AcDbEntity
  8
LAY-1
  6
EXLTYPE2
 62
     1
100
AcDbLine
 10
752.4588567572914
 20
454.6017825062233
 30
0.0
 11
725.2044105482086
 21
465.8909437609933
 31
0.0
  0
LINE
  5
313
330
1F
100
AcDbEntity
  8
LAY-1
  6
EXLTYPE2
 62
     1
100
AcDbLine
 10
702.3982174937646
 20
404.5411432427038
 30
0.0
 11
691.1090562389943
 21
431.7955894517863
 31
0.0
  0
LINE
  5
314
330
1F
100
AcDbEntity
  8
LAY-1
  6
EXLTYPE2
 62
     1
100
AcDbLine
 10
631.6017825062354
 20
404.5411432427037
 30
0.0
 11
642.8909437610057
 21
431.7955894517863
 31
0.0
  0
LINE
  5
315
330
1F
100
AcDbEntity
  8
LAY-1
  6
EXLTYPE2
 62
     1
100
AcDbLine
 10
581.5411432427086
 20
454.6017825062232
 30
0.0
 11
608.7955894517914
 21
465.8909437609933
 31
0.0
  0
LINE
  5
316
330
1F
100
AcDbEntity
  8
LAY-1
  6
EXLTYPE2
 62
     1
100
AcDbLine
 10
581.5411432427086
 20
525.398217493777
 30
0.0
 11
608.7955894517916
 21
514.109056239007
 31
0.0
  0
LINE
  5
317
330
1F
100
AcDbEntity
  8
LAY-1
  6
EXLTYPE2
 62
     1
100
AcDbLine
 10
631.6017825062354
 20
575.4588567572965
 30
0.0
 11
642.8909437610058
 21
548.2044105482137
 31
0.0
  0
LINE
  5
318
330
1F
100
AcDbEntity
  8
LAY-1
  6
EXLTYPE2
 62
     1
100
AcDbLine
 10
795.0
 20
554.5
 30
0.0
 11
772.0
 21
554.5
 31
0.0
  0
LINE
  5
319
330
1F
100
AcDbEntity
  8
LAY-1
  6
EXLTYPE2
 62
     1
100
AcDbLine
 10
772.0
 20
518.5000000000002
 30
0.0
 11
795.0
 21
518.5000000000002
 31
0.0
  0
LINE
  5
31A
330
1F
100
AcDbEntity
  8
LAY-1
  6
EXLTYPE2
 62
     1
100
AcDbLine
 10
795.0
 20
450.0000000000005
 30
0.0
 11
772.0
 21
450.0000000000005
 31
0.0
  0
LINE
  5
31B
330
1F
100
AcDbEntity
  8
LAY-1
  6
EXLTYPE2
 62
     1
100
AcDbLine
 10
795.0
 20
376.5000000000005
 30
0.0
 11
772.0
 21
376.5000000000005
 31
0.0
  0
LINE
  5
31C
330
1F
100
AcDbEntity
  8
LAY-1
  6
EXLTYPE2
 62
     1
100
AcDbLine
 10
795.0
 20
340.5000000000005
 30
0.0
 11
772.0
 21
340.5000000000005
 31
0.0
  0
LINE
  5
31D
330
1F
100
AcDbEntity
  8
LAY-1
  6
CONTINUOUS
 62
     3
100
AcDbLine
 10
546.3000966
 20
439.8500322
 30
0.0
 11
546.3000966
 21
460.1500321999999
 31
0.0
  0
LINE
  5
31E
330
1F
100
AcDbEntity
  8
LAY-1
  6
CONTINUOUS
 62
     3
100
AcDbLine
 10
547.4400529
 20
437.8755569
 30
0.0
 11
546.3000966
 21
439.8500322
 31
0.0
  0
ARC
  5
31F
330
1F
100
AcDbEntity
  8
LAY-1
  6
CONTINUOUS
 62
     3
100
AcDbCircle
 10
562.9884032
 20
450.0
 30
0.0
 40
16.688406
100
AcDbArc
 50
158.6997011603738
 51
201.300087256602
  0
ARC
  5
320
330
1F
100
AcDbEntity
  8
LAY-1
  6
CONTINUOUS
 62
     3
100
AcDbCircle
 10
554.4196199
 20
439.7889894
 30
0.0
 40
8.1197046
100
AcDbArc
 50
149.2710503879215
 51
179.569230481778
  0
LINE
  5
321
330
1F
100
AcDbEntity
  8
LAY-1
  6
CONTINUOUS
 62
     3
100
AcDbLine
 10
547.4400529
 20
462.1245074999999
 30
0.0
 11
546.3000966
 21
460.1500321999999
 31
0.0
  0
ARC
  5
322
330
1F
100
AcDbEntity
  8
LAY-1
  6
CONTINUOUS
 62
     3
100
AcDbCircle
 10
554.4196199
 20
460.2110749999999
 30
0.0
 40
8.1197046
100
AcDbArc
 50
180.4307122224428
 51
210.7289496120786
  0
LINE
  5
323
330
1F
100
AcDbEntity
  8
LAY-1
  6
CONTINUOUS
 62
     3
100
AcDbLine
 10
557.5
 20
437.8755891000001
 30
0.0
 11
557.5
 21
462.1244108999999
 31
0.0
  0
LINE
  5
324
330
1F
100
AcDbEntity
  8
LAY-1
  6
CONTINUOUS
 62
     3
100
AcDbLine
 10
547.4400529
 20
437.8755569
 30
0.0
 11
557.5
 21
437.8755891000001
 31
0.0
  0
LINE
  5
325
330
1F
100
AcDbEntity
  8
LAY-1
  6
CONTINUOUS
 62
     3
100
AcDbLine
 10
547.4400529
 20
443.937923
 30
0.0
 11
557.4999363000001
 21
443.9379552
 31
0.0
  0
LINE
  5
326
330
1F
100
AcDbEntity
  8
LAY-1
  6
CONTINUOUS
 62
     3
100
AcDbLine
 10
547.4400529
 20
456.0621414
 30
0.0
 11
557.4999363
 21
456.0621736000001
 31
0.0
  0
LINE
  5
327
330
1F
100
AcDbEntity
  8
LAY-1
  6
CONTINUOUS
 62
     3
100
AcDbLine
 10
547.4400529
 20
462.1245074999999
 30
0.0
 11
557.5
 21
462.1245397
 31
0.0
  0
LINE
  5
328
330
1F
100
AcDbEntity
  8
LAY-1
  6
CONTINUOUS
 62
     3
100
AcDbLine
 10
542.0000000000001
 20
444.7499677999999
 30
0.0
 11
542.0000000000001
 21
455.2499677999999
 31
0.0
  0
LINE
  5
329
330
1F
100
AcDbEntity
  8
LAY-1
  6
CONTINUOUS
 62
     3
100
AcDbLine
 10
543.7500000000001
 20
456.9999677999999
 30
0.0
 11
542.0000000000001
 21
455.2499677999999
 31
0.0
  0
LINE
  5
32A
330
1F
100
AcDbEntity
  8
LAY-1
  6
CONTINUOUS
 62
     3
100
AcDbLine
 10
543.7500105
 20
442.9999573
 30
0.0
 11
543.7500000000001
 21
456.9999677999999
 31
0.0
  0
LINE
  5
32B
330
1F
100
AcDbEntity
  8
LAY-1
  6
CONTINUOUS
 62
     3
100
AcDbLine
 10
543.7500000000001
 20
442.9999677999999
 30
0.0
 11
542.0000000000001
 21
444.7499677999999
 31
0.0
  0
LINE
  5
32C
330
1F
100
AcDbEntity
  8
LAY-1
  6
CONTINUOUS
 62
     1
100
AcDbLine
 10
546.3000966
 20
456.0528699
 30
0.0
 11
542.8029021
 21
456.0528699
 31
0.0
  0
LINE
  5
32D
330
1F
100
AcDbEntity
  8
LAY-1
  6
CONTINUOUS
 62
     1
100
AcDbLine
 10
546.3000966
 20
443.9470656999999
 30
0.0
 11
542.8029021
 21
443.9470656999999
 31
0.0
  0
LINE
  5
32E
330
1F
100
AcDbEntity
  8
LAY-1
  6
CONTINUOUS
 62
     3
100
AcDbLine
 10
546.3000966
 20
442.9999677999999
 30
0.0
 11
543.75
 21
442.9999677999999
 31
0.0
  0
LINE
  5
32F
330
1F
100
AcDbEntity
  8
LAY-1
  6
CONTINUOUS
 62
     3
100
AcDbLine
 10
546.3000966
 20
456.9999677999999
 30
0.0
 11
543.75
 21
456.9999677999999
 31
0.0
  0
LINE
  5
330
330
1F
100
AcDbEntity
  8
LAY-1
  6
CONTINUOUS
 62
     3
100
AcDbLine
 10
546.3000966
 20
508.3500322
 30
0.0
 11
546.3000966
 21
528.6500321999999
 31
0.0
  0
LINE
  5
331
330
1F
100
AcDbEntity
  8
LAY-1
  6
CONTINUOUS
 62
     3
100
AcDbLine
 10
547.4400529
 20
506.3755569
 30
0.0
 11
546.3000966
 21
508.3500322
 31
0.0
  0
ARC
  5
332
330
1F
100
AcDbEntity
  8
LAY-1
  6
CONTINUOUS
 62
     3
100
AcDbCircle
 10
562.9884032
 20
518.5
 30
0.0
 40
16.688406
100
AcDbArc
 50
158.6997011603738
 51
201.300087256602
  0
ARC
  5
333
330
1F
100
AcDbEntity
  8
LAY-1
  6
CONTINUOUS
 62
     3
100
AcDbCircle
 10
554.4196199
 20
508.2889894
 30
0.0
 40
8.1197046
100
AcDbArc
 50
149.2710503879215
 51
179.569230481778
  0
LINE
  5
334
330
1F
100
AcDbEntity
  8
LAY-1
  6
CONTINUOUS
 62
     3
100
AcDbLine
 10
547.4400529
 20
530.6245074999999
 30
0.0
 11
546.3000966
 21
528.6500321999999
 31
0.0
  0
ARC
  5
335
330
1F
100
AcDbEntity
  8
LAY-1
  6
CONTINUOUS
 62
     3
100
AcDbCircle
 10
554.4196199
 20
528.7110749999999
 30
0.0
 40
8.1197046
100
AcDbArc
 50
180.4307122224428
 51
210.7289496120786
  0
LINE
  5
336
330
1F
100
AcDbEntity
  8
LAY-1
  6
CONTINUOUS
 62
     3
100
AcDbLine
 10
557.5
 20
506.3755891000001
 30
0.0
 11
557.5
 21
530.6244108999999
 31
0.0
  0
LINE
  5
337
330
1F
100
AcDbEntity
  8
LAY-1
  6
CONTINUOUS
 62
     3
100
AcDbLine
 10
547.4400529
 20
506.3755569
 30
0.0
 11
557.5
 21
506.3755891000001
 31
0.0
  0
LINE
  5
338
330
1F
100
AcDbEntity
  8
LAY-1
  6
CONTINUOUS
 62
     3
100
AcDbLine
 10
547.4400529
 20
512.437923
 30
0.0
 11
557.4999363000001
 21
512.4379552
 31
0.0
  0
LINE
  5
339
330
1F
100
AcDbEntity
  8
LAY-1
  6
CONTINUOUS
 62
     3
100
AcDbLine
 10
547.4400529
 20
524.5621414
 30
0.0
 11
557.4999363
 21
524.5621736
 31
0.0
  0
LINE
  5
33A
330
1F
100
AcDbEntity
  8
LAY-1
  6
CONTINUOUS
 62
     3
100
AcDbLine
 10
547.4400529
 20
530.6245074999999
 30
0.0
 11
557.5
 21
530.6245397
 31
0.0
  0
LINE
  5
33B
330
1F
100
AcDbEntity
  8
LAY-1
  6
CONTINUOUS
 62
     3
100
AcDbLine
 10
542.0000000000001
 20
513.2499677999999
 30
0.0
 11
542.0000000000001
 21
523.7499677999999
 31
0.0
  0
LINE
  5
33C
330
1F
100
AcDbEntity
  8
LAY-1
  6
CONTINUOUS
 62
     3
100
AcDbLine
 10
543.7500000000001
 20
525.4999677999999
 30
0.0
 11
542.0000000000001
 21
523.7499677999999
 31
0.0
  0
LINE
  5
33D
330
1F
100
AcDbEntity
  8
LAY-1
  6
CONTINUOUS
 62
     3
100
AcDbLine
 10
543.7500105
 20
511.4999573
 30
0.0
 11
543.7500000000001
 21
525.4999677999999
 31
0.0
  0
LINE
  5
33E
330
1F
100
AcDbEntity
  8
LAY-1
  6
CONTINUOUS
 62
     3
100
AcDbLine
 10
543.7500000000001
 20
511.4999677999999
 30
0.0
 11
542.0000000000001
 21
513.2499677999999
 31
0.0
  0
LINE
  5
33F
330
1F
100
AcDbEntity
  8
LAY-1
  6
CONTINUOUS
 62
     1
100
AcDbLine
 10
546.3000966
 20
524.5528699
 30
0.0
 11
542.8029021
 21
524.5528699
 31
0.0
  0
LINE
  5
340
330
1F
100
AcDbEntity
  8
LAY-1
  6
CONTINUOUS
 62
     1
100
AcDbLine
 10
546.3000966
 20
512.4470656999999
 30
0.0
 11
542.8029021
 21
512.4470656999999
 31
0.0
  0
LINE
  5
341
330
1F
100
AcDbEntity
  8
LAY-1
  6
CONTINUOUS
 62
     3
100
AcDbLine
 10
546.3000966
 20
511.4999677999999
 30
0.0
 11
543.75
 21
511.4999677999999
 31
0.0
  0
LINE
  5
342
330
1F
100
AcDbEntity
  8
LAY-1
  6
CONTINUOUS
 62
     3
100
AcDbLine
 10
546.3000966
 20
525.4999677999999
 30
0.0
 11
543.75
 21
525.4999677999999
 31
0.0
  0
LINE
  5
343
330
1F
100
AcDbEntity
  8
LAY-1
  6
CONTINUOUS
 62
     3
100
AcDbLine
 10
546.3000966
 20
366.3500322
 30
0.0
 11
546.3000966
 21
386.6500321999999
 31
0.0
  0
LINE
  5
344
330
1F
100
AcDbEntity
  8
LAY-1
  6
CONTINUOUS
 62
     3
100
AcDbLine
 10
547.4400529
 20
364.3755569
 30
0.0
 11
546.3000966
 21
366.3500322
 31
0.0
  0
ARC
  5
345
330
1F
100
AcDbEntity
  8
LAY-1
  6
CONTINUOUS
 62
     3
100
AcDbCircle
 10
562.9884032
 20
376.5
 30
0.0
 40
16.688406
100
AcDbArc
 50
158.6997011603738
 51
201.300087256602
  0
ARC
  5
346
330
1F
100
AcDbEntity
  8
LAY-1
  6
CONTINUOUS
 62
     3
100
AcDbCircle
 10
554.4196199
 20
366.2889894
 30
0.0
 40
8.1197046
100
AcDbArc
 50
149.2710503879215
 51
179.569230481778
  0
LINE
  5
347
330
1F
100
AcDbEntity
  8
LAY-1
  6
CONTINUOUS
 62
     3
100
AcDbLine
 10
547.4400529
 20
388.6245074999999
 30
0.0
 11
546.3000966
 21
386.6500321999999
 31
0.0
  0
ARC
  5
348
330
1F
100
AcDbEntity
  8
LAY-1
  6
CONTINUOUS
 62
     3
100
AcDbCircle
 10
554.4196199
 20
386.7110749999999
 30
0.0
 40
8.1197046
100
AcDbArc
 50
180.4307122224428
 51
210.7289496120786
  0
LINE
  5
349
330
1F
100
AcDbEntity
  8
LAY-1
  6
CONTINUOUS
 62
     3
100
AcDbLine
 10
557.5
 20
364.3755891000001
 30
0.0
 11
557.5
 21
388.6244108999999
 31
0.0
  0
LINE
  5
34A
330
1F
100
AcDbEntity
  8
LAY-1
  6
CONTINUOUS
 62
     3
100
AcDbLine
 10
547.4400529
 20
364.3755569
 30
0.0
 11
557.5
 21
364.3755891000001
 31
0.0
  0
LINE
  5
34B
330
1F
100
AcDbEntity
  8
LAY-1
  6
CONTINUOUS
 62
     3
100
AcDbLine
 10
547.4400529
 20
370.437923
 30
0.0
 11
557.4999363000001
 21
370.4379552
 31
0.0
  0
LINE
  5
34C
330
1F
100
AcDbEntity
  8
LAY-1
  6
CONTINUOUS
 62
     3
100
AcDbLine
 10
547.4400529
 20
382.5621414
 30
0.0
 11
557.4999363
 21
382.5621736000001
 31
0.0
  0
LINE
  5
34D
330
1F
100
AcDbEntity
  8
LAY-1
  6
CONTINUOUS
 62
     3
100
AcDbLine
 10
547.4400529
 20
388.6245074999999
 30
0.0
 11
557.5
 21
388.6245397
 31
0.0
  0
LINE
  5
34E
330
1F
100
AcDbEntity
  8
LAY-1
  6
CONTINUOUS
 62
     3
100
AcDbLine
 10
542.0000000000001
 20
371.2499677999999
 30
0.0
 11
542.0000000000001
 21
381.7499677999999
 31
0.0
  0
LINE
  5
34F
330
1F
100
AcDbEntity
  8
LAY-1
  6
CONTINUOUS
 62
     3
100
AcDbLine
 10
543.7500000000001
 20
383.4999677999999
 30
0.0
 11
542.0000000000001
 21
381.7499677999999
 31
0.0
  0
LINE
  5
350
330
1F
100
AcDbEntity
  8
LAY-1
  6
CONTINUOUS
 62
     3
100
AcDbLine
 10
543.7500105
 20
369.4999573
 30
0.0
 11
543.7500000000001
 21
383.4999677999999
 31
0.0
  0
LINE
  5
351
330
1F
100
AcDbEntity
  8
LAY-1
  6
CONTINUOUS
 62
     3
100
AcDbLine
 10
543.7500000000001
 20
369.4999677999999
 30
0.0
 11
542.0000000000001
 21
371.2499677999999
 31
0.0
  0
LINE
  5
352
330
1F
100
AcDbEntity
  8
LAY-1
  6
CONTINUOUS
 62
     1
100
AcDbLine
 10
546.3000966
 20
382.5528699
 30
0.0
 11
542.8029021
 21
382.5528699
 31
0.0
  0
LINE
  5
353
330
1F
100
AcDbEntity
  8
LAY-1
  6
CONTINUOUS
 62
     1
100
AcDbLine
 10
546.3000966
 20
370.4470656999999
 30
0.0
 11
542.8029021
 21
370.4470656999999
 31
0.0
  0
LINE
  5
354
330
1F
100
AcDbEntity
  8
LAY-1
  6
CONTINUOUS
 62
     3
100
AcDbLine
 10
546.3000966
 20
369.4999677999999
 30
0.0
 11
543.75
 21
369.4999677999999
 31
0.0
  0
LINE
  5
355
330
1F
100
AcDbEntity
  8
LAY-1
  6
CONTINUOUS
 62
     3
100
AcDbLine
 10
546.3000966
 20
383.4999677999999
 30
0.0
 11
543.75
 21
383.4999677999999
 31
0.0
  0
LINE
  5
356
330
1F
100
AcDbEntity
  8
LAY-1
  6
CONTINUOUS
 62
     3
100
AcDbLine
 10
546.3000966
 20
330.3500322
 30
0.0
 11
546.3000966
 21
350.6500321999999
 31
0.0
  0
LINE
  5
357
330
1F
100
AcDbEntity
  8
LAY-1
  6
CONTINUOUS
 62
     3
100
AcDbLine
 10
547.4400529
 20
328.3755569
 30
0.0
 11
546.3000966
 21
330.3500322
 31
0.0
  0
ARC
  5
358
330
1F
100
AcDbEntity
  8
LAY-1
  6
CONTINUOUS
 62
     3
100
AcDbCircle
 10
562.9884032
 20
340.5
 30
0.0
 40
16.688406
100
AcDbArc
 50
158.6997011603738
 51
201.300087256602
  0
ARC
  5
359
330
1F
100
AcDbEntity
  8
LAY-1
  6
CONTINUOUS
 62
     3
100
AcDbCircle
 10
554.4196199
 20
330.2889894
 30
0.0
 40
8.1197046
100
AcDbArc
 50
149.2710503879213
 51
179.569230481778
  0
LINE
  5
35A
330
1F
100
AcDbEntity
  8
LAY-1
  6
CONTINUOUS
 62
     3
100
AcDbLine
 10
547.4400529
 20
352.6245074999999
 30
0.0
 11
546.3000966
 21
350.6500321999999
 31
0.0
  0
ARC
  5
35B
330
1F
100
AcDbEntity
  8
LAY-1
  6
CONTINUOUS
 62
     3
100
AcDbCircle
 10
554.4196199
 20
350.7110749999999
 30
0.0
 40
8.1197046
100
AcDbArc
 50
180.4307122224428
 51
210.7289496120786
  0
LINE
  5
35C
330
1F
100
AcDbEntity
  8
LAY-1
  6
CONTINUOUS
 62
     3
100
AcDbLine
 10
557.5
 20
328.3755891000001
 30
0.0
 11
557.5
 21
352.6244108999999
 31
0.0
  0
LINE
  5
35D
330
1F
100
AcDbEntity
  8
LAY-1
  6
CONTINUOUS
 62
     3
100
AcDbLine
 10
547.4400529
 20
328.3755569
 30
0.0
 11
557.5
 21
328.3755891000001
 31
0.0
  0
LINE
  5
35E
330
1F
100
AcDbEntity
  8
LAY-1
  6
CONTINUOUS
 62
     3
100
AcDbLine
 10
547.4400529
 20
334.437923
 30
0.0
 11
557.4999363000001
 21
334.4379552
 31
0.0
  0
LINE
  5
35F
330
1F
100
AcDbEntity
  8
LAY-1
  6
CONTINUOUS
 62
     3
100
AcDbLine
 10
547.4400529
 20
346.5621414
 30
0.0
 11
557.4999363
 21
346.5621736000001
 31
0.0
  0
LINE
  5
360
330
1F
100
AcDbEntity
  8
LAY-1
  6
CONTINUOUS
 62
     3
100
AcDbLine
 10
547.4400529
 20
352.6245074999999
 30
0.0
 11
557.5
 21
352.6245397
 31
0.0
  0
LINE
  5
361
330
1F
100
AcDbEntity
  8
LAY-1
  6
CONTINUOUS
 62
     3
100
AcDbLine
 10
542.0000000000001
 20
335.2499677999999
 30
0.0
 11
542.0000000000001
 21
345.7499677999999
 31
0.0
  0
LINE
  5
362
330
1F
100
AcDbEntity
  8
LAY-1
  6
CONTINUOUS
 62
     3
100
AcDbLine
 10
543.7500000000001
 20
347.4999677999999
 30
0.0
 11
542.0000000000001
 21
345.7499677999999
 31
0.0
  0
LINE
  5
363
330
1F
100
AcDbEntity
  8
LAY-1
  6
CONTINUOUS
 62
     3
100
AcDbLine
 10
543.7500105
 20
333.4999573
 30
0.0
 11
543.7500000000001
 21
347.4999677999999
 31
0.0
  0
LINE
  5
364
330
1F
100
AcDbEntity
  8
LAY-1
  6
CONTINUOUS
 62
     3
100
AcDbLine
 10
543.7500000000001
 20
333.4999677999999
 30
0.0
 11
542.0000000000001
 21
335.2499677999999
 31
0.0
  0
LINE
  5
365
330
1F
100
AcDbEntity
  8
LAY-1
  6
CONTINUOUS
 62
     1
100
AcDbLine
 10
546.3000966
 20
346.5528699
 30
0.0
 11
542.8029021
 21
346.5528699
 31
0.0
  0
LINE
  5
366
330
1F
100
AcDbEntity
  8
LAY-1
  6
CONTINUOUS
 62
     1
100
AcDbLine
 10
546.3000966
 20
334.4470656999999
 30
0.0
 11
542.8029021
 21
334.4470656999999
 31
0.0
  0
LINE
  5
367
330
1F
100
AcDbEntity
  8
LAY-1
  6
CONTINUOUS
 62
     3
100
AcDbLine
 10
546.3000966
 20
333.4999677999999
 30
0.0
 11
543.75
 21
333.4999677999999
 31
0.0
  0
LINE
  5
368
330
1F
100
AcDbEntity
  8
LAY-1
  6
CONTINUOUS
 62
     3
100
AcDbLine
 10
546.3000966
 20
347.4999677999999
 30
0.0
 11
543.75
 21
347.4999677999999
 31
0.0
  0
LINE
  5
369
330
1F
100
AcDbEntity
  8
LAY-1
  6
CONTINUOUS
 62
     3
100
AcDbLine
 10
546.3000966
 20
544.3500322
 30
0.0
 11
546.3000966
 21
564.6500321999999
 31
0.0
  0
LINE
  5
36A
330
1F
100
AcDbEntity
  8
LAY-1
  6
CONTINUOUS
 62
     3
100
AcDbLine
 10
547.4400529
 20
542.3755569
 30
0.0
 11
546.3000966
 21
544.3500322
 31
0.0
  0
ARC
  5
36B
330
1F
100
AcDbEntity
  8
LAY-1
  6
CONTINUOUS
 62
     3
100
AcDbCircle
 10
562.9884032
 20
554.5
 30
0.0
 40
16.688406
100
AcDbArc
 50
158.6997011603738
 51
201.300087256602
  0
ARC
  5
36C
330
1F
100
AcDbEntity
  8
LAY-1
  6
CONTINUOUS
 62
     3
100
AcDbCircle
 10
554.4196199
 20
544.2889894
 30
0.0
 40
8.1197046
100
AcDbArc
 50
149.2710503879215
 51
179.569230481778
  0
LINE
  5
36D
330
1F
100
AcDbEntity
  8
LAY-1
  6
CONTINUOUS
 62
     3
100
AcDbLine
 10
547.4400529
 20
566.6245074999999
 30
0.0
 11
546.3000966
 21
564.6500321999999
 31
0.0
  0
ARC
  5
36E
330
1F
100
AcDbEntity
  8
LAY-1
  6
CONTINUOUS
 62
     3
100
AcDbCircle
 10
554.4196199
 20
564.7110749999999
 30
0.0
 40
8.1197046
100
AcDbArc
 50
180.4307122224428
 51
210.7289496120786
  0
LINE
  5
36F
330
1F
100
AcDbEntity
  8
LAY-1
  6
CONTINUOUS
 62
     3
100
AcDbLine
 10
557.5
 20
542.3755891000001
 30
0.0
 11
557.5
 21
566.6244108999999
 31
0.0
  0
LINE
  5
370
330
1F
100
AcDbEntity
  8
LAY-1
  6
CONTINUOUS
 62
     3
100
AcDbLine
 10
547.4400529
 20
542.3755569
 30
0.0
 11
557.5
 21
542.3755891000001
 31
0.0
  0
LINE
  5
371
330
1F
100
AcDbEntity
  8
LAY-1
  6
CONTINUOUS
 62
     3
100
AcDbLine
 10
547.4400529
 20
548.437923
 30
0.0
 11
557.4999363000001
 21
548.4379552
 31
0.0
  0
LINE
  5
372
330
1F
100
AcDbEntity
  8
LAY-1
  6
CONTINUOUS
 62
     3
100
AcDbLine
 10
547.4400529
 20
560.5621414
 30
0.0
 11
557.4999363
 21
560.5621736
 31
0.0
  0
LINE
  5
373
330
1F
100
AcDbEntity
  8
LAY-1
  6
CONTINUOUS
 62
     3
100
AcDbLine
 10
547.4400529
 20
566.6245074999999
 30
0.0
 11
557.5
 21
566.6245397
 31
0.0
  0
LINE
  5
374
330
1F
100
AcDbEntity
  8
LAY-1
  6
CONTINUOUS
 62
     3
100
AcDbLine
 10
542.0000000000001
 20
549.2499677999999
 30
0.0
 11
542.0000000000001
 21
559.7499677999999
 31
0.0
  0
LINE
  5
375
330
1F
100
AcDbEntity
  8
LAY-1
  6
CONTINUOUS
 62
     3
100
AcDbLine
 10
543.7500000000001
 20
561.4999677999999
 30
0.0
 11
542.0000000000001
 21
559.7499677999999
 31
0.0
  0
LINE
  5
376
330
1F
100
AcDbEntity
  8
LAY-1
  6
CONTINUOUS
 62
     3
100
AcDbLine
 10
543.7500105
 20
547.4999573
 30
0.0
 11
543.7500000000001
 21
561.4999677999999
 31
0.0
  0
LINE
  5
377
330
1F
100
AcDbEntity
  8
LAY-1
  6
CONTINUOUS
 62
     3
100
AcDbLine
 10
543.7500000000001
 20
547.4999677999999
 30
0.0
 11
542.0000000000001
 21
549.2499677999999
 31
0.0
  0
LINE
  5
378
330
1F
100
AcDbEntity
  8
LAY-1
  6
CONTINUOUS
 62
     1
100
AcDbLine
 10
546.3000966
 20
560.5528699
 30
0.0
 11
542.8029021
 21
560.5528699
 31
0.0
  0
LINE
  5
379
330
1F
100
AcDbEntity
  8
LAY-1
  6
CONTINUOUS
 62
     1
100
AcDbLine
 10
546.3000966
 20
548.4470656999999
 30
0.0
 11
542.8029021
 21
548.4470656999999
 31
0.0
  0
LINE
  5
37A
330
1F
100
AcDbEntity
  8
LAY-1
  6
CONTINUOUS
 62
     3
100
AcDbLine
 10
546.3000966
 20
547.4999677999999
 30
0.0
 11
543.75
 21
547.4999677999999
 31
0.0
  0
LINE
  5
37B
330
1F
100
AcDbEntity
  8
LAY-1
  6
CONTINUOUS
 62
     3
100
AcDbLine
 10
546.3000966
 20
561.4999677999999
 30
0.0
 11
543.75
 21
561.4999677999999
 31
0.0
  0
LINE
  5
37C
330
1F
100
AcDbEntity
  8
LAY-1
  6
EXLTYPE2
 62
     1
100
AcDbLine
 10
539.0
 20
554.5
 30
0.0
 11
562.0
 21
554.5
 31
0.0
  0
LINE
  5
37D
330
1F
100
AcDbEntity
  8
LAY-1
  6
EXLTYPE2
 62
     1
100
AcDbLine
 10
562.0
 20
518.5000000000002
 30
0.0
 11
539.0
 21
518.5000000000002
 31
0.0
  0
LINE
  5
37E
330
1F
100
AcDbEntity
  8
LAY-1
  6
EXLTYPE2
 62
     1
100
AcDbLine
 10
539.0
 20
450.0000000000005
 30
0.0
 11
562.0
 21
450.0000000000005
 31
0.0
  0
LINE
  5
37F
330
1F
100
AcDbEntity
  8
LAY-1
  6
EXLTYPE2
 62
     1
100
AcDbLine
 10
539.0
 20
376.5000000000005
 30
0.0
 11
562.0
 21
376.5000000000005
 31
0.0
  0
LINE
  5
380
330
1F
100
AcDbEntity
  8
LAY-1
  6
EXLTYPE2
 62
     1
100
AcDbLine
 10
539.0
 20
340.5000000000005
 30
0.0
 11
562.0
 21
340.5000000000005
 31
0.0
  0
LINE
  5
381
330
1F
100
AcDbEntity
  8
LAY-1
  6
CONTINUOUS
 62
     3
100
AcDbLine
 10
757.0
 20
442.4999999999999
 30
0.0
 11
746.3725393319377
 21
442.5
 31
0.0
  0
LINE
  5
382
330
1F
100
AcDbEntity
  8
LAY-1
  6
CONTINUOUS
 62
     3
100
AcDbLine
 10
757.0
 20
522.5
 30
0.0
 11
753.6025403784438
 21
522.5
 31
0.0
  0
LINE
  5
383
330
1F
100
AcDbEntity
  8
LAY-1
  6
CONTINUOUS
 62
     3
100
AcDbLine
 10
753.60254037844
 20
457.5
 30
0.0
 11
757.0
 21
457.5
 31
0.0
  0
LINE
  5
384
330
1F
100
AcDbEntity
  8
LAY-1
  6
CONTINUOUS
 62
     3
100
AcDbLine
 10
580.3974596215601
 20
522.5
 30
0.0
 11
577.0
 21
522.5
 31
0.0
  0
LINE
  5
385
330
1F
100
AcDbEntity
  8
LAY-1
  6
CONTINUOUS
 62
     3
100
AcDbLine
 10
580.3974596215598
 20
457.5
 30
0.0
 11
577.0
 21
457.5
 31
0.0
  0
LINE
  5
386
330
1F
100
AcDbEntity
  8
LAY-1
  6
CONTINUOUS
 62
     3
100
AcDbLine
 10
577.0
 20
442.4999999999999
 30
0.0
 11
587.6274606680599
 21
442.5
 31
0.0
  0
LINE
  5
387
330
1F
100
AcDbEntity
  8
LAY-1
  6
CONTINUOUS
 62
     3
100
AcDbLine
 10
1309.6
 20
700.0
 30
0.0
 11
1309.6
 21
675.0
 31
0.0
  0
LINE
  5
388
330
1F
100
AcDbEntity
  8
LAY-1
  6
CONTINUOUS
 62
     3
100
AcDbLine
 10
1258.6
 20
721.499999999996
 30
0.0
 11
1258.6
 21
727.4999999999982
 31
0.0
  0
LINE
  5
389
330
1F
100
AcDbEntity
  8
LAY-1
  6
CONTINUOUS
 62
     3
100
AcDbLine
 10
1252.1
 20
759.7999999999932
 30
0.0
 11
1252.1
 21
787.7999999999922
 31
0.0
  0
LINE
  5
38A
330
1F
100
AcDbEntity
  8
LAY-1
  6
CONTINUOUS
 62
     3
100
AcDbLine
 10
1255.85
 20
787.7999999999922
 30
0.0
 11
1255.85
 21
793.75758622134
 31
0.0
  0
LINE
  5
38B
330
1F
100
AcDbEntity
  8
LAY-1
  6
CONTINUOUS
 62
     3
100
AcDbLine
 10
1255.85
 20
793.7575862213441
 30
0.0
 11
1260.600000000002
 21
796.4999999999961
 31
0.0
  0
LINE
  5
38C
330
1F
100
AcDbEntity
  8
LAY-1
  6
CONTINUOUS
 62
     3
100
AcDbLine
 10
1310.6
 20
721.499999999996
 30
0.0
 11
1310.6
 21
727.4999999999982
 31
0.0
  0
LINE
  5
38D
330
1F
100
AcDbEntity
  8
LAY-1
  6
CONTINUOUS
 62
     3
100
AcDbLine
 10
1317.1
 20
759.7999999999932
 30
0.0
 11
1317.1
 21
787.7999999999922
 31
0.0
  0
LINE
  5
38E
330
1F
100
AcDbEntity
  8
LAY-1
  6
CONTINUOUS
 62
     3
100
AcDbLine
 10
1313.35
 20
787.7999999999922
 30
0.0
 11
1313.35
 21
793.75758622134
 31
0.0
  0
LINE
  5
38F
330
1F
100
AcDbEntity
  8
LAY-1
  6
CONTINUOUS
 62
     3
100
AcDbLine
 10
1313.35
 20
793.7575862213441
 30
0.0
 11
1308.599999999998
 21
796.4999999999961
 31
0.0
  0
LINE
  5
390
330
1F
100
AcDbEntity
  8
LAY-1
  6
CONTINUOUS
 62
     3
100
AcDbLine
 10
1257.1
 20
756.4999999999999
 30
0.0
 11
1257.1
 21
759.5000000000001
 31
0.0
  0
LINE
  5
391
330
1F
100
AcDbEntity
  8
LAY-1
  6
CONTINUOUS
 62
     3
100
AcDbLine
 10
1312.1
 20
756.4999999999999
 30
0.0
 11
1312.1
 21
759.5000000000001
 31
0.0
  0
ARC
  5
392
330
1F
100
AcDbEntity
  8
LAY-1
  6
CONTINUOUS
 62
     3
100
AcDbCircle
 10
1212.0
 20
282.0000000000002
 30
0.0
 40
2.0
100
AcDbArc
 50
180.0
 51
270.0
  0
LINE
  5
393
330
1F
100
AcDbEntity
  8
LAY-1
  6
CONTINUOUS
 62
     3
100
AcDbLine
 10
1420.0
 20
292.0000000000001
 30
0.0
 11
1420.0
 21
282.0000000000002
 31
0.0
  0
LINE
  5
394
330
1F
100
AcDbEntity
  8
LAY-1
  6
CONTINUOUS
 62
     3
100
AcDbLine
 10
1418.0
 20
280.0000000000002
 30
0.0
 11
1212.0
 21
280.0000000000002
 31
0.0
  0
CIRCLE
  5
395
330
1F
100
AcDbEntity
  8
LAY-1
  6
CONTINUOUS
 62
     3
100
AcDbCircle
 10
1284.6
 20
773.79999999999
 30
0.0
 40
9.5
  0
LINE
  5
396
330
1F
100
AcDbEntity
  8
LAY-1
  6
CONTINUOUS
 62
     3
100
AcDbLine
 10
1260.6
 20
796.4999999999956
 30
0.0
 11
1284.6
 21
796.4999999999956
 31
0.0
  0
LINE
  5
397
330
1F
100
AcDbEntity
  8
LAY-1
  6
CONTINUOUS
 62
     3
100
AcDbLine
 10
1308.6
 20
796.4999999999956
 30
0.0
 11
1284.6
 21
796.4999999999956
 31
0.0
  0
LINE
  5
398
330
1F
100
AcDbEntity
  8
LAY-1
  6
CONTINUOUS
 62
     3
100
AcDbLine
 10
1252.1
 20
787.7999999999922
 30
0.0
 11
1284.6
 21
787.7999999999922
 31
0.0
  0
LINE
  5
399
330
1F
100
AcDbEntity
  8
LAY-1
  6
CONTINUOUS
 62
     3
100
AcDbLine
 10
1317.1
 20
787.7999999999922
 30
0.0
 11
1284.6
 21
787.7999999999922
 31
0.0
  0
LINE
  5
39A
330
1F
100
AcDbEntity
  8
LAY-1
  6
CONTINUOUS
 62
     3
100
AcDbLine
 10
1252.1
 20
759.7999999999932
 30
0.0
 11
1284.6
 21
759.7999999999932
 31
0.0
  0
LINE
  5
39B
330
1F
100
AcDbEntity
  8
LAY-1
  6
CONTINUOUS
 62
     3
100
AcDbLine
 10
1317.1
 20
759.7999999999932
 30
0.0
 11
1284.6
 21
759.7999999999932
 31
0.0
  0
ARC
  5
39C
330
1F
100
AcDbEntity
  8
LAY-1
  6
CONTINUOUS
 62
     3
100
AcDbCircle
 10
1312.105916818389
 20
766.2144990896664
 30
0.0
 40
30.48775193626576
100
AcDbArc
 50
96.60329462802913
 51
115.3893740513112
  0
LINE
  5
39D
330
1F
100
AcDbEntity
  8
LAY-1
  6
CONTINUOUS
 62
     3
100
AcDbLine
 10
1299.0337567297
 20
793.75758622134
 30
0.0
 11
1299.0337567297
 21
787.79999999999
 31
0.0
  0
LINE
  5
39E
330
1F
100
AcDbEntity
  8
LAY-1
  6
CONTINUOUS
 62
     3
100
AcDbLine
 10
1270.1662432703
 20
793.75758622134
 30
0.0
 11
1270.1662432703
 21
787.79999999999
 31
0.0
  0
ARC
  5
39F
330
1F
100
AcDbEntity
  8
LAY-1
  6
CONTINUOUS
 62
     3
100
AcDbCircle
 10
1284.6
 20
757.1452227695899
 30
0.0
 40
39.3547772304102
100
AcDbArc
 50
68.48406582308967
 51
111.5159341769104
  0
ARC
  5
3A0
330
1F
100
AcDbEntity
  8
LAY-1
  6
CONTINUOUS
 62
     3
100
AcDbCircle
 10
1257.094083181611
 20
766.2144990896664
 30
0.0
 40
30.48775193626576
100
AcDbArc
 50
64.61062594868883
 51
83.39670537197087
  0
LINE
  5
3A1
330
1F
100
AcDbEntity
  8
LAY-1
  6
CONTINUOUS
 62
     3
100
AcDbLine
 10
1284.6
 20
759.5000000000001
 30
0.0
 11
1257.1
 21
759.5000000000001
 31
0.0
  0
LINE
  5
3A2
330
1F
100
AcDbEntity
  8
LAY-1
  6
CONTINUOUS
 62
     3
100
AcDbLine
 10
1284.6
 20
759.5000000000001
 30
0.0
 11
1312.1
 21
759.5000000000001
 31
0.0
  0
LINE
  5
3A3
330
1F
100
AcDbEntity
  8
LAY-1
  6
CONTINUOUS
 62
     3
100
AcDbLine
 10
1268.6
 20
647.4999999999995
 30
0.0
 11
1268.6
 21
712.500000000002
 31
0.0
  0
LINE
  5
3A4
330
1F
100
AcDbEntity
  8
LAY-1
  6
CONTINUOUS
 62
     3
100
AcDbLine
 10
1267.9909090909
 20
721.499999999996
 30
0.0
 11
1258.6
 21
721.499999999996
 31
0.0
  0
LINE
  5
3A5
330
1F
100
AcDbEntity
  8
LAY-1
  6
CONTINUOUS
 62
     3
100
AcDbLine
 10
1301.2090909091
 20
721.499999999996
 30
0.0
 11
1310.6
 21
721.499999999996
 31
0.0
  0
LINE
  5
3A6
330
1F
100
AcDbEntity
  8
LAY-1
  6
CONTINUOUS
 62
     3
100
AcDbLine
 10
1276.1
 20
702.407425
 30
0.0
 11
1276.1
 21
692.592483
 31
0.0
  0
LINE
  5
3A7
330
1F
100
AcDbEntity
  8
LAY-1
  6
CONTINUOUS
 62
     3
100
AcDbLine
 10
1293.1
 20
692.592575
 30
0.0
 11
1293.1
 21
702.407425
 31
0.0
  0
LINE
  5
3A8
330
1F
100
AcDbEntity
  8
LAY-1
  6
CONTINUOUS
 62
     3
100
AcDbLine
 10
1284.599939
 20
707.315063
 30
0.0
 11
1293.1
 21
702.407425
 31
0.0
  0
LINE
  5
3A9
330
1F
100
AcDbEntity
  8
LAY-1
  6
CONTINUOUS
 62
     3
100
AcDbLine
 10
1284.599939
 20
707.315063
 30
0.0
 11
1276.099939
 21
702.407425
 31
0.0
  0
LINE
  5
3AA
330
1F
100
AcDbEntity
  8
LAY-1
  6
CONTINUOUS
 62
     3
100
AcDbLine
 10
1276.099939
 20
692.592483
 30
0.0
 11
1284.6
 21
687.684952
 31
0.0
  0
LINE
  5
3AB
330
1F
100
AcDbEntity
  8
LAY-1
  6
CONTINUOUS
 62
     3
100
AcDbLine
 10
1284.6
 20
687.685058
 30
0.0
 11
1293.1
 21
692.592575
 31
0.0
  0
CIRCLE
  5
3AC
330
1F
100
AcDbEntity
  8
LAY-1
  6
CONTINUOUS
 62
     3
100
AcDbCircle
 10
1284.6
 20
697.5
 30
0.0
 40
8.25
  0
LINE
  5
3AD
330
1F
100
AcDbEntity
  8
LAY-1
  6
CONTINUOUS
 62
     3
100
AcDbLine
 10
1284.599939
 20
672.315063
 30
0.0
 11
1293.1
 21
667.407425
 31
0.0
  0
LINE
  5
3AE
330
1F
100
AcDbEntity
  8
LAY-1
  6
CONTINUOUS
 62
     3
100
AcDbLine
 10
1284.599939
 20
672.315063
 30
0.0
 11
1276.099939
 21
667.407425
 31
0.0
  0
CIRCLE
  5
3AF
330
1F
100
AcDbEntity
  8
LAY-1
  6
CONTINUOUS
 62
     3
100
AcDbCircle
 10
1284.6
 20
662.5
 30
0.0
 40
8.25
  0
LINE
  5
3B0
330
1F
100
AcDbEntity
  8
LAY-1
  6
CONTINUOUS
 62
     3
100
AcDbLine
 10
1300.851817580965
 20
741.1500330469266
 30
0.0
 11
1301.372727272727
 21
712.500000000002
 31
0.0
  0
LINE
  5
3B1
330
1F
100
AcDbEntity
  8
LAY-1
  6
CONTINUOUS
 62
     3
100
AcDbLine
 10
1309.6
 20
700.0
 30
0.0
 11
1301.6
 21
700.0
 31
0.0
  0
LINE
  5
3B2
330
1F
100
AcDbEntity
  8
LAY-1
  6
CONTINUOUS
 62
     3
100
AcDbLine
 10
1309.6
 20
675.0
 30
0.0
 11
1301.6
 21
675.0
 31
0.0
  0
LINE
  5
3B3
330
1F
100
AcDbEntity
  8
LAY-1
  6
CONTINUOUS
 62
     3
100
AcDbLine
 10
1230.6
 20
672.5000000000013
 30
0.0
 11
1257.6
 21
672.5000000000013
 31
0.0
  0
LINE
  5
3B4
330
1F
100
AcDbEntity
  8
LAY-1
  6
CONTINUOUS
 62
     3
100
AcDbLine
 10
1257.6
 20
672.5000000000013
 30
0.0
 11
1257.6
 21
712.500000000002
 31
0.0
  0
LINE
  5
3B5
330
1F
100
AcDbEntity
  8
LAY-1
  6
CONTINUOUS
 62
     3
100
AcDbLine
 10
1301.6
 20
712.500000000002
 30
0.0
 11
1257.6
 21
712.500000000002
 31
0.0
  0
LINE
  5
3B6
330
1F
100
AcDbEntity
  8
LAY-1
  6
CONTINUOUS
 62
     3
100
AcDbLine
 10
1268.348182419035
 20
741.1500330469266
 30
0.0
 11
1267.827272727273
 21
712.500000000002
 31
0.0
  0
LINE
  5
3B7
330
1F
100
AcDbEntity
  8
LAY-1
  6
CONTINUOUS
 62
     3
100
AcDbLine
 10
1150.94
 20
679.5
 30
0.0
 11
1150.94
 21
695.5
 31
0.0
  0
LINE
  5
3B8
330
1F
100
AcDbEntity
  8
LAY-1
  6
CONTINUOUS
 62
     3
100
AcDbLine
 10
1150.94
 20
695.5
 30
0.0
 11
1257.6
 21
695.5000000000001
 31
0.0
  0
LINE
  5
3B9
330
1F
100
AcDbEntity
  8
LAY-1
  6
CONTINUOUS
 62
     3
100
AcDbLine
 10
1150.94
 20
679.5
 30
0.0
 11
1257.6
 21
679.5
 31
0.0
  0
LINE
  5
3BA
330
1F
100
AcDbEntity
  8
LAY-1
  6
CONTINUOUS
 62
     3
100
AcDbLine
 10
1284.6
 20
756.4999999999999
 30
0.0
 11
1254.1
 21
756.4999999999999
 31
0.0
  0
ARC
  5
3BB
330
1F
100
AcDbEntity
  8
LAY-1
  6
CONTINUOUS
 62
     3
100
AcDbCircle
 10
1254.1
 20
754.4999999999999
 30
0.0
 40
2.0
100
AcDbArc
 50
90.00000000000001
 51
180.0
  0
LINE
  5
3BC
330
1F
100
AcDbEntity
  8
LAY-1
  6
CONTINUOUS
 62
     3
100
AcDbLine
 10
1252.1
 20
729.4999999999982
 30
0.0
 11
1252.1
 21
754.4999999999999
 31
0.0
  0
LINE
  5
3BD
330
1F
100
AcDbEntity
  8
LAY-1
  6
CONTINUOUS
 62
     3
100
AcDbLine
 10
1254.1
 20
727.4999999999982
 30
0.0
 11
1268.1
 21
727.4999999999982
 31
0.0
  0
ARC
  5
3BE
330
1F
100
AcDbEntity
  8
LAY-1
  6
CONTINUOUS
 62
     3
100
AcDbCircle
 10
1254.1
 20
729.4999999999982
 30
0.0
 40
2.0
100
AcDbArc
 50
180.0
 51
270.0
  0
ARC
  5
3BF
330
1F
100
AcDbEntity
  8
LAY-1
  6
CONTINUOUS
 62
     3
100
AcDbCircle
 10
1315.1
 20
754.4999999999999
 30
0.0
 40
2.0
100
AcDbArc
 50
0.0
 51
90.00000000000001
  0
LINE
  5
3C0
330
1F
100
AcDbEntity
  8
LAY-1
  6
CONTINUOUS
 62
     3
100
AcDbLine
 10
1317.1
 20
729.4999999999982
 30
0.0
 11
1317.1
 21
754.4999999999999
 31
0.0
  0
ARC
  5
3C1
330
1F
100
AcDbEntity
  8
LAY-1
  6
CONTINUOUS
 62
     3
100
AcDbCircle
 10
1315.1
 20
729.4999999999982
 30
0.0
 40
2.0
100
AcDbArc
 50
270.0
 51
0.0
  0
LINE
  5
3C2
330
1F
100
AcDbEntity
  8
LAY-1
  6
CONTINUOUS
 62
     3
100
AcDbLine
 10
1284.6
 20
756.4999999999999
 30
0.0
 11
1315.1
 21
756.4999999999999
 31
0.0
  0
LINE
  5
3C3
330
1F
100
AcDbEntity
  8
LAY-1
  6
CONTINUOUS
 62
     3
100
AcDbLine
 10
1301.1
 20
727.4999999999982
 30
0.0
 11
1316.3
 21
727.4999999999982
 31
0.0
  0
LINE
  5
3C4
330
1F
100
AcDbEntity
  8
LAY-1
  6
EXLTYPE2
 62
     1
100
AcDbLine
 10
1295.6
 20
697.5000000000024
 30
0.0
 11
1272.6
 21
697.5000000000024
 31
0.0
  0
LINE
  5
3C5
330
1F
100
AcDbEntity
  8
LAY-1
  6
CONTINUOUS
 62
     3
100
AcDbLine
 10
1214.6
 20
647.4999999999995
 30
0.0
 11
1214.6
 21
679.5
 31
0.0
  0
LINE
  5
3C6
330
1F
100
AcDbEntity
  8
LAY-1
  6
CONTINUOUS
 62
     3
100
AcDbLine
 10
1230.6
 20
672.5
 30
0.0
 11
1230.6
 21
679.5
 31
0.0
  0
CIRCLE
  5
3C7
330
1F
100
AcDbEntity
  8
LAY-1
  6
CONTINUOUS
 62
     3
100
AcDbCircle
 10
1315.0
 20
302.5
 30
0.0
 40
22.5
  0
CIRCLE
  5
3C8
330
1F
100
AcDbEntity
  8
LAY-1
  6
CONTINUOUS
 62
     3
100
AcDbCircle
 10
1315.0
 20
302.5
 30
0.0
 40
13.22049999999999
  0
CIRCLE
  5
3C9
330
1F
100
AcDbEntity
  8
LAY-1
  6
CONTINUOUS
 62
     1
100
AcDbCircle
 10
1315.0
 20
302.5
 30
0.0
 40
12.0
  0
LINE
  5
3CA
330
1F
100
AcDbEntity
  8
LAY-1
  6
CONTINUOUS
 62
     3
100
AcDbLine
 10
1315.0
 20
314.5
 30
0.0
 11
1303.0
 21
302.5
 31
0.0
  0
LINE
  5
3CB
330
1F
100
AcDbEntity
  8
LAY-1
  6
CONTINUOUS
 62
     3
100
AcDbLine
 10
1303.0
 20
302.5
 30
0.0
 11
1315.0
 21
290.5
 31
0.0
  0
LINE
  5
3CC
330
1F
100
AcDbEntity
  8
LAY-1
  6
CONTINUOUS
 62
     3
100
AcDbLine
 10
1315.0
 20
290.5
 30
0.0
 11
1327.0
 21
302.5
 31
0.0
  0
LINE
  5
3CD
330
1F
100
AcDbEntity
  8
LAY-1
  6
CONTINUOUS
 62
     3
100
AcDbLine
 10
1327.0
 20
302.5
 30
0.0
 11
1315.0
 21
314.5
 31
0.0
  0
ARC
  5
3CE
330
1F
100
AcDbEntity
  8
LAY-1
  6
CONTINUOUS
 62
     3
100
AcDbCircle
 10
1244.5
 20
541.0
 30
0.0
 40
2.0
100
AcDbArc
 50
180.0
 51
270.0
  0
LINE
  5
3CF
330
1F
100
AcDbEntity
  8
LAY-1
  6
CONTINUOUS
 62
     3
100
AcDbLine
 10
1240.0
 20
539.0
 30
0.0
 11
1240.0
 21
525.0
 31
0.0
  0
ARC
  5
3D0
330
1F
100
AcDbEntity
  8
LAY-1
  6
CONTINUOUS
 62
     3
100
AcDbCircle
 10
1238.0
 20
525.0
 30
0.0
 40
2.0
100
AcDbArc
 50
270.0
 51
0.0
  0
ARC
  5
3D1
330
1F
100
AcDbEntity
  8
LAY-1
  6
CONTINUOUS
 62
     3
100
AcDbCircle
 10
1227.0
 20
541.0
 30
0.0
 40
2.0
100
AcDbArc
 50
180.0
 51
270.0
  0
LINE
  5
3D2
330
1F
100
AcDbEntity
  8
LAY-1
  6
CONTINUOUS
 62
     3
100
AcDbLine
 10
1238.0
 20
523.0
 30
0.0
 11
1211.0
 21
523.0
 31
0.0
  0
ARC
  5
3D3
330
1F
100
AcDbEntity
  8
LAY-1
  6
CONTINUOUS
 62
     3
100
AcDbCircle
 10
1211.0
 20
525.0
 30
0.0
 40
2.0
100
AcDbArc
 50
180.0
 51
270.0
  0
LINE
  5
3D4
330
1F
100
AcDbEntity
  8
LAY-1
  6
CONTINUOUS
 62
     3
100
AcDbLine
 10
1225.0
 20
541.0
 30
0.0
 11
1225.0
 21
556.306920480842
 31
0.0
  0
ARC
  5
3D5
330
1F
100
AcDbEntity
  8
LAY-1
  6
CONTINUOUS
 62
     3
100
AcDbCircle
 10
1265.0
 20
556.306920480842
 30
0.0
 40
40.0
100
AcDbArc
 50
104.9999999999999
 51
180.0
  0
ARC
  5
3D6
330
1F
100
AcDbEntity
  8
LAY-1
  6
CONTINUOUS
 62
     3
100
AcDbCircle
 10
1265.0
 20
556.3069204808422
 30
0.0
 40
56.0
100
AcDbArc
 50
105.0
 51
180.0
  0
ARC
  5
3D7
330
1F
100
AcDbEntity
  8
LAY-1
  6
CONTINUOUS
 62
     3
100
AcDbCircle
 10
1289.5
 20
632.0
 30
0.0
 40
2.0
100
AcDbArc
 50
90.00000000000001
 51
180.0
  0
ARC
  5
3D8
330
1F
100
AcDbEntity
  8
LAY-1
  6
CONTINUOUS
 62
     3
100
AcDbCircle
 10
1289.5
 20
591.0000000000002
 30
0.0
 40
2.0
100
AcDbArc
 50
180.0
 51
270.0
  0
ARC
  5
3D9
330
1F
100
AcDbEntity
  8
LAY-1
  6
CONTINUOUS
 62
     3
100
AcDbCircle
 10
1265.0
 20
568.3069204808422
 30
0.0
 40
56.0
100
AcDbArc
 50
105.0
 51
180.0
  0
LINE
  5
3DA
330
1F
100
AcDbEntity
  8
LAY-1
  6
CONTINUOUS
 62
     3
100
AcDbLine
 10
1209.0
 20
525.0
 30
0.0
 11
1209.0
 21
568.3069204808401
 31
0.0
  0
LINE
  5
3DB
330
1F
100
AcDbEntity
  8
LAY-1
  6
CONTINUOUS
 62
     3
100
AcDbLine
 10
1285.276457135308
 20
619.7154468985768
 30
0.0
 11
1250.506133474259
 21
610.39876675303
 31
0.0
  0
ARC
  5
3DC
330
1F
100
AcDbEntity
  8
LAY-1
  6
CONTINUOUS
 62
     3
100
AcDbCircle
 10
1284.5
 20
622.613224377444
 30
0.0
 40
3.0
100
AcDbArc
 50
284.9999999999993
 51
0.0
  0
LINE
  5
3DD
330
1F
100
AcDbEntity
  8
LAY-1
  6
CONTINUOUS
 62
     3
100
AcDbLine
 10
1283.723542864693
 20
602.7349258872891
 30
0.0
 11
1254.6472381959
 21
594.9439535324047
 31
0.0
  0
ARC
  5
3DE
330
1F
100
AcDbEntity
  8
LAY-1
  6
CONTINUOUS
 62
     3
100
AcDbCircle
 10
1284.5
 20
599.8371484084219
 30
0.0
 40
3.0
100
AcDbArc
 50
0.0
 51
104.9999999999989
  0
LINE
  5
3DF
330
1F
100
AcDbEntity
  8
LAY-1
  6
CONTINUOUS
 62
     3
100
AcDbLine
 10
1287.5
 20
591.0
 30
0.0
 11
1287.5
 21
632.3112434135071
 31
0.0
  0
LINE
  5
3E0
330
1F
100
AcDbEntity
  8
LAY-1
  6
CONTINUOUS
 62
     3
100
AcDbLine
 10
1287.525453069
 20
632.3180635427905
 30
0.0
 11
1250.506133474259
 21
622.39876675303
 31
0.0
  0
LINE
  5
3E1
330
1F
100
AcDbEntity
  8
LAY-1
  6
CONTINUOUS
 62
     3
100
AcDbLine
 10
1294.215301
 20
660.0
 30
0.0
 11
1335.784683
 21
660.0
 31
0.0
  0
ARC
  5
3E2
330
1F
100
AcDbEntity
  8
LAY-1
  6
CONTINUOUS
 62
     3
100
AcDbCircle
 10
1302.198608
 20
659.1999969999999
 30
0.0
 40
0.8
100
AcDbArc
 50
359.9999988761253
 51
89.99998015215814
  0
LINE
  5
3E3
330
1F
100
AcDbEntity
  8
LAY-1
  6
CONTINUOUS
 62
     3
100
AcDbLine
 10
1297.998626
 20
675.000107
 30
0.0
 11
1331.998626
 21
675.000107
 31
0.0
  0
LINE
  5
3E4
330
1F
100
AcDbEntity
  8
LAY-1
  6
CONTINUOUS
 62
     3
100
AcDbLine
 10
1297.998626
 20
675.000107
 30
0.0
 11
1294.213867
 21
672.814972
 31
0.0
  0
ARC
  5
3E5
330
1F
100
AcDbEntity
  8
LAY-1
  6
CONTINUOUS
 62
     3
100
AcDbCircle
 10
1315.00148
 20
649.1802519999999
 30
0.0
 40
25.819658
100
AcDbArc
 50
66.27293841909714
 51
113.7410020554183
  0
ARC
  5
3E6
330
1F
100
AcDbEntity
  8
LAY-1
  6
CONTINUOUS
 62
     3
100
AcDbCircle
 10
1297.842773
 20
663.443039
 30
0.0
 40
11.557911
100
AcDbArc
 50
54.18501863210384
 51
89.22740386120266
  0
LINE
  5
3E7
330
1F
100
AcDbEntity
  8
LAY-1
  6
CONTINUOUS
 62
     3
100
AcDbLine
 10
1331.998626
 20
675.000107
 30
0.0
 11
1335.783386
 21
672.8149719999999
 31
0.0
  0
ARC
  5
3E8
330
1F
100
AcDbEntity
  8
LAY-1
  6
CONTINUOUS
 62
     3
100
AcDbCircle
 10
1332.15448
 20
663.443039
 30
0.0
 40
11.557911
100
AcDbArc
 50
90.77259613879738
 51
125.8149240721164
  0
LINE
  5
3E9
330
1F
100
AcDbEntity
  8
LAY-1
  6
CONTINUOUS
 62
     3
100
AcDbLine
 10
1294.215301
 20
660.0
 30
0.0
 11
1294.213852
 21
672.814972
 31
0.0
  0
LINE
  5
3EA
330
1F
100
AcDbEntity
  8
LAY-1
  6
CONTINUOUS
 62
     3
100
AcDbLine
 10
1304.607818
 20
660.000092
 30
0.0
 11
1304.606384
 21
672.815857
 31
0.0
  0
LINE
  5
3EB
330
1F
100
AcDbEntity
  8
LAY-1
  6
CONTINUOUS
 62
     3
100
AcDbLine
 10
1325.392303
 20
660.000092
 30
0.0
 11
1325.390869
 21
672.8176269999999
 31
0.0
  0
LINE
  5
3EC
330
1F
100
AcDbEntity
  8
LAY-1
  6
CONTINUOUS
 62
     3
100
AcDbLine
 10
1335.784683
 20
660.0
 30
0.0
 11
1335.783249
 21
672.8185119999999
 31
0.0
  0
LINE
  5
3ED
330
1F
100
AcDbEntity
  8
LAY-1
  6
CONTINUOUS
 62
     3
100
AcDbLine
 10
1326.998642
 20
654.3
 30
0.0
 11
1302.998611
 21
654.299985
 31
0.0
  0
LINE
  5
3EE
330
1F
100
AcDbEntity
  8
LAY-1
  6
CONTINUOUS
 62
     1
100
AcDbLine
 10
1302.998611
 20
658.799985
 30
0.0
 11
1304.622604
 21
654.299985
 31
0.0
  0
LINE
  5
3EF
330
1F
100
AcDbEntity
  8
LAY-1
  6
CONTINUOUS
 62
     1
100
AcDbLine
 10
1326.998642
 20
658.799985
 30
0.0
 11
1325.374649
 21
654.299985
 31
0.0
  0
ARC
  5
3F0
330
1F
100
AcDbEntity
  8
LAY-1
  6
CONTINUOUS
 62
     3
100
AcDbCircle
 10
1289.5
 20
631.9999999999983
 30
0.0
 40
2.0
100
AcDbArc
 50
90.00000000000001
 51
180.0
  0
LINE
  5
3F1
330
1F
100
AcDbEntity
  8
LAY-1
  6
CONTINUOUS
 62
     3
100
AcDbLine
 10
1289.5
 20
633.9999999999983
 30
0.0
 11
1315.0
 21
633.9999999999983
 31
0.0
  0
LINE
  5
3F2
330
1F
100
AcDbEntity
  8
LAY-1
  6
CONTINUOUS
 62
     3
100
AcDbLine
 10
1340.5
 20
633.9999999999983
 30
0.0
 11
1315.0
 21
633.9999999999983
 31
0.0
  0
LINE
  5
3F3
330
1F
100
AcDbEntity
  8
LAY-1
  6
CONTINUOUS
 62
     1
100
AcDbLine
 10
1325.377396
 20
654.29998601499
 30
0.0
 11
1325.377396
 21
633.9999999999983
 31
0.0
  0
LINE
  5
3F4
330
1F
100
AcDbEntity
  8
LAY-1
  6
CONTINUOUS
 62
     3
100
AcDbLine
 10
1327.001389
 20
633.9999999999983
 30
0.0
 11
1327.001389
 21
659.999997
 31
0.0
  0
LINE
  5
3F5
330
1F
100
AcDbEntity
  8
LAY-1
  6
CONTINUOUS
 62
     3
100
AcDbLine
 10
1326.998642
 20
633.9999999999983
 30
0.0
 11
1326.998642
 21
659.9999999999999
 31
0.0
  0
LINE
  5
3F6
330
1F
100
AcDbEntity
  8
LAY-1
  6
CONTINUOUS
 62
     3
100
AcDbLine
 10
1276.1
 20
667.407425
 30
0.0
 11
1276.1
 21
657.592483
 31
0.0
  0
LINE
  5
3F7
330
1F
100
AcDbEntity
  8
LAY-1
  6
CONTINUOUS
 62
     3
100
AcDbLine
 10
1293.1
 20
657.592575
 30
0.0
 11
1293.1
 21
667.407425
 31
0.0
  0
LINE
  5
3F8
330
1F
100
AcDbEntity
  8
LAY-1
  6
CONTINUOUS
 62
     3
100
AcDbLine
 10
1276.099939
 20
657.592483
 30
0.0
 11
1284.6
 21
652.684952
 31
0.0
  0
LINE
  5
3F9
330
1F
100
AcDbEntity
  8
LAY-1
  6
CONTINUOUS
 62
     3
100
AcDbLine
 10
1284.6
 20
652.685058
 30
0.0
 11
1293.1
 21
657.592575
 31
0.0
  0
LINE
  5
3FA
330
1F
100
AcDbEntity
  8
LAY-1
  6
CONTINUOUS
 62
     3
100
AcDbLine
 10
1301.6
 20
647.4999999999995
 30
0.0
 11
1214.6
 21
647.4999999999995
 31
0.0
  0
LINE
  5
3FB
330
1F
100
AcDbEntity
  8
LAY-1
  6
EXLTYPE2
 62
     1
100
AcDbLine
 10
1296.6
 20
662.5000000000034
 30
0.0
 11
1271.6
 21
662.5000000000034
 31
0.0
  0
LINE
  5
3FC
330
1F
100
AcDbEntity
  8
LAY-1
  6
CONTINUOUS
 62
     3
100
AcDbLine
 10
1300.6
 20
647.4999999999995
 30
0.0
 11
1300.6
 21
660.0
 31
0.0
  0
LINE
  5
3FD
330
1F
100
AcDbEntity
  8
LAY-1
  6
CONTINUOUS
 62
     3
100
AcDbLine
 10
1301.6
 20
647.5
 30
0.0
 11
1301.6
 21
660.0
 31
0.0
  0
LINE
  5
3FE
330
1F
100
AcDbEntity
  8
LAY-1
  6
CONTINUOUS
 62
     3
100
AcDbLine
 10
1300.6
 20
675.000107
 30
0.0
 11
1300.6
 21
712.500000000002
 31
0.0
  0
LINE
  5
3FF
330
1F
100
AcDbEntity
  8
LAY-1
  6
CONTINUOUS
 62
     3
100
AcDbLine
 10
1301.6
 20
675.0
 30
0.0
 11
1301.6
 21
712.500000000002
 31
0.0
  0
LINE
  5
400
330
1F
100
AcDbEntity
  8
LAY-1
  6
CONTINUOUS
 62
     3
100
AcDbLine
 10
1301.6
 20
700.0000000000039
 30
0.0
 11
1302.054545454545
 21
675.0
 31
0.0
  0
ARC
  5
401
330
1F
100
AcDbEntity
  8
LAY-1
  6
CONTINUOUS
 62
     3
100
AcDbCircle
 10
1385.5
 20
541.0
 30
0.0
 40
2.0
100
AcDbArc
 50
270.0
 51
0.0
  0
ARC
  5
402
330
1F
100
AcDbEntity
  8
LAY-1
  6
CONTINUOUS
 62
     3
100
AcDbCircle
 10
1403.0
 20
541.0000000000001
 30
0.0
 40
2.0
100
AcDbArc
 50
270.0
 51
0.0
  0
ARC
  5
403
330
1F
100
AcDbEntity
  8
LAY-1
  6
CONTINUOUS
 62
     3
100
AcDbCircle
 10
1419.0
 20
525.0
 30
0.0
 40
2.0
100
AcDbArc
 50
270.0
 51
0.0
  0
LINE
  5
404
330
1F
100
AcDbEntity
  8
LAY-1
  6
CONTINUOUS
 62
     3
100
AcDbLine
 10
1405.0
 20
541.0000000000001
 30
0.0
 11
1405.0
 21
556.306920480842
 31
0.0
  0
ARC
  5
405
330
1F
100
AcDbEntity
  8
LAY-1
  6
CONTINUOUS
 62
     3
100
AcDbCircle
 10
1365.0
 20
556.306920480842
 30
0.0
 40
40.0
100
AcDbArc
 50
0.0
 51
75.00000000000017
  0
ARC
  5
406
330
1F
100
AcDbEntity
  8
LAY-1
  6
CONTINUOUS
 62
     3
100
AcDbCircle
 10
1365.0
 20
556.3069204808422
 30
0.0
 40
56.0
100
AcDbArc
 50
0.0
 51
75.0
  0
ARC
  5
407
330
1F
100
AcDbEntity
  8
LAY-1
  6
CONTINUOUS
 62
     3
100
AcDbCircle
 10
1340.5
 20
632.0
 30
0.0
 40
2.0
100
AcDbArc
 50
0.0
 51
90.00000000000001
  0
ARC
  5
408
330
1F
100
AcDbEntity
  8
LAY-1
  6
CONTINUOUS
 62
     3
100
AcDbCircle
 10
1340.5
 20
591.0000000000003
 30
0.0
 40
2.0
100
AcDbArc
 50
270.0
 51
0.0
  0
ARC
  5
409
330
1F
100
AcDbEntity
  8
LAY-1
  6
CONTINUOUS
 62
     3
100
AcDbCircle
 10
1365.0
 20
568.3069204808422
 30
0.0
 40
56.0
100
AcDbArc
 50
0.0
 51
75.0
  0
LINE
  5
40A
330
1F
100
AcDbEntity
  8
LAY-1
  6
CONTINUOUS
 62
     3
100
AcDbLine
 10
1421.0
 20
525.0
 30
0.0
 11
1421.0
 21
568.3069204808401
 31
0.0
  0
LINE
  5
40B
330
1F
100
AcDbEntity
  8
LAY-1
  6
CONTINUOUS
 62
     3
100
AcDbLine
 10
1344.723542864693
 20
619.7154468985768
 30
0.0
 11
1379.493866525742
 21
610.39876675303
 31
0.0
  0
ARC
  5
40C
330
1F
100
AcDbEntity
  8
LAY-1
  6
CONTINUOUS
 62
     3
100
AcDbCircle
 10
1345.5
 20
622.613224377444
 30
0.0
 40
3.0
100
AcDbArc
 50
180.0
 51
255.0000000000008
  0
LINE
  5
40D
330
1F
100
AcDbEntity
  8
LAY-1
  6
CONTINUOUS
 62
     3
100
AcDbLine
 10
1346.276457135308
 20
602.7349258872891
 30
0.0
 11
1375.352761804101
 21
594.9439535324047
 31
0.0
  0
ARC
  5
40E
330
1F
100
AcDbEntity
  8
LAY-1
  6
CONTINUOUS
 62
     3
100
AcDbCircle
 10
1345.5
 20
599.837148408422
 30
0.0
 40
3.0
100
AcDbArc
 50
75.0000000000008
 51
180.0
  0
LINE
  5
40F
330
1F
100
AcDbEntity
  8
LAY-1
  6
CONTINUOUS
 62
     3
100
AcDbLine
 10
1342.5
 20
591.0
 30
0.0
 11
1342.5
 21
632.3112434135072
 31
0.0
  0
LINE
  5
410
330
1F
100
AcDbEntity
  8
LAY-1
  6
CONTINUOUS
 62
     3
100
AcDbLine
 10
1342.474546931001
 20
632.3180635427905
 30
0.0
 11
1379.493866525742
 21
622.39876675303
 31
0.0
  0
ARC
  5
411
330
1F
100
AcDbEntity
  8
LAY-1
  6
CONTINUOUS
 62
     3
100
AcDbCircle
 10
1340.500000000001
 20
631.9999999999983
 30
0.0
 40
2.0
100
AcDbArc
 50
0.0
 51
90.00000000000001
  0
LINE
  5
412
330
1F
100
AcDbEntity
  8
LAY-1
  6
CONTINUOUS
 62
     3
100
AcDbLine
 10
1340.5
 20
634.0
 30
0.0
 11
1289.5
 21
634.0
 31
0.0
  0
LINE
  5
413
330
1F
100
AcDbEntity
  8
LAY-1
  6
CONTINUOUS
 62
     3
100
AcDbLine
 10
1340.5
 20
589.0000000000002
 30
0.0
 11
1289.5
 21
589.0000000000002
 31
0.0
  0
LINE
  5
414
330
1F
100
AcDbEntity
  8
LAY-1
  6
CONTINUOUS
 62
     3
100
AcDbLine
 10
1242.5
 20
541.0
 30
0.0
 11
1242.5
 21
563.0000000000001
 31
0.0
  0
ARC
  5
415
330
1F
100
AcDbEntity
  8
LAY-1
  6
CONTINUOUS
 62
     3
100
AcDbCircle
 10
1244.5
 20
563.0000000000001
 30
0.0
 40
2.0
100
AcDbArc
 50
90.00000000000001
 51
180.0
  0
LINE
  5
416
330
1F
100
AcDbEntity
  8
LAY-1
  6
CONTINUOUS
 62
     3
100
AcDbLine
 10
1387.5
 20
541.0
 30
0.0
 11
1387.5
 21
563.0000000000001
 31
0.0
  0
ARC
  5
417
330
1F
100
AcDbEntity
  8
LAY-1
  6
CONTINUOUS
 62
     3
100
AcDbCircle
 10
1385.5
 20
563.0000000000001
 30
0.0
 40
2.0
100
AcDbArc
 50
0.0
 51
90.00000000000001
  0
ARC
  5
418
330
1F
100
AcDbEntity
  8
LAY-1
  6
CONTINUOUS
 62
     3
100
AcDbCircle
 10
1300.0
 20
569.0
 30
0.0
 40
1.0
100
AcDbArc
 50
90.00000000000001
 51
180.0
  0
LINE
  5
419
330
1F
100
AcDbEntity
  8
LAY-1
  6
CONTINUOUS
 62
     3
100
AcDbLine
 10
1299.0
 20
566.0000000000001
 30
0.0
 11
1299.0
 21
569.0
 31
0.0
  0
ARC
  5
41A
330
1F
100
AcDbEntity
  8
LAY-1
  6
CONTINUOUS
 62
     3
100
AcDbCircle
 10
1298.0
 20
566.0000000000001
 30
0.0
 40
1.0
100
AcDbArc
 50
270.0
 51
0.0
  0
LINE
  5
41B
330
1F
100
AcDbEntity
  8
LAY-1
  6
CONTINUOUS
 62
     3
100
AcDbLine
 10
1315.0
 20
565.0000000000001
 30
0.0
 11
1244.5
 21
565.0000000000001
 31
0.0
  0
ARC
  5
41C
330
1F
100
AcDbEntity
  8
LAY-1
  6
CONTINUOUS
 62
     3
100
AcDbCircle
 10
1385.5
 20
563.0000000000001
 30
0.0
 40
2.0
100
AcDbArc
 50
0.0
 51
90.00000000000001
  0
ARC
  5
41D
330
1F
100
AcDbEntity
  8
LAY-1
  6
CONTINUOUS
 62
     3
100
AcDbCircle
 10
1330.0
 20
569.0
 30
0.0
 40
1.0
100
AcDbArc
 50
0.0
 51
90.00000000000001
  0
LINE
  5
41E
330
1F
100
AcDbEntity
  8
LAY-1
  6
CONTINUOUS
 62
     3
100
AcDbLine
 10
1331.0
 20
566.0000000000001
 30
0.0
 11
1331.0
 21
569.0
 31
0.0
  0
ARC
  5
41F
330
1F
100
AcDbEntity
  8
LAY-1
  6
CONTINUOUS
 62
     3
100
AcDbCircle
 10
1332.0
 20
566.0000000000001
 30
0.0
 40
1.0
100
AcDbArc
 50
180.0
 51
270.0
  0
LINE
  5
420
330
1F
100
AcDbEntity
  8
LAY-1
  6
CONTINUOUS
 62
     3
100
AcDbLine
 10
1315.0
 20
565.0000000000001
 30
0.0
 11
1385.5
 21
565.0000000000001
 31
0.0
  0
LINE
  5
421
330
1F
100
AcDbEntity
  8
LAY-1
  6
CONTINUOUS
 62
     3
100
AcDbLine
 10
1330.0
 20
570.0
 30
0.0
 11
1300.0
 21
570.0
 31
0.0
  0
LINE
  5
422
330
1F
100
AcDbEntity
  8
LAY-1
  6
CONTINUOUS
 62
     3
100
AcDbLine
 10
1387.5
 20
555.0000000000001
 30
0.0
 11
1242.5
 21
555.0
 31
0.0
  0
LINE
  5
423
330
1F
100
AcDbEntity
  8
LAY-1
  6
CONTINUOUS
 62
     3
100
AcDbLine
 10
1242.5
 20
552.0
 30
0.0
 11
1227.5
 21
552.0
 31
0.0
  0
LINE
  5
424
330
1F
100
AcDbEntity
  8
LAY-1
  6
CONTINUOUS
 62
     3
100
AcDbLine
 10
1227.5
 20
552.0
 30
0.0
 11
1227.5
 21
539.0
 31
0.0
  0
LINE
  5
425
330
1F
100
AcDbEntity
  8
LAY-1
  6
CONTINUOUS
 62
     3
100
AcDbLine
 10
1402.5
 20
552.0000000000001
 30
0.0
 11
1402.5
 21
539.0
 31
0.0
  0
LINE
  5
426
330
1F
100
AcDbEntity
  8
LAY-1
  6
CONTINUOUS
 62
     3
100
AcDbLine
 10
1387.5
 20
552.0000000000001
 30
0.0
 11
1402.5
 21
552.0000000000001
 31
0.0
  0
LINE
  5
427
330
1F
100
AcDbEntity
  8
LAY-1
  6
CONTINUOUS
 62
     3
100
AcDbLine
 10
1302.998611
 20
570.0
 30
0.0
 11
1302.998611
 21
589.0000000000002
 31
0.0
  0
LINE
  5
428
330
1F
100
AcDbEntity
  8
LAY-1
  6
CONTINUOUS
 62
     3
100
AcDbLine
 10
1302.998611
 20
633.9999999999983
 30
0.0
 11
1302.998611
 21
659.999997
 31
0.0
  0
LINE
  5
429
330
1F
100
AcDbEntity
  8
LAY-1
  6
CONTINUOUS
 62
     1
100
AcDbLine
 10
1304.622604
 20
654.29998601499
 30
0.0
 11
1304.622604
 21
633.9999999999983
 31
0.0
  0
LINE
  5
42A
330
1F
100
AcDbEntity
  8
LAY-1
  6
CONTINUOUS
 62
     1
100
AcDbLine
 10
1304.622604
 20
589.0000000000002
 30
0.0
 11
1304.622604
 21
570.0
 31
0.0
  0
LINE
  5
42B
330
1F
100
AcDbEntity
  8
LAY-1
  6
CONTINUOUS
 62
     3
100
AcDbLine
 10
1327.001389000001
 20
570.0
 30
0.0
 11
1327.001389000001
 21
589.0000000000003
 31
0.0
  0
LINE
  5
42C
330
1F
100
AcDbEntity
  8
LAY-1
  6
CONTINUOUS
 62
     1
100
AcDbLine
 10
1325.377396000001
 20
589.0000000000003
 30
0.0
 11
1325.377396000001
 21
570.0
 31
0.0
  0
LINE
  5
42D
330
1F
100
AcDbEntity
  8
LAY-1
  6
CONTINUOUS
 62
     3
100
AcDbLine
 10
1247.0
 20
537.0
 30
0.0
 11
1247.0
 21
302.0
 31
0.0
  0
ARC
  5
42E
330
1F
100
AcDbEntity
  8
LAY-1
  6
CONTINUOUS
 62
     3
100
AcDbCircle
 10
1245.0
 20
537.0
 30
0.0
 40
2.0
100
AcDbArc
 50
0.0
 51
90.00000000000001
  0
LINE
  5
42F
330
1F
100
AcDbEntity
  8
LAY-1
  6
CONTINUOUS
 62
     3
100
AcDbLine
 10
1315.0
 20
539.0000000000001
 30
0.0
 11
1227.0
 21
539.0
 31
0.0
  0
LINE
  5
430
330
1F
100
AcDbEntity
  8
LAY-1
  6
CONTINUOUS
 62
     3
100
AcDbLine
 10
1315.0
 20
539.0000000000001
 30
0.0
 11
1403.0
 21
539.0000000000001
 31
0.0
  0
ARC
  5
431
330
1F
100
AcDbEntity
  8
LAY-1
  6
CONTINUOUS
 62
     3
100
AcDbCircle
 10
1385.0
 20
537.0000000000001
 30
0.0
 40
2.0
100
AcDbArc
 50
90.00000000000001
 51
180.0
  0
ARC
  5
432
330
1F
100
AcDbEntity
  8
LAY-1
  6
CONTINUOUS
 62
     3
100
AcDbCircle
 10
1267.500000000001
 20
300.5000000000002
 30
0.0
 40
20.5
100
AcDbArc
 50
175.8150838748826
 51
270.0
  0
ARC
  5
433
330
1F
100
AcDbEntity
  8
LAY-1
  6
CONTINUOUS
 62
     3
100
AcDbCircle
 10
1362.5
 20
300.5000000000002
 30
0.0
 40
20.5
100
AcDbArc
 50
270.0
 51
4.184916125117653
  0
LINE
  5
434
330
1F
100
AcDbEntity
  8
LAY-1
  6
CONTINUOUS
 62
     3
100
AcDbLine
 10
1212.0
 20
294.0000000000002
 30
0.0
 11
1247.0
 21
294.0000000000002
 31
0.0
  0
LINE
  5
435
330
1F
100
AcDbEntity
  8
LAY-1
  6
CONTINUOUS
 62
     3
100
AcDbLine
 10
1210.0
 20
292.0000000000002
 30
0.0
 11
1210.0
 21
282.0000000000002
 31
0.0
  0
ARC
  5
436
330
1F
100
AcDbEntity
  8
LAY-1
  6
CONTINUOUS
 62
     3
100
AcDbCircle
 10
1212.0
 20
292.0000000000002
 30
0.0
 40
2.0
100
AcDbArc
 50
90.00000000000001
 51
180.0
  0
LINE
  5
437
330
1F
100
AcDbEntity
  8
LAY-1
  6
CONTINUOUS
 62
     3
100
AcDbLine
 10
1418.0
 20
294.0000000000002
 30
0.0
 11
1383.000000000001
 21
294.0000000000002
 31
0.0
  0
ARC
  5
438
330
1F
100
AcDbEntity
  8
LAY-1
  6
CONTINUOUS
 62
     3
100
AcDbCircle
 10
1418.0
 20
292.0000000000002
 30
0.0
 40
2.0
100
AcDbArc
 50
0.0
 51
90.00000000000001
  0
LINE
  5
439
330
1F
100
AcDbEntity
  8
LAY-1
  6
CONTINUOUS
 62
     3
100
AcDbLine
 10
1207.1
 20
577.5
 30
0.0
 11
1207.1
 21
593.5
 31
0.0
  0
ARC
  5
43A
330
1F
100
AcDbEntity
  8
LAY-1
  6
CONTINUOUS
 62
     3
100
AcDbCircle
 10
1209.1
 20
593.5
 30
0.0
 40
2.0
100
AcDbArc
 50
90.00000000000001
 51
180.0
  0
LINE
  5
43B
330
1F
100
AcDbEntity
  8
LAY-1
  6
CONTINUOUS
 62
     3
100
AcDbLine
 10
1150.0
 20
553.0
 30
0.0
 11
1152.0
 21
553.0
 31
0.0
  0
LINE
  5
43C
330
1F
100
AcDbEntity
  8
LAY-1
  6
CONTINUOUS
 62
     3
100
AcDbLine
 10
1150.0
 20
427.0000000000001
 30
0.0
 11
1152.0
 21
427.0000000000001
 31
0.0
  0
LINE
  5
43D
330
1F
100
AcDbEntity
  8
LAY-1
  6
CONTINUOUS
 62
     3
100
AcDbLine
 10
1188.0
 20
444.5000000000001
 30
0.0
 11
1175.44857701423
 21
442.3035009774903
 31
0.0
  0
ARC
  5
43E
330
1F
100
AcDbEntity
  8
LAY-1
  6
CONTINUOUS
 62
     3
100
AcDbCircle
 10
1177.0
 20
433.438226773089
 30
0.0
 40
9.0
100
AcDbArc
 50
99.9262455066527
 51
180.0
  0
LINE
  5
43F
330
1F
100
AcDbEntity
  8
LAY-1
  6
CONTINUOUS
 62
     3
100
AcDbLine
 10
1188.0
 20
535.5
 30
0.0
 11
1175.44857701423
 21
537.6964990225099
 31
0.0
  0
ARC
  5
440
330
1F
100
AcDbEntity
  8
LAY-1
  6
CONTINUOUS
 62
     3
100
AcDbCircle
 10
1177.0
 20
546.5617732269111
 30
0.0
 40
9.0
100
AcDbArc
 50
180.0
 51
260.0737544933473
  0
LINE
  5
441
330
1F
100
AcDbEntity
  8
LAY-1
  6
CONTINUOUS
 62
     3
100
AcDbLine
 10
1152.0
 20
397.5000000000001
 30
0.0
 11
1166.0
 21
397.5000000000001
 31
0.0
  0
ARC
  5
442
330
1F
100
AcDbEntity
  8
LAY-1
  6
CONTINUOUS
 62
     3
100
AcDbCircle
 10
1166.0
 20
399.5000000000001
 30
0.0
 40
2.0
100
AcDbArc
 50
270.0
 51
0.0
  0
LINE
  5
443
330
1F
100
AcDbEntity
  8
LAY-1
  6
CONTINUOUS
 62
     3
100
AcDbLine
 10
1152.0
 20
582.5000000000001
 30
0.0
 11
1166.0
 21
582.5000000000001
 31
0.0
  0
ARC
  5
444
330
1F
100
AcDbEntity
  8
LAY-1
  6
CONTINUOUS
 62
     3
100
AcDbCircle
 10
1166.0
 20
580.5000000000001
 30
0.0
 40
2.0
100
AcDbArc
 50
0.0
 51
90.00000000000001
  0
LINE
  5
445
330
1F
100
AcDbEntity
  8
LAY-1
  6
CONTINUOUS
 62
     3
100
AcDbLine
 10
1150.0
 20
490.0
 30
0.0
 11
1150.0
 21
553.0
 31
0.0
  0
LINE
  5
446
330
1F
100
AcDbEntity
  8
LAY-1
  6
CONTINUOUS
 62
     3
100
AcDbLine
 10
1150.0
 20
490.0000000000002
 30
0.0
 11
1150.0
 21
427.0000000000001
 31
0.0
  0
LINE
  5
447
330
1F
100
AcDbEntity
  8
LAY-1
  6
CONTINUOUS
 62
     3
100
AcDbLine
 10
1207.1
 20
572.5
 30
0.0
 11
1207.1
 21
577.5
 31
0.0
  0
LINE
  5
448
330
1F
100
AcDbEntity
  8
LAY-1
  6
CONTINUOUS
 62
     3
100
AcDbLine
 10
1207.1
 20
561.5
 30
0.0
 11
1207.1
 21
577.5
 31
0.0
  0
LINE
  5
449
330
1F
100
AcDbEntity
  8
LAY-1
  6
CONTINUOUS
 62
     3
100
AcDbLine
 10
1188.0
 20
444.5000000000001
 30
0.0
 11
1208.534935592304
 21
444.5000000000001
 31
0.0
  0
ARC
  5
44A
330
1F
100
AcDbEntity
  8
LAY-1
  6
CONTINUOUS
 62
     3
100
AcDbCircle
 10
1208.534935592304
 20
434.5000000000001
 30
0.0
 40
10.0
100
AcDbArc
 50
4.999999999999801
 51
90.00000000000001
  0
LINE
  5
44B
330
1F
100
AcDbEntity
  8
LAY-1
  6
CONTINUOUS
 62
     3
100
AcDbLine
 10
1188.0
 20
535.5
 30
0.0
 11
1201.6
 21
535.5
 31
0.0
  0
ARC
  5
44C
330
1F
100
AcDbEntity
  8
LAY-1
  6
CONTINUOUS
 62
     3
100
AcDbCircle
 10
1221.6
 20
615.5000000000001
 30
0.0
 40
2.0
100
AcDbArc
 50
90.00000000000001
 51
180.0
  0
LINE
  5
44D
330
1F
100
AcDbEntity
  8
LAY-1
  6
CONTINUOUS
 62
     3
100
AcDbLine
 10
1188.0
 20
444.5000000000001
 30
0.0
 11
1175.44857701423
 21
442.3035009774903
 31
0.0
  0
ARC
  5
44E
330
1F
100
AcDbEntity
  8
LAY-1
  6
CONTINUOUS
 62
     3
100
AcDbCircle
 10
1177.0
 20
433.438226773089
 30
0.0
 40
9.0
100
AcDbArc
 50
99.9262455066527
 51
180.0
  0
LINE
  5
44F
330
1F
100
AcDbEntity
  8
LAY-1
  6
CONTINUOUS
 62
     3
100
AcDbLine
 10
1168.0
 20
433.43822677309
 30
0.0
 11
1168.0
 21
399.5000000000001
 31
0.0
  0
ARC
  5
450
330
1F
100
AcDbEntity
  8
LAY-1
  6
CONTINUOUS
 62
     3
100
AcDbCircle
 10
1166.0
 20
399.5000000000001
 30
0.0
 40
2.0
100
AcDbArc
 50
270.0
 51
0.0
  0
LINE
  5
451
330
1F
100
AcDbEntity
  8
LAY-1
  6
CONTINUOUS
 62
     3
100
AcDbLine
 10
1188.0
 20
444.5000000000001
 30
0.0
 11
1208.534935592304
 21
444.5000000000001
 31
0.0
  0
ARC
  5
452
330
1F
100
AcDbEntity
  8
LAY-1
  6
CONTINUOUS
 62
     3
100
AcDbCircle
 10
1208.534935592304
 20
434.5000000000001
 30
0.0
 40
10.0
100
AcDbArc
 50
4.999999999999801
 51
90.00000000000001
  0
LINE
  5
453
330
1F
100
AcDbEntity
  8
LAY-1
  6
CONTINUOUS
 62
     3
100
AcDbLine
 10
1225.309761059229
 20
357.50000000005
 30
0.0
 11
1225.309761059229
 21
338.0
 31
0.0
  0
LINE
  5
454
330
1F
100
AcDbEntity
  8
LAY-1
  6
CONTINUOUS
 62
     3
100
AcDbLine
 10
1212.0
 20
294.0000000000001
 30
0.0
 11
1247.000000000001
 21
294.0000000000001
 31
0.0
  0
ARC
  5
455
330
1F
100
AcDbEntity
  8
LAY-1
  6
CONTINUOUS
 62
     3
100
AcDbCircle
 10
1212.0
 20
292.0000000000001
 30
0.0
 40
2.0
100
AcDbArc
 50
90.00000000000001
 51
180.0
  0
LINE
  5
456
330
1F
100
AcDbEntity
  8
LAY-1
  6
CONTINUOUS
 62
     3
100
AcDbLine
 10
1247.000000000001
 20
299.227003232889
 30
0.0
 11
1247.000000000001
 21
299.20176446699
 31
0.0
  0
ARC
  5
457
330
1F
100
AcDbEntity
  8
LAY-1
  6
CONTINUOUS
 62
     3
100
AcDbCircle
 10
1209.1
 20
593.5
 30
0.0
 40
2.0
100
AcDbArc
 50
90.00000000000001
 51
180.0
  0
LINE
  5
458
330
1F
100
AcDbEntity
  8
LAY-1
  6
CONTINUOUS
 62
     3
100
AcDbLine
 10
1266.1
 20
632.5000000000002
 30
0.0
 11
1249.6
 21
632.5000000000002
 31
0.0
  0
LINE
  5
459
330
1F
100
AcDbEntity
  8
LAY-1
  6
CONTINUOUS
 62
     3
100
AcDbLine
 10
1249.6
 20
632.5000000000002
 30
0.0
 11
1249.6
 21
647.5
 31
0.0
  0
ARC
  5
45A
330
1F
100
AcDbEntity
  8
LAY-1
  6
CONTINUOUS
 62
     3
100
AcDbCircle
 10
1221.6
 20
615.5000000000001
 30
0.0
 40
2.0
100
AcDbArc
 50
90.00000000000001
 51
180.0
  0
LINE
  5
45B
330
1F
100
AcDbEntity
  8
LAY-1
  6
CONTINUOUS
 62
     3
100
AcDbLine
 10
1249.6
 20
632.5000000000002
 30
0.0
 11
1249.6
 21
632.628893816217
 31
0.0
  0
LINE
  5
45C
330
1F
100
AcDbEntity
  8
LAY-1
  6
CONTINUOUS
 62
     3
100
AcDbLine
 10
1247.733038021047
 20
634.6244641319302
 30
0.0
 11
1219.6
 21
636.5
 31
0.0
  0
ARC
  5
45D
330
1F
100
AcDbEntity
  8
LAY-1
  6
CONTINUOUS
 62
     3
100
AcDbCircle
 10
1247.6
 20
632.628893816217
 30
0.0
 40
2.0
100
AcDbArc
 50
0.0
 51
86.18592516571195
  0
LINE
  5
45E
330
1F
100
AcDbEntity
  8
LAY-1
  6
CONTINUOUS
 62
     1
100
AcDbLine
 10
1239.603243
 20
627.925
 30
0.0
 11
1240.600244
 21
625.299992
 31
0.0
  0
LINE
  5
45F
330
1F
100
AcDbEntity
  8
LAY-1
  6
CONTINUOUS
 62
     1
100
AcDbLine
 10
1229.597124
 20
627.925
 30
0.0
 11
1228.600122
 21
625.299992
 31
0.0
  0
LINE
  5
460
330
1F
100
AcDbEntity
  8
LAY-1
  6
CONTINUOUS
 62
     3
100
AcDbLine
 10
1228.600122
 20
627.924992
 30
0.0
 11
1240.600122
 21
627.924992
 31
0.0
  0
LINE
  5
461
330
1F
100
AcDbEntity
  8
LAY-1
  6
CONTINUOUS
 62
     3
100
AcDbLine
 10
1228.600069
 20
625.299992
 30
0.0
 11
1228.600050678312
 21
617.5000000000001
 31
0.0
  0
LINE
  5
462
330
1F
100
AcDbEntity
  8
LAY-1
  6
CONTINUOUS
 62
     3
100
AcDbLine
 10
1240.600069
 20
625.299992
 30
0.0
 11
1240.600091956902
 21
635.09999386954
 31
0.0
  0
LINE
  5
463
330
1F
100
AcDbEntity
  8
LAY-1
  6
CONTINUOUS
 62
     1
100
AcDbLine
 10
1239.603243
 20
635.1664504666701
 30
0.0
 11
1239.603243
 21
627.925
 31
0.0
  0
LINE
  5
464
330
1F
100
AcDbEntity
  8
LAY-1
  6
CONTINUOUS
 62
     1
100
AcDbLine
 10
1229.597124
 20
635.8335250666701
 30
0.0
 11
1229.597124
 21
627.925
 31
0.0
  0
LINE
  5
465
330
1F
100
AcDbEntity
  8
LAY-1
  6
CONTINUOUS
 62
     3
100
AcDbLine
 10
1228.600069
 20
625.299992
 30
0.0
 11
1228.600093830968
 21
635.8999937446
 31
0.0
  0
LINE
  5
466
330
1F
100
AcDbEntity
  8
LAY-1
  6
CONTINUOUS
 62
     3
100
AcDbLine
 10
1219.6
 20
636.5000000000006
 30
0.0
 11
1219.6
 21
647.4999999999995
 31
0.0
  0
LINE
  5
467
330
1F
100
AcDbEntity
  8
LAY-1
  6
CONTINUOUS
 62
     3
100
AcDbLine
 10
1329.115213
 20
659.362732
 30
0.0
 11
1329.115198
 21
650.500061
 31
0.0
  0
LINE
  5
468
330
1F
100
AcDbEntity
  8
LAY-1
  6
CONTINUOUS
 62
     3
100
AcDbLine
 10
1340.084741
 20
659.362732
 30
0.0
 11
1340.084726
 21
650.500061
 31
0.0
  0
LINE
  5
469
330
1F
100
AcDbEntity
  8
LAY-1
  6
CONTINUOUS
 62
     3
100
AcDbLine
 10
1345.569727
 20
659.362732
 30
0.0
 11
1345.569696
 21
650.5
 31
0.0
  0
ARC
  5
46A
330
1F
100
AcDbEntity
  8
LAY-1
  6
CONTINUOUS
 62
     3
100
AcDbCircle
 10
1343.685846
 20
654.230133
 30
0.0
 40
6.271714
100
AcDbArc
 50
90.78468554827452
 51
125.0556976977885
  0
LINE
  5
46B
330
1F
100
AcDbEntity
  8
LAY-1
  6
CONTINUOUS
 62
     3
100
AcDbLine
 10
1343.599969
 20
660.5
 30
0.0
 11
1345.569757
 21
659.362732
 31
0.0
  0
LINE
  5
46C
330
1F
100
AcDbEntity
  8
LAY-1
  6
CONTINUOUS
 62
     3
100
AcDbLine
 10
1349.6
 20
636.5000000000005
 30
0.0
 11
1349.6
 21
650.5000000000007
 31
0.0
  0
LINE
  5
46D
330
1F
100
AcDbEntity
  8
LAY-1
  6
CONTINUOUS
 62
     3
100
AcDbLine
 10
1335.784627065271
 20
660.5
 30
0.0
 11
1343.599969
 21
660.5
 31
0.0
  0
LINE
  5
46E
330
1F
100
AcDbEntity
  8
LAY-1
  6
CONTINUOUS
 62
     3
100
AcDbLine
 10
1340.599878
 20
660.4999980016701
 30
0.0
 11
1335.784627065494
 21
660.4999980016701
 31
0.0
  0
ARC
  5
46F
330
1F
100
AcDbEntity
  8
LAY-1
  6
CONTINUOUS
 62
     3
100
AcDbCircle
 10
1334.599359
 20
646.705231
 30
0.0
 40
13.794775
100
AcDbArc
 50
66.56954106954255
 51
85.0709581378365
  0
ARC
  5
470
330
1F
100
AcDbEntity
  8
LAY-1
  6
CONTINUOUS
 62
     3
100
AcDbCircle
 10
1334.599359
 20
646.705231
 30
0.0
 40
13.794775
100
AcDbArc
 50
105.4734986236803
 51
113.4257540778319
  0
LINE
  5
471
330
1F
100
AcDbEntity
  8
LAY-1
  6
CONTINUOUS
 62
     3
100
AcDbLine
 10
1349.6
 20
650.5
 30
0.0
 11
1327.001389
 21
650.5
 31
0.0
  0
LINE
  5
472
330
1F
100
AcDbEntity
  8
LAY-1
  6
CONTINUOUS
 62
     3
100
AcDbLine
 10
1327.001389
 20
634.9934259333334
 30
0.0
 11
1349.6
 21
636.5
 31
0.0
  0
LINE
  5
473
330
1F
100
AcDbEntity
  8
LAY-1
  6
EXLTYPE2
 62
     1
100
AcDbLine
 10
1234.6
 20
613.0
 30
0.0
 11
1234.6
 21
651.0
 31
0.0
  0
LINE
  5
474
330
1F
100
AcDbEntity
  8
LAY-1
  6
EXLTYPE2
 62
     1
100
AcDbLine
 10
1334.6
 20
629.0
 30
0.0
 11
1334.6
 21
660.5
 31
0.0
  0
LINE
  5
475
330
1F
100
AcDbEntity
  8
LAY-1
  6
CONTINUOUS
 62
     3
100
AcDbLine
 10
1208.4
 20
595.5
 30
0.0
 11
1216.045567858827
 21
595.5
 31
0.0
  0
LINE
  5
476
330
1F
100
AcDbEntity
  8
LAY-1
  6
CONTINUOUS
 62
     3
100
AcDbLine
 10
1219.6
 20
615.5000000000001
 30
0.0
 11
1219.6
 21
601.09167303443
 31
0.0
  0
LINE
  5
477
330
1F
100
AcDbEntity
  8
LAY-1
  6
CONTINUOUS
 62
     3
100
AcDbLine
 10
1238.2410589256
 20
617.5000000000001
 30
0.0
 11
1221.6
 21
617.5000000000001
 31
0.0
  0
LINE
  5
478
330
1F
100
AcDbEntity
  8
LAY-1
  6
CONTINUOUS
 62
     3
100
AcDbLine
 10
1240.600069
 20
625.299992
 30
0.0
 11
1240.600053524537
 21
618.71170807086
 31
0.0
  0
LINE
  5
479
330
1F
100
AcDbEntity
  8
LAY-1
  6
CONTINUOUS
 62
     3
100
AcDbLine
 10
1266.645454545454
 20
647.4999999999995
 30
0.0
 11
1266.307666886979
 21
628.9216787838731
 31
0.0
  0
LINE
  5
47A
330
1F
100
AcDbEntity
  8
LAY-1
  6
CONTINUOUS
 62
     3
100
AcDbLine
 10
1219.6
 20
615.5000000000001
 30
0.0
 11
1219.6
 21
601.09167303443
 31
0.0
  0
LINE
  5
47B
330
1F
100
AcDbEntity
  8
LAY-1
  6
CONTINUOUS
 62
     3
100
AcDbLine
 10
1152.0
 20
490.0000000000001
 30
0.0
 11
1152.0
 21
582.5000000000001
 31
0.0
  0
LINE
  5
47C
330
1F
100
AcDbEntity
  8
LAY-1
  6
CONTINUOUS
 62
     3
100
AcDbLine
 10
1152.0
 20
490.0000000000001
 30
0.0
 11
1152.0
 21
397.5000000000001
 31
0.0
  0
LINE
  5
47D
330
1F
100
AcDbEntity
  8
LAY-1
  6
CONTINUOUS
 62
     3
100
AcDbLine
 10
1168.0
 20
490.0000000000001
 30
0.0
 11
1168.0
 21
580.5000000000001
 31
0.0
  0
LINE
  5
47E
330
1F
100
AcDbEntity
  8
LAY-1
  6
CONTINUOUS
 62
     3
100
AcDbLine
 10
1168.0
 20
490.0000000000001
 30
0.0
 11
1168.0
 21
399.5000000000001
 31
0.0
  0
LINE
  5
47F
330
1F
100
AcDbEntity
  8
LAY-1
  6
CONTINUOUS
 62
     3
100
AcDbLine
 10
1211.761976465102
 20
512.3518864974618
 30
0.0
 11
1225.309761059229
 21
357.5000000000525
 31
0.0
  0
ARC
  5
480
330
1F
100
AcDbEntity
  8
LAY-1
  6
CONTINUOUS
 62
     3
100
AcDbCircle
 10
1270.80976105923
 20
338.0
 30
0.0
 40
45.5
100
AcDbArc
 50
179.9999999999999
 51
228.9593181503644
  0
LINE
  5
481
330
1F
100
AcDbEntity
  8
LAY-1
  6
CONTINUOUS
 62
     3
100
AcDbLine
 10
1480.0
 20
553.0
 30
0.0
 11
1478.0
 21
553.0
 31
0.0
  0
LINE
  5
482
330
1F
100
AcDbEntity
  8
LAY-1
  6
CONTINUOUS
 62
     3
100
AcDbLine
 10
1480.0
 20
427.0000000000001
 30
0.0
 11
1478.0
 21
427.0000000000001
 31
0.0
  0
LINE
  5
483
330
1F
100
AcDbEntity
  8
LAY-1
  6
CONTINUOUS
 62
     3
100
AcDbLine
 10
1442.0
 20
444.5000000000001
 30
0.0
 11
1454.55142298577
 21
442.3035009774903
 31
0.0
  0
ARC
  5
484
330
1F
100
AcDbEntity
  8
LAY-1
  6
CONTINUOUS
 62
     3
100
AcDbCircle
 10
1453.0
 20
433.438226773089
 30
0.0
 40
9.0
100
AcDbArc
 50
0.0
 51
80.07375449334741
  0
ARC
  5
485
330
1F
100
AcDbEntity
  8
LAY-1
  6
CONTINUOUS
 62
     3
100
AcDbCircle
 10
1405.533070700148
 20
333.5
 30
0.0
 40
3.0
100
AcDbArc
 50
175.0000000000002
 51
270.0
  0
LINE
  5
486
330
1F
100
AcDbEntity
  8
LAY-1
  6
CONTINUOUS
 62
     3
100
AcDbLine
 10
1419.6
 20
330.5
 30
0.0
 11
1405.533070700148
 21
330.5
 31
0.0
  0
LINE
  5
487
330
1F
100
AcDbEntity
  8
LAY-1
  6
CONTINUOUS
 62
     3
100
AcDbLine
 10
1442.0
 20
444.5000000000001
 30
0.0
 11
1421.39616457907
 21
444.5000000000001
 31
0.0
  0
ARC
  5
488
330
1F
100
AcDbEntity
  8
LAY-1
  6
CONTINUOUS
 62
     3
100
AcDbCircle
 10
1421.39616457907
 20
434.5000000000001
 30
0.0
 40
10.0
100
AcDbArc
 50
90.00000000000001
 51
175.0000000000003
  0
LINE
  5
489
330
1F
100
AcDbEntity
  8
LAY-1
  6
CONTINUOUS
 62
     3
100
AcDbLine
 10
1442.0
 20
535.5
 30
0.0
 11
1454.55142298577
 21
537.6964990225099
 31
0.0
  0
ARC
  5
48A
330
1F
100
AcDbEntity
  8
LAY-1
  6
CONTINUOUS
 62
     3
100
AcDbCircle
 10
1453.0
 20
546.5617732269111
 30
0.0
 40
9.0
100
AcDbArc
 50
279.9262455066527
 51
0.0
  0
LINE
  5
48B
330
1F
100
AcDbEntity
  8
LAY-1
  6
CONTINUOUS
 62
     3
100
AcDbLine
 10
1478.0
 20
397.5000000000001
 30
0.0
 11
1464.0
 21
397.5000000000001
 31
0.0
  0
ARC
  5
48C
330
1F
100
AcDbEntity
  8
LAY-1
  6
CONTINUOUS
 62
     3
100
AcDbCircle
 10
1464.0
 20
399.5000000000001
 30
0.0
 40
2.0
100
AcDbArc
 50
180.0
 51
270.0
  0
LINE
  5
48D
330
1F
100
AcDbEntity
  8
LAY-1
  6
CONTINUOUS
 62
     3
100
AcDbLine
 10
1478.0
 20
582.5000000000001
 30
0.0
 11
1464.0
 21
582.5000000000001
 31
0.0
  0
ARC
  5
48E
330
1F
100
AcDbEntity
  8
LAY-1
  6
CONTINUOUS
 62
     3
100
AcDbCircle
 10
1464.0
 20
580.5000000000001
 30
0.0
 40
2.0
100
AcDbArc
 50
90.00000000000001
 51
180.0
  0
LINE
  5
48F
330
1F
100
AcDbEntity
  8
LAY-1
  6
CONTINUOUS
 62
     3
100
AcDbLine
 10
1480.0
 20
490.0
 30
0.0
 11
1480.0
 21
553.0
 31
0.0
  0
LINE
  5
490
330
1F
100
AcDbEntity
  8
LAY-1
  6
CONTINUOUS
 62
     3
100
AcDbLine
 10
1480.0
 20
490.0000000000002
 30
0.0
 11
1480.0
 21
427.0000000000001
 31
0.0
  0
LINE
  5
491
330
1F
100
AcDbEntity
  8
LAY-1
  6
CONTINUOUS
 62
     3
100
AcDbLine
 10
1420.0
 20
292.0000000000001
 30
0.0
 11
1420.0
 21
282.0000000000002
 31
0.0
  0
ARC
  5
492
330
1F
100
AcDbEntity
  8
LAY-1
  6
CONTINUOUS
 62
     3
100
AcDbCircle
 10
1418.0
 20
282.0000000000002
 30
0.0
 40
2.0
100
AcDbArc
 50
270.0
 51
0.0
  0
LINE
  5
493
330
1F
100
AcDbEntity
  8
LAY-1
  6
CONTINUOUS
 62
     3
100
AcDbLine
 10
1383.0
 20
299.227003232889
 30
0.0
 11
1383.0
 21
299.20176446699
 31
0.0
  0
ARC
  5
494
330
1F
100
AcDbEntity
  8
LAY-1
  6
CONTINUOUS
 62
     3
100
AcDbCircle
 10
1418.0
 20
292.0000000000001
 30
0.0
 40
2.0
100
AcDbArc
 50
0.0
 51
36.86989764584079
  0
LINE
  5
495
330
1F
100
AcDbEntity
  8
LAY-1
  6
CONTINUOUS
 62
     3
100
AcDbLine
 10
1424.6
 20
320.81479170952
 30
0.0
 11
1433.439999999997
 21
320.81479170952
 31
0.0
  0
LINE
  5
496
330
1F
100
AcDbEntity
  8
LAY-1
  6
CONTINUOUS
 62
     3
100
AcDbLine
 10
1433.439999999997
 20
320.81479170952
 30
0.0
 11
1433.439999999997
 21
311.5
 31
0.0
  0
LINE
  5
497
330
1F
100
AcDbEntity
  8
LAY-1
  6
CONTINUOUS
 62
     1
100
AcDbLine
 10
1424.6
 20
311.5
 30
0.0
 11
1433.44
 21
320.81479170952
 31
0.0
  0
LINE
  5
498
330
1F
100
AcDbEntity
  8
LAY-1
  6
CONTINUOUS
 62
     1
100
AcDbLine
 10
1424.6
 20
320.81479170952
 30
0.0
 11
1433.44
 21
311.5
 31
0.0
  0
LINE
  5
499
330
1F
100
AcDbEntity
  8
LAY-1
  6
CONTINUOUS
 62
     3
100
AcDbLine
 10
1424.6
 20
311.5
 30
0.0
 11
1424.6
 21
321.9774999999998
 31
0.0
  0
LINE
  5
49A
330
1F
100
AcDbEntity
  8
LAY-1
  6
CONTINUOUS
 62
     3
100
AcDbLine
 10
1424.6
 20
302.18520829048
 30
0.0
 11
1433.439999999997
 21
302.18520829048
 31
0.0
  0
LINE
  5
49B
330
1F
100
AcDbEntity
  8
LAY-1
  6
CONTINUOUS
 62
     3
100
AcDbLine
 10
1433.439999999997
 20
302.18520829048
 30
0.0
 11
1433.439999999997
 21
311.5
 31
0.0
  0
LINE
  5
49C
330
1F
100
AcDbEntity
  8
LAY-1
  6
CONTINUOUS
 62
     1
100
AcDbLine
 10
1424.6
 20
311.5
 30
0.0
 11
1433.44
 21
302.18520829048
 31
0.0
  0
LINE
  5
49D
330
1F
100
AcDbEntity
  8
LAY-1
  6
CONTINUOUS
 62
     1
100
AcDbLine
 10
1424.6
 20
302.18520829048
 30
0.0
 11
1433.44
 21
311.5
 31
0.0
  0
LINE
  5
49E
330
1F
100
AcDbEntity
  8
LAY-1
  6
CONTINUOUS
 62
     3
100
AcDbLine
 10
1424.6
 20
311.5
 30
0.0
 11
1424.6
 21
301.0225
 31
0.0
  0
LINE
  5
49F
330
1F
100
AcDbEntity
  8
LAY-1
  6
CONTINUOUS
 62
     3
100
AcDbLine
 10
1442.0
 20
535.5
 30
0.0
 11
1425.6
 21
535.5
 31
0.0
  0
LINE
  5
4A0
330
1F
100
AcDbEntity
  8
LAY-1
  6
CONTINUOUS
 62
     3
100
AcDbLine
 10
1462.0
 20
490.0000000000002
 30
0.0
 11
1462.0
 21
580.5000000000001
 31
0.0
  0
LINE
  5
4A1
330
1F
100
AcDbEntity
  8
LAY-1
  6
CONTINUOUS
 62
     3
100
AcDbLine
 10
1462.0
 20
490.0000000000002
 30
0.0
 11
1462.0
 21
399.5000000000001
 31
0.0
  0
LINE
  5
4A2
330
1F
100
AcDbEntity
  8
LAY-1
  6
CONTINUOUS
 62
     3
100
AcDbLine
 10
1478.0
 20
490.0
 30
0.0
 11
1478.0
 21
582.5000000000001
 31
0.0
  0
LINE
  5
4A3
330
1F
100
AcDbEntity
  8
LAY-1
  6
CONTINUOUS
 62
     3
100
AcDbLine
 10
1478.0
 20
490.0
 30
0.0
 11
1478.0
 21
397.5000000000001
 31
0.0
  0
ARC
  5
4A4
330
1F
100
AcDbEntity
  8
LAY-1
  6
CONTINUOUS
 62
     3
100
AcDbCircle
 10
1400.5
 20
524.534653975958
 30
0.0
 40
2.0
100
AcDbArc
 50
285.0000000000012
 51
0.0
  0
LINE
  5
4A5
330
1F
100
AcDbEntity
  8
LAY-1
  6
CONTINUOUS
 62
     3
100
AcDbLine
 10
1384.482361909795
 20
518.1721884242136
 30
0.0
 11
1401.017638090206
 21
522.6028023233799
 31
0.0
  0
ARC
  5
4A6
330
1F
100
AcDbEntity
  8
LAY-1
  6
CONTINUOUS
 62
     3
100
AcDbCircle
 10
1385.0
 20
516.2403367716354
 30
0.0
 40
2.0
100
AcDbArc
 50
105.0000000000007
 51
180.0
  0
LINE
  5
4A7
330
1F
100
AcDbEntity
  8
LAY-1
  6
CONTINUOUS
 62
     3
100
AcDbLine
 10
1402.5
 20
536.0
 30
0.0
 11
1383.0
 21
536.0
 31
0.0
  0
LINE
  5
4A8
330
1F
100
AcDbEntity
  8
LAY-1
  6
CONTINUOUS
 62
     3
100
AcDbLine
 10
1402.5
 20
536.0
 30
0.0
 11
1402.5
 21
524.534653975958
 31
0.0
  0
LINE
  5
4A9
330
1F
100
AcDbEntity
  8
LAY-1
  6
CONTINUOUS
 62
     3
100
AcDbLine
 10
1401.782512056114
 20
523.0
 30
0.0
 11
1419.0
 21
523.0
 31
0.0
  0
LINE
  5
4AA
330
1F
100
AcDbEntity
  8
LAY-1
  6
CONTINUOUS
 62
     3
100
AcDbLine
 10
1390.0
 20
539.0000000000001
 30
0.0
 11
1390.0
 21
536.0
 31
0.0
  0
LINE
  5
4AB
330
1F
100
AcDbEntity
  8
LAY-1
  6
CONTINUOUS
 62
     3
100
AcDbLine
 10
1383.0
 20
537.0
 30
0.0
 11
1383.0
 21
302.0
 31
0.0
  0
LINE
  5
4AC
330
1F
100
AcDbEntity
  8
LAY-1
  6
CONTINUOUS
 62
     3
100
AcDbLine
 10
1403.684449160431
 20
346.7912988500285
 30
0.0
 11
1418.606349409437
 21
517.3493991527579
 31
0.0
  0
LINE
  5
4AD
330
1F
100
AcDbEntity
  8
LAY-1
  6
CONTINUOUS
 62
     3
100
AcDbLine
 10
1419.6
 20
330.5
 30
0.0
 11
1419.6
 21
311.5
 31
0.0
  0
LINE
  5
4AE
330
1F
100
AcDbEntity
  8
LAY-1
  6
CONTINUOUS
 62
     3
100
AcDbLine
 10
1419.6
 20
321.8028961525412
 30
0.0
 11
1424.6
 21
321.9774999999998
 31
0.0
  0
LINE
  5
4AF
330
1F
100
AcDbEntity
  8
LAY-1
  6
CONTINUOUS
 62
     1
100
AcDbLine
 10
1419.6
 20
320.6401878620659
 30
0.0
 11
1424.640553215168
 21
320.8162078590037
 31
0.0
  0
LINE
  5
4B0
330
1F
100
AcDbEntity
  8
LAY-1
  6
CONTINUOUS
 62
     1
100
AcDbLine
 10
1419.6
 20
302.3598121379341
 30
0.0
 11
1424.640553215168
 21
302.1837921409963
 31
0.0
  0
LINE
  5
4B1
330
1F
100
AcDbEntity
  8
LAY-1
  6
CONTINUOUS
 62
     3
100
AcDbLine
 10
1419.6
 20
301.1971038474588
 30
0.0
 11
1424.6
 21
301.0225
 31
0.0
  0
ARC
  5
4B2
330
1F
100
AcDbEntity
  8
LAY-1
  6
CONTINUOUS
 62
     3
100
AcDbCircle
 10
1338.433696435421
 20
352.5000000000001
 30
0.0
 40
65.5
100
AcDbArc
 50
314.4894954564714
 51
355.0
  0
LINE
  5
4B3
330
1F
100
AcDbEntity
  8
LAY-1
  6
CONTINUOUS
 62
     3
100
AcDbLine
 10
1419.6
 20
311.5
 30
0.0
 11
1419.6
 21
293.75
 31
0.0
  0
LINE
  5
4B4
330
1F
100
AcDbEntity
  8
LAY-1
  6
EXLTYPE2
 62
     1
100
AcDbLine
 10
1138.6
 20
490.0000000000002
 30
0.0
 11
1489.6
 21
490.0000000000002
 31
0.0
  0
LINE
  5
4B5
330
1F
100
AcDbEntity
  8
LAY-1
  6
EXLTYPE2
 62
     1
100
AcDbLine
 10
1143.6
 20
687.5
 30
0.0
 11
1257.6
 21
687.5
 31
0.0
  0
LINE
  5
4B6
330
1F
100
AcDbEntity
  8
LAY-1
  6
EXLTYPE2
 62
     1
100
AcDbLine
 10
1299.6
 20
773.7999999999934
 30
0.0
 11
1268.6
 21
773.7999999999934
 31
0.0
  0
LINE
  5
4B7
330
1F
100
AcDbEntity
  8
LAY-1
  6
EXLTYPE2
 62
     1
100
AcDbLine
 10
1315.0
 20
267.1
 30
0.0
 11
1315.0
 21
682.0
 31
0.0
  0
LINE
  5
4B8
330
1F
100
AcDbEntity
  8
LAY-1
  6
EXLTYPE2
 62
     1
100
AcDbLine
 10
1345.6
 20
302.5000000000002
 30
0.0
 11
1282.6
 21
302.5000000000002
 31
0.0
  0
LINE
  5
4B9
330
1F
100
AcDbEntity
  8
LAY-1
  6
EXLTYPE2
 62
     1
100
AcDbLine
 10
1437.6
 20
311.5
 30
0.0
 11
1389.514514753064
 21
311.5
 31
0.0
  0
LINE
  5
4BA
330
1F
100
AcDbEntity
  8
LAY-1
  6
EXLTYPE2
 62
     1
100
AcDbLine
 10
1405.0
 20
271.0
 30
0.0
 11
1405.0
 21
299.0
 31
0.0
  0
LINE
  5
4BB
330
1F
100
AcDbEntity
  8
LAY-1
  6
EXLTYPE2
 62
     1
100
AcDbLine
 10
1405.0
 20
273.0
 30
0.0
 11
1405.0
 21
296.0
 31
0.0
  0
LINE
  5
4BC
330
1F
100
AcDbEntity
  8
LAY-1
  6
EXLTYPE2
 62
     1
100
AcDbLine
 10
1225.0
 20
273.0
 30
0.0
 11
1225.0
 21
299.0
 31
0.0
  0
LINE
  5
4BD
330
1F
100
AcDbEntity
  8
LAY-1
  6
CONTINUOUS
 62
     3
100
AcDbLine
 10
666.9999999999998
 20
961.1
 30
0.0
 11
605.5
 21
961.1
 31
0.0
  0
ARC
  5
4BE
330
1F
100
AcDbEntity
  8
LAY-1
  6
CONTINUOUS
 62
     3
100
AcDbCircle
 10
605.5
 20
977.1
 30
0.0
 40
16.0
100
AcDbArc
 50
180.0
 51
270.0
  0
LINE
  5
4BF
330
1F
100
AcDbEntity
  8
LAY-1
  6
CONTINUOUS
 62
     3
100
AcDbLine
 10
878.5063509461115
 20
904.9397459621592
 30
0.0
 11
888.5063509461077
 21
922.2602540378413
 31
0.0
  0
LINE
  5
4C0
330
1F
100
AcDbEntity
  8
LAY-1
  6
EXLTYPE2
 62
     1
100
AcDbLine
 10
678.9999999999999
 20
1088.6
 30
0.0
 11
653.0
 21
1088.6
 31
0.0
  0
ARC
  5
4C1
330
1F
100
AcDbEntity
  8
LAY-1
  6
CONTINUOUS
 62
     3
100
AcDbCircle
 10
666.9999999999999
 20
1088.6
 30
0.0
 40
15.0
100
AcDbArc
 50
19.25507778905581
 51
160.7449222109434
  0
ARC
  5
4C2
330
1F
100
AcDbEntity
  8
LAY-1
  6
CONTINUOUS
 62
     3
100
AcDbCircle
 10
666.9999999999999
 20
988.6
 30
0.0
 40
15.0
100
AcDbArc
 50
199.2550777890566
 51
340.7449222109441
  0
LINE
  5
4C3
330
1F
100
AcDbEntity
  8
LAY-1
  6
EXLTYPE2
 62
     1
100
AcDbLine
 10
678.9999999999999
 20
988.6
 30
0.0
 11
653.0
 21
988.6
 31
0.0
  0
LINE
  5
4C4
330
1F
100
AcDbEntity
  8
LAY-1
  6
CONTINUOUS
 62
     3
100
AcDbLine
 10
657.4999889999999
 20
1094.084772
 30
0.0
 11
657.4999889999999
 21
1083.115121
 31
0.0
  0
LINE
  5
4C5
330
1F
100
AcDbEntity
  8
LAY-1
  6
CONTINUOUS
 62
     3
100
AcDbLine
 10
676.499989
 20
1083.115244
 30
0.0
 11
676.499989
 21
1094.084772
 31
0.0
  0
LINE
  5
4C6
330
1F
100
AcDbEntity
  8
LAY-1
  6
CONTINUOUS
 62
     3
100
AcDbLine
 10
666.999928
 20
1099.569757
 30
0.0
 11
676.499989
 21
1094.084772
 31
0.0
  0
LINE
  5
4C7
330
1F
100
AcDbEntity
  8
LAY-1
  6
CONTINUOUS
 62
     3
100
AcDbLine
 10
666.999928
 20
1099.569757
 30
0.0
 11
657.499928
 21
1094.084772
 31
0.0
  0
LINE
  5
4C8
330
1F
100
AcDbEntity
  8
LAY-1
  6
CONTINUOUS
 62
     3
100
AcDbLine
 10
657.499928
 20
1083.115121
 30
0.0
 11
666.999989
 21
1077.630243
 31
0.0
  0
LINE
  5
4C9
330
1F
100
AcDbEntity
  8
LAY-1
  6
CONTINUOUS
 62
     3
100
AcDbLine
 10
666.999989
 20
1077.63035
 30
0.0
 11
676.499989
 21
1083.115244
 31
0.0
  0
CIRCLE
  5
4CA
330
1F
100
AcDbEntity
  8
LAY-1
  6
CONTINUOUS
 62
     3
100
AcDbCircle
 10
666.999989
 20
1088.6
 30
0.0
 40
9.0
  0
CIRCLE
  5
4CB
330
1F
100
AcDbEntity
  8
LAY-1
  6
CONTINUOUS
 62
     1
100
AcDbCircle
 10
666.999987
 20
1088.6
 30
0.0
 40
6.0
  0
CIRCLE
  5
4CC
330
1F
100
AcDbEntity
  8
LAY-1
  6
CONTINUOUS
 62
     3
100
AcDbCircle
 10
666.999987
 20
1088.6
 30
0.0
 40
5.053
  0
LINE
  5
4CD
330
1F
100
AcDbEntity
  8
LAY-1
  6
CONTINUOUS
 62
     3
100
AcDbLine
 10
657.4999889999999
 20
994.084772
 30
0.0
 11
657.4999889999999
 21
983.1151209999999
 31
0.0
  0
LINE
  5
4CE
330
1F
100
AcDbEntity
  8
LAY-1
  6
CONTINUOUS
 62
     3
100
AcDbLine
 10
676.499989
 20
983.115244
 30
0.0
 11
676.499989
 21
994.084772
 31
0.0
  0
LINE
  5
4CF
330
1F
100
AcDbEntity
  8
LAY-1
  6
CONTINUOUS
 62
     3
100
AcDbLine
 10
666.999928
 20
999.5697570000001
 30
0.0
 11
676.499989
 21
994.084772
 31
0.0
  0
LINE
  5
4D0
330
1F
100
AcDbEntity
  8
LAY-1
  6
CONTINUOUS
 62
     3
100
AcDbLine
 10
666.999928
 20
999.5697570000001
 30
0.0
 11
657.499928
 21
994.084772
 31
0.0
  0
LINE
  5
4D1
330
1F
100
AcDbEntity
  8
LAY-1
  6
CONTINUOUS
 62
     3
100
AcDbLine
 10
657.499928
 20
983.1151209999999
 30
0.0
 11
666.999989
 21
977.6302430000002
 31
0.0
  0
LINE
  5
4D2
330
1F
100
AcDbEntity
  8
LAY-1
  6
CONTINUOUS
 62
     3
100
AcDbLine
 10
666.999989
 20
977.63035
 30
0.0
 11
676.499989
 21
983.115244
 31
0.0
  0
CIRCLE
  5
4D3
330
1F
100
AcDbEntity
  8
LAY-1
  6
CONTINUOUS
 62
     3
100
AcDbCircle
 10
666.999989
 20
988.6
 30
0.0
 40
9.0
  0
CIRCLE
  5
4D4
330
1F
100
AcDbEntity
  8
LAY-1
  6
CONTINUOUS
 62
     1
100
AcDbCircle
 10
666.999987
 20
988.6
 30
0.0
 40
6.0
  0
CIRCLE
  5
4D5
330
1F
100
AcDbEntity
  8
LAY-1
  6
CONTINUOUS
 62
     3
100
AcDbCircle
 10
666.999987
 20
988.6
 30
0.0
 40
5.053
  0
LINE
  5
4D6
330
1F
100
AcDbEntity
  8
LAY-1
  6
CONTINUOUS
 62
     3
100
AcDbLine
 10
610.4822454495913
 20
965.1116798727872
 30
0.0
 11
620.2801454052026
 21
974.9095798283985
 31
0.0
  0
LINE
  5
4D7
330
1F
100
AcDbEntity
  8
LAY-1
  6
CONTINUOUS
 62
     3
100
AcDbLine
 10
616.6939112359519
 20
988.2939734614489
 30
0.0
 11
620.2801454052026
 21
974.9095798283985
 31
0.0
  0
LINE
  5
4D8
330
1F
100
AcDbEntity
  8
LAY-1
  6
CONTINUOUS
 62
     3
100
AcDbLine
 10
616.6939112359519
 20
988.2939734614489
 30
0.0
 11
603.3095501298135
 21
991.8801751037876
 31
0.0
  0
CIRCLE
  5
4D9
330
1F
100
AcDbEntity
  8
LAY-1
  6
CONTINUOUS
 62
     3
100
AcDbCircle
 10
606.8959235990999
 20
978.4959235992002
 30
0.0
 40
6.9175
  0
ARC
  5
4DA
330
1F
100
AcDbEntity
  8
LAY-1
  6
CONTINUOUS
 62
     3
100
AcDbCircle
 10
605.5
 20
1100.1
 30
0.0
 40
16.0
100
AcDbArc
 50
90.00000000000001
 51
180.0
  0
LINE
  5
4DB
330
1F
100
AcDbEntity
  8
LAY-1
  6
CONTINUOUS
 62
     3
100
AcDbLine
 10
603.3095826567255
 20
1085.319857423125
 30
0.0
 11
593.5116183543971
 21
1095.117821725453
 31
0.0
  0
LINE
  5
4DC
330
1F
100
AcDbEntity
  8
LAY-1
  6
CONTINUOUS
 62
     3
100
AcDbLine
 10
610.4822454495913
 20
1112.088320127213
 30
0.0
 11
620.2801454052023
 21
1102.290420171602
 31
0.0
  0
LINE
  5
4DD
330
1F
100
AcDbEntity
  8
LAY-1
  6
CONTINUOUS
 62
     3
100
AcDbLine
 10
616.6939112359519
 20
1088.906026538551
 30
0.0
 11
620.2801454052023
 21
1102.290420171602
 31
0.0
  0
LINE
  5
4DE
330
1F
100
AcDbEntity
  8
LAY-1
  6
CONTINUOUS
 62
     3
100
AcDbLine
 10
616.6939112359519
 20
1088.906026538551
 30
0.0
 11
603.3095501298135
 21
1085.319824896213
 31
0.0
  0
LINE
  5
4DF
330
1F
100
AcDbEntity
  8
LAY-1
  6
CONTINUOUS
 62
     3
100
AcDbLine
 10
593.5115858274853
 20
1095.117789198541
 30
0.0
 11
597.0979168703648
 21
1108.502151011786
 31
0.0
  0
LINE
  5
4E0
330
1F
100
AcDbEntity
  8
LAY-1
  6
CONTINUOUS
 62
     3
100
AcDbLine
 10
597.0979493972768
 20
1108.50205343105
 30
0.0
 11
610.4822454495913
 21
1112.088320127213
 31
0.0
  0
CIRCLE
  5
4E1
330
1F
100
AcDbEntity
  8
LAY-1
  6
CONTINUOUS
 62
     3
100
AcDbCircle
 10
606.8959250133134
 20
1098.704077815014
 30
0.0
 40
11.5
  0
CIRCLE
  5
4E2
330
1F
100
AcDbEntity
  8
LAY-1
  6
CONTINUOUS
 62
     1
100
AcDbCircle
 10
606.8959235990999
 20
1098.7040764008
 30
0.0
 40
8.0
  0
CIRCLE
  5
4E3
330
1F
100
AcDbEntity
  8
LAY-1
  6
CONTINUOUS
 62
     3
100
AcDbCircle
 10
606.8959235990999
 20
1098.7040764008
 30
0.0
 40
6.9175
  0
LINE
  5
4E4
330
1F
100
AcDbEntity
  8
LAY-1
  6
CONTINUOUS
 62
     3
100
AcDbLine
 10
666.9999999999998
 20
1116.1
 30
0.0
 11
605.5
 21
1116.1
 31
0.0
  0
ARC
  5
4E5
330
1F
100
AcDbEntity
  8
LAY-1
  6
CONTINUOUS
 62
     3
100
AcDbCircle
 10
728.4999999999999
 20
1100.1
 30
0.0
 40
16.0
100
AcDbArc
 50
0.0
 51
90.00000000000001
  0
LINE
  5
4E6
330
1F
100
AcDbEntity
  8
LAY-1
  6
CONTINUOUS
 62
     3
100
AcDbLine
 10
730.6904173432744
 20
1085.319857423125
 30
0.0
 11
740.4883816456027
 21
1095.117821725453
 31
0.0
  0
LINE
  5
4E7
330
1F
100
AcDbEntity
  8
LAY-1
  6
CONTINUOUS
 62
     3
100
AcDbLine
 10
723.5177545504084
 20
1112.088320127213
 30
0.0
 11
713.7198545947973
 21
1102.290420171602
 31
0.0
  0
LINE
  5
4E8
330
1F
100
AcDbEntity
  8
LAY-1
  6
CONTINUOUS
 62
     3
100
AcDbLine
 10
717.3060887640479
 20
1088.906026538551
 30
0.0
 11
713.7198545947973
 21
1102.290420171602
 31
0.0
  0
LINE
  5
4E9
330
1F
100
AcDbEntity
  8
LAY-1
  6
CONTINUOUS
 62
     3
100
AcDbLine
 10
717.3060887640479
 20
1088.906026538551
 30
0.0
 11
730.6904498701864
 21
1085.319824896213
 31
0.0
  0
LINE
  5
4EA
330
1F
100
AcDbEntity
  8
LAY-1
  6
CONTINUOUS
 62
     3
100
AcDbLine
 10
740.4884141725146
 20
1095.117789198541
 30
0.0
 11
736.9020831296349
 21
1108.502151011786
 31
0.0
  0
LINE
  5
4EB
330
1F
100
AcDbEntity
  8
LAY-1
  6
CONTINUOUS
 62
     3
100
AcDbLine
 10
736.902050602723
 20
1108.50205343105
 30
0.0
 11
723.5177545504084
 21
1112.088320127213
 31
0.0
  0
CIRCLE
  5
4EC
330
1F
100
AcDbEntity
  8
LAY-1
  6
CONTINUOUS
 62
     3
100
AcDbCircle
 10
727.1040749866863
 20
1098.704077815014
 30
0.0
 40
11.5
  0
CIRCLE
  5
4ED
330
1F
100
AcDbEntity
  8
LAY-1
  6
CONTINUOUS
 62
     1
100
AcDbCircle
 10
727.1040764008999
 20
1098.7040764008
 30
0.0
 40
8.0
  0
CIRCLE
  5
4EE
330
1F
100
AcDbEntity
  8
LAY-1
  6
CONTINUOUS
 62
     3
100
AcDbCircle
 10
727.1040764008999
 20
1098.7040764008
 30
0.0
 40
6.9175
  0
ARC
  5
4EF
330
1F
100
AcDbEntity
  8
LAY-1
  6
CONTINUOUS
 62
     3
100
AcDbCircle
 10
728.4999999999999
 20
977.1
 30
0.0
 40
16.0
100
AcDbArc
 50
270.0
 51
0.0
  0
LINE
  5
4F0
330
1F
100
AcDbEntity
  8
LAY-1
  6
CONTINUOUS
 62
     3
100
AcDbLine
 10
723.5177545504083
 20
965.1116798727872
 30
0.0
 11
713.7198545947973
 21
974.9095798283985
 31
0.0
  0
LINE
  5
4F1
330
1F
100
AcDbEntity
  8
LAY-1
  6
CONTINUOUS
 62
     3
100
AcDbLine
 10
717.3060887640478
 20
988.2939734614489
 30
0.0
 11
713.7198545947973
 21
974.9095798283985
 31
0.0
  0
LINE
  5
4F2
330
1F
100
AcDbEntity
  8
LAY-1
  6
CONTINUOUS
 62
     3
100
AcDbLine
 10
736.902050602723
 20
968.6979465689498
 30
0.0
 11
723.5177545504083
 21
965.1116798727872
 31
0.0
  0
CIRCLE
  5
4F3
330
1F
100
AcDbEntity
  8
LAY-1
  6
CONTINUOUS
 62
     1
100
AcDbCircle
 10
727.1040764008998
 20
978.4959235992002
 30
0.0
 40
8.0
  0
CIRCLE
  5
4F4
330
1F
100
AcDbEntity
  8
LAY-1
  6
CONTINUOUS
 62
     3
100
AcDbCircle
 10
727.1040764008998
 20
978.4959235992002
 30
0.0
 40
6.9175
  0
LINE
  5
4F5
330
1F
100
AcDbEntity
  8
LAY-1
  6
CONTINUOUS
 62
     3
100
AcDbLine
 10
667.0
 20
961.1
 30
0.0
 11
728.4999999999999
 21
961.1
 31
0.0
  0
LINE
  5
4F6
330
1F
100
AcDbEntity
  8
LAY-1
  6
CONTINUOUS
 62
     3
100
AcDbLine
 10
667.0
 20
1116.1
 30
0.0
 11
728.4999999999999
 21
1116.1
 31
0.0
  0
LINE
  5
4F7
330
1F
100
AcDbEntity
  8
LAY-1
  6
CONTINUOUS
 62
     3
100
AcDbLine
 10
590.5
 20
1054.6
 30
0.0
 11
594.5
 21
1054.6
 31
0.0
  0
LINE
  5
4F8
330
1F
100
AcDbEntity
  8
LAY-1
  6
CONTINUOUS
 62
     3
100
AcDbLine
 10
590.5
 20
1022.6
 30
0.0
 11
594.5
 21
1022.6
 31
0.0
  0
ARC
  5
4F9
330
1F
100
AcDbEntity
  8
LAY-1
  6
CONTINUOUS
 62
     3
100
AcDbCircle
 10
608.5000000000011
 20
1049.6
 30
0.0
 40
6.0
100
AcDbArc
 50
0.0
 51
90.00000000000001
  0
ARC
  5
4FA
330
1F
100
AcDbEntity
  8
LAY-1
  6
CONTINUOUS
 62
     3
100
AcDbCircle
 10
608.5000000000011
 20
1027.6
 30
0.0
 40
6.0
100
AcDbArc
 50
270.0
 51
0.0
  0
LINE
  5
4FB
330
1F
100
AcDbEntity
  8
LAY-1
  6
CONTINUOUS
 62
     3
100
AcDbLine
 10
594.5
 20
1055.6
 30
0.0
 11
599.5
 21
1055.6
 31
0.0
  0
LINE
  5
4FC
330
1F
100
AcDbEntity
  8
LAY-1
  6
CONTINUOUS
 62
     3
100
AcDbLine
 10
594.5
 20
1011.6
 30
0.0
 11
599.5
 21
1011.6
 31
0.0
  0
LINE
  5
4FD
330
1F
100
AcDbEntity
  8
LAY-1
  6
CONTINUOUS
 62
     3
100
AcDbLine
 10
599.5
 20
984.6
 30
0.0
 11
594.5
 21
984.6
 31
0.0
  0
LINE
  5
4FE
330
1F
100
AcDbEntity
  8
LAY-1
  6
CONTINUOUS
 62
     3
100
AcDbLine
 10
599.5
 20
968.6
 30
0.0
 11
594.5
 21
968.6
 31
0.0
  0
LINE
  5
4FF
330
1F
100
AcDbEntity
  8
LAY-1
  6
CONTINUOUS
 62
     3
100
AcDbLine
 10
597.0978861853089
 20
968.6979635063348
 30
0.0
 11
597.0979168703648
 21
968.6978489882141
 31
0.0
  0
LINE
  5
500
330
1F
100
AcDbEntity
  8
LAY-1
  6
CONTINUOUS
 62
     3
100
AcDbLine
 10
597.0979493972768
 20
968.6979465689498
 30
0.0
 11
597.0978861853089
 21
968.6979635063348
 31
0.0
  0
LINE
  5
501
330
1F
100
AcDbEntity
  8
LAY-1
  6
CONTINUOUS
 62
     3
100
AcDbLine
 10
597.4634955172946
 20
968.6
 30
0.0
 11
610.4822454495913
 21
965.1116798727872
 31
0.0
  0
LINE
  5
502
330
1F
100
AcDbEntity
  8
LAY-1
  6
CONTINUOUS
 62
     3
100
AcDbLine
 10
603.3095826567255
 20
991.8801425768755
 30
0.0
 11
599.5
 21
988.0705599201502
 31
0.0
  0
ARC
  5
503
330
1F
100
AcDbEntity
  8
LAY-1
  6
CONTINUOUS
 62
     3
100
AcDbCircle
 10
606.8959250133134
 20
978.4959221849864
 30
0.0
 40
11.5
100
AcDbArc
 50
229.9748416942181
 51
130.025158305782
  0
ARC
  5
504
330
1F
100
AcDbEntity
  8
LAY-1
  6
CONTINUOUS
 62
     1
100
AcDbCircle
 10
606.8959235990999
 20
978.4959235992002
 30
0.0
 40
8.0
100
AcDbArc
 50
202.4083558044217
 51
157.5916441955784
  0
LINE
  5
505
330
1F
100
AcDbEntity
  8
LAY-1
  6
CONTINUOUS
 62
     3
100
AcDbLine
 10
589.5
 20
1100.1
 30
0.0
 11
589.5
 21
1048.414991830022
 31
0.0
  0
LINE
  5
506
330
1F
100
AcDbEntity
  8
LAY-1
  6
CONTINUOUS
 62
     3
100
AcDbLine
 10
589.5
 20
977.1
 30
0.0
 11
589.5
 21
1028.784884841914
 31
0.0
  0
LINE
  5
507
330
1F
100
AcDbEntity
  8
LAY-1
  6
CONTINUOUS
 62
     3
100
AcDbLine
 10
743.4999999999999
 20
1054.6
 30
0.0
 11
739.4999999999999
 21
1054.6
 31
0.0
  0
LINE
  5
508
330
1F
100
AcDbEntity
  8
LAY-1
  6
CONTINUOUS
 62
     3
100
AcDbLine
 10
743.4999999999999
 20
1022.6
 30
0.0
 11
739.4999999999999
 21
1022.6
 31
0.0
  0
ARC
  5
509
330
1F
100
AcDbEntity
  8
LAY-1
  6
CONTINUOUS
 62
     3
100
AcDbCircle
 10
725.4999999999987
 20
1049.6
 30
0.0
 40
6.0
100
AcDbArc
 50
90.00000000000001
 51
180.0
  0
ARC
  5
50A
330
1F
100
AcDbEntity
  8
LAY-1
  6
CONTINUOUS
 62
     3
100
AcDbCircle
 10
725.4999999999987
 20
1027.6
 30
0.0
 40
6.0
100
AcDbArc
 50
180.0
 51
270.0
  0
LINE
  5
50B
330
1F
100
AcDbEntity
  8
LAY-1
  6
CONTINUOUS
 62
     3
100
AcDbLine
 10
739.4999999999999
 20
1055.6
 30
0.0
 11
734.4999999999999
 21
1055.6
 31
0.0
  0
LINE
  5
50C
330
1F
100
AcDbEntity
  8
LAY-1
  6
CONTINUOUS
 62
     3
100
AcDbLine
 10
739.4999999999999
 20
1011.6
 30
0.0
 11
734.4999999999999
 21
1011.6
 31
0.0
  0
LINE
  5
50D
330
1F
100
AcDbEntity
  8
LAY-1
  6
CONTINUOUS
 62
     3
100
AcDbLine
 10
734.4999999999999
 20
968.6
 30
0.0
 11
739.4999999999999
 21
968.6
 31
0.0
  0
LINE
  5
50E
330
1F
100
AcDbEntity
  8
LAY-1
  6
CONTINUOUS
 62
     3
100
AcDbLine
 10
736.9021138146909
 20
968.6979635063348
 30
0.0
 11
736.9020831296349
 21
968.6978489882141
 31
0.0
  0
LINE
  5
50F
330
1F
100
AcDbEntity
  8
LAY-1
  6
CONTINUOUS
 62
     3
100
AcDbLine
 10
736.902050602723
 20
968.6979465689498
 30
0.0
 11
736.9021138146909
 21
968.6979635063348
 31
0.0
  0
LINE
  5
510
330
1F
100
AcDbEntity
  8
LAY-1
  6
CONTINUOUS
 62
     3
100
AcDbLine
 10
734.4999999999999
 20
968.6
 30
0.0
 11
734.4999999999999
 21
988.081851445908
 31
0.0
  0
LINE
  5
511
330
1F
100
AcDbEntity
  8
LAY-1
  6
CONTINUOUS
 62
     3
100
AcDbLine
 10
739.4999999999999
 20
968.6
 30
0.0
 11
739.4999999999999
 21
985.1951000999599
 31
0.0
  0
LINE
  5
512
330
1F
100
AcDbEntity
  8
LAY-1
  6
CONTINUOUS
 62
     3
100
AcDbLine
 10
717.3060887640478
 20
988.2939734614489
 30
0.0
 11
728.7989346135374
 21
991.3733630814496
 31
0.0
  0
LINE
  5
513
330
1F
100
AcDbEntity
  8
LAY-1
  6
CONTINUOUS
 62
     3
100
AcDbLine
 10
730.6903985634686
 20
991.8801613566812
 30
0.0
 11
730.6904498701864
 21
991.8801751037876
 31
0.0
  0
LINE
  5
514
330
1F
100
AcDbEntity
  8
LAY-1
  6
CONTINUOUS
 62
     3
100
AcDbLine
 10
739.4999999999999
 20
983.07055992015
 30
0.0
 11
740.4883816456025
 21
982.0821782745473
 31
0.0
  0
LINE
  5
515
330
1F
100
AcDbEntity
  8
LAY-1
  6
CONTINUOUS
 62
     3
100
AcDbLine
 10
740.4884141725146
 20
982.0822108014592
 30
0.0
 11
739.4999999999999
 21
978.3934010546453
 31
0.0
  0
LINE
  5
516
330
1F
100
AcDbEntity
  8
LAY-1
  6
CONTINUOUS
 62
     3
100
AcDbLine
 10
736.9021138146909
 20
968.6979635063348
 30
0.0
 11
736.9020831296349
 21
968.6978489882141
 31
0.0
  0
LINE
  5
517
330
1F
100
AcDbEntity
  8
LAY-1
  6
CONTINUOUS
 62
     3
100
AcDbLine
 10
734.4732839632093
 20
988.0972759569405
 30
0.0
 11
734.4999999999999
 21
988.07055992015
 31
0.0
  0
ARC
  5
518
330
1F
100
AcDbEntity
  8
LAY-1
  6
CONTINUOUS
 62
     3
100
AcDbCircle
 10
727.1040749866862
 20
978.4959221849864
 30
0.0
 40
11.5
100
AcDbArc
 50
49.97484169421752
 51
310.0251583057826
  0
LINE
  5
519
330
1F
100
AcDbEntity
  8
LAY-1
  6
CONTINUOUS
 62
     3
100
AcDbLine
 10
744.4999999999999
 20
1100.1
 30
0.0
 11
744.4999999999999
 21
1048.414991830022
 31
0.0
  0
LINE
  5
51A
330
1F
100
AcDbEntity
  8
LAY-1
  6
CONTINUOUS
 62
     3
100
AcDbLine
 10
604.0
 20
1234.0
 30
0.0
 11
604.0
 21
1232.0
 31
0.0
  0
LINE
  5
51B
330
1F
100
AcDbEntity
  8
LAY-1
  6
CONTINUOUS
 62
     3
100
AcDbLine
 10
666.9999999999998
 20
1232.0
 30
0.0
 11
574.5
 21
1232.0
 31
0.0
  0
LINE
  5
51C
330
1F
100
AcDbEntity
  8
LAY-1
  6
CONTINUOUS
 62
     3
100
AcDbLine
 10
666.9999999999998
 20
1234.0
 30
0.0
 11
604.0
 21
1234.0
 31
0.0
  0
LINE
  5
51D
330
1F
100
AcDbEntity
  8
LAY-1
  6
CONTINUOUS
 62
     3
100
AcDbLine
 10
621.5
 20
1196.0
 30
0.0
 11
619.3035009774901
 21
1208.551422985771
 31
0.0
  0
ARC
  5
51E
330
1F
100
AcDbEntity
  8
LAY-1
  6
CONTINUOUS
 62
     3
100
AcDbCircle
 10
610.4382267730889
 20
1207.0
 30
0.0
 40
9.0
100
AcDbArc
 50
9.926245506652682
 51
90.00000000000001
  0
LINE
  5
51F
330
1F
100
AcDbEntity
  8
LAY-1
  6
CONTINUOUS
 62
     3
100
AcDbLine
 10
729.9999999999999
 20
1234.0
 30
0.0
 11
729.9999999999999
 21
1232.0
 31
0.0
  0
LINE
  5
520
330
1F
100
AcDbEntity
  8
LAY-1
  6
CONTINUOUS
 62
     3
100
AcDbLine
 10
667.0
 20
1232.0
 30
0.0
 11
759.4999999999999
 21
1232.0
 31
0.0
  0
LINE
  5
521
330
1F
100
AcDbEntity
  8
LAY-1
  6
CONTINUOUS
 62
     3
100
AcDbLine
 10
667.0
 20
1234.0
 30
0.0
 11
729.9999999999999
 21
1234.0
 31
0.0
  0
LINE
  5
522
330
1F
100
AcDbEntity
  8
LAY-1
  6
CONTINUOUS
 62
     3
100
AcDbLine
 10
712.4999999999999
 20
1196.0
 30
0.0
 11
714.6964990225097
 21
1208.551422985771
 31
0.0
  0
ARC
  5
523
330
1F
100
AcDbEntity
  8
LAY-1
  6
CONTINUOUS
 62
     3
100
AcDbCircle
 10
723.561773226911
 20
1207.0
 30
0.0
 40
9.0
100
AcDbArc
 50
90.00000000000001
 51
170.0737544933474
  0
LINE
  5
524
330
1F
100
AcDbEntity
  8
LAY-1
  6
CONTINUOUS
 62
     3
100
AcDbLine
 10
604.0
 20
904.0000000000001
 30
0.0
 11
604.0
 21
906.0000000000003
 31
0.0
  0
LINE
  5
525
330
1F
100
AcDbEntity
  8
LAY-1
  6
CONTINUOUS
 62
     3
100
AcDbLine
 10
666.9999999999998
 20
906.0000000000003
 30
0.0
 11
574.5
 21
906.0000000000003
 31
0.0
  0
LINE
  5
526
330
1F
100
AcDbEntity
  8
LAY-1
  6
CONTINUOUS
 62
     3
100
AcDbLine
 10
666.9999999999998
 20
904.0000000000001
 30
0.0
 11
604.0
 21
904.0000000000001
 31
0.0
  0
LINE
  5
527
330
1F
100
AcDbEntity
  8
LAY-1
  6
CONTINUOUS
 62
     3
100
AcDbLine
 10
621.5
 20
942.0000000000001
 30
0.0
 11
619.3035009774901
 21
929.4485770142297
 31
0.0
  0
ARC
  5
528
330
1F
100
AcDbEntity
  8
LAY-1
  6
CONTINUOUS
 62
     3
100
AcDbCircle
 10
610.4382267730889
 20
931.0000000000001
 30
0.0
 40
9.0
100
AcDbArc
 50
270.0
 51
350.0737544933481
  0
LINE
  5
529
330
1F
100
AcDbEntity
  8
LAY-1
  6
CONTINUOUS
 62
     3
100
AcDbLine
 10
729.9999999999999
 20
904.0000000000001
 30
0.0
 11
729.9999999999999
 21
906.0000000000003
 31
0.0
  0
LINE
  5
52A
330
1F
100
AcDbEntity
  8
LAY-1
  6
CONTINUOUS
 62
     3
100
AcDbLine
 10
667.0
 20
906.0000000000003
 30
0.0
 11
759.4999999999999
 21
906.0000000000003
 31
0.0
  0
LINE
  5
52B
330
1F
100
AcDbEntity
  8
LAY-1
  6
CONTINUOUS
 62
     3
100
AcDbLine
 10
667.0
 20
904.0000000000001
 30
0.0
 11
729.9999999999999
 21
904.0000000000001
 31
0.0
  0
LINE
  5
52C
330
1F
100
AcDbEntity
  8
LAY-1
  6
CONTINUOUS
 62
     3
100
AcDbLine
 10
712.4999999999999
 20
942.0000000000001
 30
0.0
 11
714.6964990225097
 21
929.4485770142297
 31
0.0
  0
ARC
  5
52D
330
1F
100
AcDbEntity
  8
LAY-1
  6
CONTINUOUS
 62
     3
100
AcDbCircle
 10
723.561773226911
 20
931.0000000000001
 30
0.0
 40
9.0
100
AcDbArc
 50
189.926245506652
 51
270.0
  0
LINE
  5
52E
330
1F
100
AcDbEntity
  8
LAY-1
  6
CONTINUOUS
 62
     3
100
AcDbLine
 10
589.5
 20
1100.1
 30
0.0
 11
589.5
 21
1048.414991830022
 31
0.0
  0
LINE
  5
52F
330
1F
100
AcDbEntity
  8
LAY-1
  6
CONTINUOUS
 62
     3
100
AcDbLine
 10
589.5
 20
977.1
 30
0.0
 11
589.5
 21
1028.784884841914
 31
0.0
  0
LINE
  5
530
330
1F
100
AcDbEntity
  8
LAY-1
  6
CONTINUOUS
 62
     3
100
AcDbLine
 10
474.9999849999999
 20
1079.392258
 30
0.0
 11
474.9999849999999
 21
1058.607635
 31
0.0
  0
LINE
  5
531
330
1F
100
AcDbEntity
  8
LAY-1
  6
CONTINUOUS
 62
     3
100
AcDbLine
 10
438.9999849999999
 20
1058.607773
 30
0.0
 11
438.9999849999999
 21
1079.392258
 31
0.0
  0
LINE
  5
532
330
1F
100
AcDbEntity
  8
LAY-1
  6
CONTINUOUS
 62
     3
100
AcDbLine
 10
457.0000459999997
 20
1089.784775
 30
0.0
 11
438.9999849999999
 21
1079.392258
 31
0.0
  0
LINE
  5
533
330
1F
100
AcDbEntity
  8
LAY-1
  6
CONTINUOUS
 62
     3
100
AcDbLine
 10
457.0000459999997
 20
1089.784775
 30
0.0
 11
475.0000459999997
 21
1079.392258
 31
0.0
  0
LINE
  5
534
330
1F
100
AcDbEntity
  8
LAY-1
  6
CONTINUOUS
 62
     3
100
AcDbLine
 10
475.0000459999997
 20
1058.607635
 30
0.0
 11
456.9999239999997
 21
1048.215256
 31
0.0
  0
LINE
  5
535
330
1F
100
AcDbEntity
  8
LAY-1
  6
CONTINUOUS
 62
     3
100
AcDbLine
 10
456.9999849999999
 20
1048.215393
 30
0.0
 11
438.9999849999999
 21
1058.607773
 31
0.0
  0
CIRCLE
  5
536
330
1F
100
AcDbEntity
  8
LAY-1
  6
CONTINUOUS
 62
     3
100
AcDbCircle
 10
456.9999999999998
 20
1069.0
 30
0.0
 40
17.0
  0
CIRCLE
  5
537
330
1F
100
AcDbEntity
  8
LAY-1
  6
CONTINUOUS
 62
     3
100
AcDbCircle
 10
457.0
 20
1069.0
 30
0.0
 40
27.5
  0
ARC
  5
538
330
1F
100
AcDbEntity
  8
LAY-1
  6
CONTINUOUS
 62
     3
100
AcDbCircle
 10
470.0
 20
1096.590759322643
 30
0.0
 40
3.0
100
AcDbArc
 50
180.0
 51
244.7714878833062
  0
LINE
  5
539
330
1F
100
AcDbEntity
  8
LAY-1
  6
CONTINUOUS
 62
     3
100
AcDbLine
 10
479.5
 20
1173.0
 30
0.0
 11
479.5
 21
1084.811388300842
 31
0.0
  0
LINE
  5
53A
330
1F
100
AcDbEntity
  8
LAY-1
  6
CONTINUOUS
 62
     3
100
AcDbLine
 10
457.0
 20
1175.0
 30
0.0
 11
477.5
 21
1175.0
 31
0.0
  0
ARC
  5
53B
330
1F
100
AcDbEntity
  8
LAY-1
  6
CONTINUOUS
 62
     3
100
AcDbCircle
 10
477.5
 20
1173.0
 30
0.0
 40
2.0
100
AcDbArc
 50
0.0
 51
90.00000000000001
  0
LINE
  5
53C
330
1F
100
AcDbEntity
  8
LAY-1
  6
CONTINUOUS
 62
     3
100
AcDbLine
 10
467.0
 20
1172.2
 30
0.0
 11
467.0
 21
1096.590759322643
 31
0.0
  0
ARC
  5
53D
330
1F
100
AcDbEntity
  8
LAY-1
  6
CONTINUOUS
 62
     3
100
AcDbCircle
 10
444.0
 20
1096.590759322643
 30
0.0
 40
3.0
100
AcDbArc
 50
295.2285121166939
 51
0.0
  0
LINE
  5
53E
330
1F
100
AcDbEntity
  8
LAY-1
  6
CONTINUOUS
 62
     3
100
AcDbLine
 10
434.5
 20
1173.0
 30
0.0
 11
434.5
 21
1084.811388300842
 31
0.0
  0
LINE
  5
53F
330
1F
100
AcDbEntity
  8
LAY-1
  6
CONTINUOUS
 62
     3
100
AcDbLine
 10
457.0
 20
1175.0
 30
0.0
 11
436.5
 21
1175.0
 31
0.0
  0
ARC
  5
540
330
1F
100
AcDbEntity
  8
LAY-1
  6
CONTINUOUS
 62
     3
100
AcDbCircle
 10
436.5
 20
1173.0
 30
0.0
 40
2.0
100
AcDbArc
 50
90.00000000000001
 51
180.0
  0
LINE
  5
541
330
1F
100
AcDbEntity
  8
LAY-1
  6
CONTINUOUS
 62
     3
100
AcDbLine
 10
447.0
 20
1172.2
 30
0.0
 11
447.0
 21
1096.590759322643
 31
0.0
  0
ARC
  5
542
330
1F
100
AcDbEntity
  8
LAY-1
  6
CONTINUOUS
 62
     3
100
AcDbCircle
 10
470.0
 20
1041.409240677358
 30
0.0
 40
3.0
100
AcDbArc
 50
115.2285121166939
 51
180.0
  0
LINE
  5
543
330
1F
100
AcDbEntity
  8
LAY-1
  6
CONTINUOUS
 62
     3
100
AcDbLine
 10
479.5
 20
965.0000000000001
 30
0.0
 11
479.5
 21
1053.188611699158
 31
0.0
  0
LINE
  5
544
330
1F
100
AcDbEntity
  8
LAY-1
  6
CONTINUOUS
 62
     3
100
AcDbLine
 10
457.0
 20
963.0000000000001
 30
0.0
 11
477.5
 21
963.0000000000001
 31
0.0
  0
ARC
  5
545
330
1F
100
AcDbEntity
  8
LAY-1
  6
CONTINUOUS
 62
     3
100
AcDbCircle
 10
477.5
 20
965.0000000000001
 30
0.0
 40
2.0
100
AcDbArc
 50
270.0
 51
0.0
  0
LINE
  5
546
330
1F
100
AcDbEntity
  8
LAY-1
  6
CONTINUOUS
 62
     3
100
AcDbLine
 10
467.0
 20
965.8000000000003
 30
0.0
 11
467.0
 21
1041.409240677358
 31
0.0
  0
ARC
  5
547
330
1F
100
AcDbEntity
  8
LAY-1
  6
CONTINUOUS
 62
     3
100
AcDbCircle
 10
444.0
 20
1041.409240677358
 30
0.0
 40
3.0
100
AcDbArc
 50
0.0
 51
64.77148788330614
  0
LINE
  5
548
330
1F
100
AcDbEntity
  8
LAY-1
  6
CONTINUOUS
 62
     3
100
AcDbLine
 10
434.5
 20
965.0000000000001
 30
0.0
 11
434.5
 21
1053.188611699158
 31
0.0
  0
LINE
  5
549
330
1F
100
AcDbEntity
  8
LAY-1
  6
CONTINUOUS
 62
     3
100
AcDbLine
 10
457.0
 20
963.0000000000001
 30
0.0
 11
436.5
 21
963.0000000000001
 31
0.0
  0
ARC
  5
54A
330
1F
100
AcDbEntity
  8
LAY-1
  6
CONTINUOUS
 62
     3
100
AcDbCircle
 10
436.5
 20
965.0000000000001
 30
0.0
 40
2.0
100
AcDbArc
 50
180.0
 51
270.0
  0
LINE
  5
54B
330
1F
100
AcDbEntity
  8
LAY-1
  6
CONTINUOUS
 62
     3
100
AcDbLine
 10
447.0
 20
965.8000000000003
 30
0.0
 11
447.0
 21
1041.409240677358
 31
0.0
  0
ARC
  5
54C
330
1F
100
AcDbEntity
  8
LAY-1
  6
CONTINUOUS
 62
     3
100
AcDbCircle
 10
457.0
 20
1069.0
 30
0.0
 40
72.5
100
AcDbArc
 50
108.0800126244252
 51
251.9199873755748
  0
LINE
  5
54D
330
1F
100
AcDbEntity
  8
LAY-1
  6
CONTINUOUS
 62
     3
100
AcDbLine
 10
434.5
 20
1088.129713894655
 30
0.0
 11
408.6799326658129
 21
1084.651746001532
 31
0.0
  0
LINE
  5
54E
330
1F
100
AcDbEntity
  8
LAY-1
  6
CONTINUOUS
 62
     3
100
AcDbLine
 10
434.5
 20
1049.870286105345
 30
0.0
 11
408.6799326658129
 21
1053.348253998468
 31
0.0
  0
ARC
  5
54F
330
1F
100
AcDbEntity
  8
LAY-1
  6
CONTINUOUS
 62
     3
100
AcDbCircle
 10
412.0
 20
1069.0
 30
0.0
 40
16.0
100
AcDbArc
 50
90.00000000000001
 51
270.0
  0
ARC
  5
550
330
1F
100
AcDbEntity
  8
LAY-1
  6
CONTINUOUS
 62
     3
100
AcDbCircle
 10
559.5
 20
1153.0
 30
0.0
 40
2.0
100
AcDbArc
 50
90.00000000000001
 51
180.0
  0
LINE
  5
551
330
1F
100
AcDbEntity
  8
LAY-1
  6
CONTINUOUS
 62
     3
100
AcDbLine
 10
546.3000965999997
 20
1128.8500322
 30
0.0
 11
546.3000965999997
 21
1149.1500322
 31
0.0
  0
LINE
  5
552
330
1F
100
AcDbEntity
  8
LAY-1
  6
CONTINUOUS
 62
     3
100
AcDbLine
 10
547.4400528999997
 20
1126.8755569
 30
0.0
 11
546.3000965999997
 21
1128.8500322
 31
0.0
  0
ARC
  5
553
330
1F
100
AcDbEntity
  8
LAY-1
  6
CONTINUOUS
 62
     3
100
AcDbCircle
 10
562.9884031999998
 20
1139.0
 30
0.0
 40
16.688406
100
AcDbArc
 50
158.6997011603734
 51
201.3000872566023
  0
ARC
  5
554
330
1F
100
AcDbEntity
  8
LAY-1
  6
CONTINUOUS
 62
     3
100
AcDbCircle
 10
554.4196198999998
 20
1128.7889894
 30
0.0
 40
8.1197046
100
AcDbArc
 50
149.2710503879212
 51
179.569230481778
  0
LINE
  5
555
330
1F
100
AcDbEntity
  8
LAY-1
  6
CONTINUOUS
 62
     3
100
AcDbLine
 10
547.4400528999997
 20
1151.1245075
 30
0.0
 11
546.3000965999997
 21
1149.1500322
 31
0.0
  0
ARC
  5
556
330
1F
100
AcDbEntity
  8
LAY-1
  6
CONTINUOUS
 62
     3
100
AcDbCircle
 10
554.4196198999998
 20
1149.211075
 30
0.0
 40
8.1197046
100
AcDbArc
 50
180.4307122224431
 51
210.7289496120789
  0
LINE
  5
557
330
1F
100
AcDbEntity
  8
LAY-1
  6
CONTINUOUS
 62
     3
100
AcDbLine
 10
557.4999999999998
 20
1126.8755891
 30
0.0
 11
557.4999999999998
 21
1151.1244109
 31
0.0
  0
LINE
  5
558
330
1F
100
AcDbEntity
  8
LAY-1
  6
CONTINUOUS
 62
     3
100
AcDbLine
 10
547.4400528999997
 20
1126.8755569
 30
0.0
 11
557.4999999999998
 21
1126.8755891
 31
0.0
  0
LINE
  5
559
330
1F
100
AcDbEntity
  8
LAY-1
  6
CONTINUOUS
 62
     3
100
AcDbLine
 10
547.4400528999997
 20
1132.937923
 30
0.0
 11
557.4999362999997
 21
1132.9379552
 31
0.0
  0
LINE
  5
55A
330
1F
100
AcDbEntity
  8
LAY-1
  6
CONTINUOUS
 62
     3
100
AcDbLine
 10
547.4400528999997
 20
1145.0621414
 30
0.0
 11
557.4999362999997
 21
1145.0621736
 31
0.0
  0
LINE
  5
55B
330
1F
100
AcDbEntity
  8
LAY-1
  6
CONTINUOUS
 62
     3
100
AcDbLine
 10
547.4400528999997
 20
1151.1245075
 30
0.0
 11
557.4999999999998
 21
1151.1245397
 31
0.0
  0
LINE
  5
55C
330
1F
100
AcDbEntity
  8
LAY-1
  6
CONTINUOUS
 62
     3
100
AcDbLine
 10
542.0
 20
1133.7499678
 30
0.0
 11
542.0
 21
1144.2499678
 31
0.0
  0
LINE
  5
55D
330
1F
100
AcDbEntity
  8
LAY-1
  6
CONTINUOUS
 62
     3
100
AcDbLine
 10
543.75
 20
1145.9999678
 30
0.0
 11
542.0
 21
1144.2499678
 31
0.0
  0
LINE
  5
55E
330
1F
100
AcDbEntity
  8
LAY-1
  6
CONTINUOUS
 62
     3
100
AcDbLine
 10
543.7500104999999
 20
1131.9999573
 30
0.0
 11
543.75
 21
1145.9999678
 31
0.0
  0
LINE
  5
55F
330
1F
100
AcDbEntity
  8
LAY-1
  6
CONTINUOUS
 62
     3
100
AcDbLine
 10
543.75
 20
1131.9999678
 30
0.0
 11
542.0
 21
1133.7499678
 31
0.0
  0
LINE
  5
560
330
1F
100
AcDbEntity
  8
LAY-1
  6
CONTINUOUS
 62
     1
100
AcDbLine
 10
546.3000965999997
 20
1145.0528699
 30
0.0
 11
542.8029020999998
 21
1145.0528699
 31
0.0
  0
LINE
  5
561
330
1F
100
AcDbEntity
  8
LAY-1
  6
CONTINUOUS
 62
     1
100
AcDbLine
 10
546.3000965999997
 20
1132.9470657
 30
0.0
 11
542.8029020999998
 21
1132.9470657
 31
0.0
  0
LINE
  5
562
330
1F
100
AcDbEntity
  8
LAY-1
  6
CONTINUOUS
 62
     3
100
AcDbLine
 10
546.3000965999997
 20
1131.9999678
 30
0.0
 11
543.7499999999998
 21
1131.9999678
 31
0.0
  0
LINE
  5
563
330
1F
100
AcDbEntity
  8
LAY-1
  6
CONTINUOUS
 62
     3
100
AcDbLine
 10
546.3000965999997
 20
1145.9999678
 30
0.0
 11
543.7499999999998
 21
1145.9999678
 31
0.0
  0
LINE
  5
564
330
1F
100
AcDbEntity
  8
LAY-1
  6
CONTINUOUS
 62
     3
100
AcDbLine
 10
546.3000965999997
 20
1058.8500322
 30
0.0
 11
546.3000965999997
 21
1079.1500322
 31
0.0
  0
LINE
  5
565
330
1F
100
AcDbEntity
  8
LAY-1
  6
CONTINUOUS
 62
     3
100
AcDbLine
 10
547.4400528999997
 20
1056.8755569
 30
0.0
 11
546.3000965999997
 21
1058.8500322
 31
0.0
  0
ARC
  5
566
330
1F
100
AcDbEntity
  8
LAY-1
  6
CONTINUOUS
 62
     3
100
AcDbCircle
 10
562.9884031999998
 20
1069.0
 30
0.0
 40
16.688406
100
AcDbArc
 50
158.6997011603734
 51
201.3000872566023
  0
ARC
  5
567
330
1F
100
AcDbEntity
  8
LAY-1
  6
CONTINUOUS
 62
     3
100
AcDbCircle
 10
554.4196198999998
 20
1058.7889894
 30
0.0
 40
8.1197046
100
AcDbArc
 50
149.2710503879212
 51
179.569230481778
  0
LINE
  5
568
330
1F
100
AcDbEntity
  8
LAY-1
  6
CONTINUOUS
 62
     3
100
AcDbLine
 10
547.4400528999997
 20
1081.1245075
 30
0.0
 11
546.3000965999997
 21
1079.1500322
 31
0.0
  0
ARC
  5
569
330
1F
100
AcDbEntity
  8
LAY-1
  6
CONTINUOUS
 62
     3
100
AcDbCircle
 10
554.4196198999998
 20
1079.211075
 30
0.0
 40
8.1197046
100
AcDbArc
 50
180.4307122224431
 51
210.7289496120789
  0
LINE
  5
56A
330
1F
100
AcDbEntity
  8
LAY-1
  6
CONTINUOUS
 62
     3
100
AcDbLine
 10
557.4999999999998
 20
1056.8755891
 30
0.0
 11
557.4999999999998
 21
1081.1244109
 31
0.0
  0
LINE
  5
56B
330
1F
100
AcDbEntity
  8
LAY-1
  6
CONTINUOUS
 62
     3
100
AcDbLine
 10
547.4400528999997
 20
1056.8755569
 30
0.0
 11
557.4999999999998
 21
1056.8755891
 31
0.0
  0
LINE
  5
56C
330
1F
100
AcDbEntity
  8
LAY-1
  6
CONTINUOUS
 62
     3
100
AcDbLine
 10
547.4400528999997
 20
1062.937923
 30
0.0
 11
557.4999362999997
 21
1062.9379552
 31
0.0
  0
LINE
  5
56D
330
1F
100
AcDbEntity
  8
LAY-1
  6
CONTINUOUS
 62
     3
100
AcDbLine
 10
547.4400528999997
 20
1075.0621414
 30
0.0
 11
557.4999362999997
 21
1075.0621736
 31
0.0
  0
LINE
  5
56E
330
1F
100
AcDbEntity
  8
LAY-1
  6
CONTINUOUS
 62
     3
100
AcDbLine
 10
547.4400528999997
 20
1081.1245075
 30
0.0
 11
557.4999999999998
 21
1081.1245397
 31
0.0
  0
LINE
  5
56F
330
1F
100
AcDbEntity
  8
LAY-1
  6
CONTINUOUS
 62
     3
100
AcDbLine
 10
542.0
 20
1063.7499678
 30
0.0
 11
542.0
 21
1074.2499678
 31
0.0
  0
LINE
  5
570
330
1F
100
AcDbEntity
  8
LAY-1
  6
CONTINUOUS
 62
     3
100
AcDbLine
 10
543.75
 20
1075.9999678
 30
0.0
 11
542.0
 21
1074.2499678
 31
0.0
  0
LINE
  5
571
330
1F
100
AcDbEntity
  8
LAY-1
  6
CONTINUOUS
 62
     3
100
AcDbLine
 10
543.7500104999999
 20
1061.9999573
 30
0.0
 11
543.75
 21
1075.9999678
 31
0.0
  0
LINE
  5
572
330
1F
100
AcDbEntity
  8
LAY-1
  6
CONTINUOUS
 62
     3
100
AcDbLine
 10
543.75
 20
1061.9999678
 30
0.0
 11
542.0
 21
1063.7499678
 31
0.0
  0
LINE
  5
573
330
1F
100
AcDbEntity
  8
LAY-1
  6
CONTINUOUS
 62
     1
100
AcDbLine
 10
546.3000965999997
 20
1075.0528699
 30
0.0
 11
542.8029020999998
 21
1075.0528699
 31
0.0
  0
LINE
  5
574
330
1F
100
AcDbEntity
  8
LAY-1
  6
CONTINUOUS
 62
     1
100
AcDbLine
 10
546.3000965999997
 20
1062.9470657
 30
0.0
 11
542.8029020999998
 21
1062.9470657
 31
0.0
  0
LINE
  5
575
330
1F
100
AcDbEntity
  8
LAY-1
  6
CONTINUOUS
 62
     3
100
AcDbLine
 10
546.3000965999997
 20
1061.9999678
 30
0.0
 11
543.7499999999998
 21
1061.9999678
 31
0.0
  0
LINE
  5
576
330
1F
100
AcDbEntity
  8
LAY-1
  6
CONTINUOUS
 62
     3
100
AcDbLine
 10
546.3000965999997
 20
1075.9999678
 30
0.0
 11
543.7499999999998
 21
1075.9999678
 31
0.0
  0
LINE
  5
577
330
1F
100
AcDbEntity
  8
LAY-1
  6
CONTINUOUS
 62
     3
100
AcDbLine
 10
546.3000965999997
 20
1009.1499678
 30
0.0
 11
546.3000965999997
 21
988.8499678000004
 31
0.0
  0
LINE
  5
578
330
1F
100
AcDbEntity
  8
LAY-1
  6
CONTINUOUS
 62
     3
100
AcDbLine
 10
547.4400528999997
 20
1011.1244431
 30
0.0
 11
546.3000965999997
 21
1009.1499678
 31
0.0
  0
ARC
  5
579
330
1F
100
AcDbEntity
  8
LAY-1
  6
CONTINUOUS
 62
     3
100
AcDbCircle
 10
562.9884031999998
 20
999.0000000000001
 30
0.0
 40
16.688406
100
AcDbArc
 50
158.6999127433978
 51
201.3002988396266
  0
ARC
  5
57A
330
1F
100
AcDbEntity
  8
LAY-1
  6
CONTINUOUS
 62
     3
100
AcDbCircle
 10
554.4196198999998
 20
1009.2110106
 30
0.0
 40
8.1197046
100
AcDbArc
 50
180.4307695182221
 51
210.7289496120789
  0
LINE
  5
57B
330
1F
100
AcDbEntity
  8
LAY-1
  6
CONTINUOUS
 62
     3
100
AcDbLine
 10
547.4400528999997
 20
986.8754925000004
 30
0.0
 11
546.3000965999997
 21
988.8499678000004
 31
0.0
  0
ARC
  5
57C
330
1F
100
AcDbEntity
  8
LAY-1
  6
CONTINUOUS
 62
     3
100
AcDbCircle
 10
554.4196198999998
 20
988.7889250000004
 30
0.0
 40
8.1197046
100
AcDbArc
 50
149.2710503879212
 51
179.569287777557
  0
LINE
  5
57D
330
1F
100
AcDbEntity
  8
LAY-1
  6
CONTINUOUS
 62
     3
100
AcDbLine
 10
557.4999999999998
 20
1011.1244109
 30
0.0
 11
557.4999999999998
 21
986.8755891000002
 31
0.0
  0
LINE
  5
57E
330
1F
100
AcDbEntity
  8
LAY-1
  6
CONTINUOUS
 62
     3
100
AcDbLine
 10
547.4400528999997
 20
1011.1244431
 30
0.0
 11
557.4999999999998
 21
1011.1244109
 31
0.0
  0
LINE
  5
57F
330
1F
100
AcDbEntity
  8
LAY-1
  6
CONTINUOUS
 62
     3
100
AcDbLine
 10
547.4400528999997
 20
1005.062077
 30
0.0
 11
557.4999362999997
 21
1005.0620448
 31
0.0
  0
LINE
  5
580
330
1F
100
AcDbEntity
  8
LAY-1
  6
CONTINUOUS
 62
     3
100
AcDbLine
 10
547.4400528999997
 20
992.9378586000004
 30
0.0
 11
557.4999362999997
 21
992.9378264000003
 31
0.0
  0
LINE
  5
581
330
1F
100
AcDbEntity
  8
LAY-1
  6
CONTINUOUS
 62
     3
100
AcDbLine
 10
547.4400528999997
 20
986.8754925000004
 30
0.0
 11
557.4999999999998
 21
986.8754603000003
 31
0.0
  0
LINE
  5
582
330
1F
100
AcDbEntity
  8
LAY-1
  6
CONTINUOUS
 62
     3
100
AcDbLine
 10
542.0
 20
1004.2500322
 30
0.0
 11
542.0
 21
993.7500322000002
 31
0.0
  0
LINE
  5
583
330
1F
100
AcDbEntity
  8
LAY-1
  6
CONTINUOUS
 62
     3
100
AcDbLine
 10
543.75
 20
992.0000322000002
 30
0.0
 11
542.0
 21
993.7500322000002
 31
0.0
  0
LINE
  5
584
330
1F
100
AcDbEntity
  8
LAY-1
  6
CONTINUOUS
 62
     3
100
AcDbLine
 10
543.7500104999999
 20
1006.0000427
 30
0.0
 11
543.75
 21
992.0000322000002
 31
0.0
  0
LINE
  5
585
330
1F
100
AcDbEntity
  8
LAY-1
  6
CONTINUOUS
 62
     3
100
AcDbLine
 10
543.75
 20
1006.0000322
 30
0.0
 11
542.0
 21
1004.2500322
 31
0.0
  0
LINE
  5
586
330
1F
100
AcDbEntity
  8
LAY-1
  6
CONTINUOUS
 62
     1
100
AcDbLine
 10
546.3000965999997
 20
992.9471301
 30
0.0
 11
542.8029020999998
 21
992.9471301
 31
0.0
  0
LINE
  5
587
330
1F
100
AcDbEntity
  8
LAY-1
  6
CONTINUOUS
 62
     1
100
AcDbLine
 10
546.3000965999997
 20
1005.0529343
 30
0.0
 11
542.8029020999998
 21
1005.0529343
 31
0.0
  0
LINE
  5
588
330
1F
100
AcDbEntity
  8
LAY-1
  6
CONTINUOUS
 62
     3
100
AcDbLine
 10
546.3000965999997
 20
1006.0000322
 30
0.0
 11
543.7499999999998
 21
1006.0000322
 31
0.0
  0
LINE
  5
589
330
1F
100
AcDbEntity
  8
LAY-1
  6
CONTINUOUS
 62
     3
100
AcDbLine
 10
546.3000965999997
 20
992.0000322000002
 30
0.0
 11
543.7499999999998
 21
992.0000322000002
 31
0.0
  0
ARC
  5
58A
330
1F
100
AcDbEntity
  8
LAY-1
  6
CONTINUOUS
 62
     3
100
AcDbCircle
 10
559.5
 20
985.0000000000001
 30
0.0
 40
2.0
100
AcDbArc
 50
180.0
 51
270.0
  0
LINE
  5
58B
330
1F
100
AcDbEntity
  8
LAY-1
  6
CONTINUOUS
 62
     3
100
AcDbLine
 10
554.5
 20
1116.449999999999
 30
0.0
 11
511.8155771656202
 21
1116.449999999999
 31
0.0
  0
ARC
  5
58C
330
1F
100
AcDbEntity
  8
LAY-1
  6
CONTINUOUS
 62
     3
100
AcDbCircle
 10
554.5
 20
1119.449999999999
 30
0.0
 40
3.0
100
AcDbArc
 50
270.0
 51
0.0
  0
LINE
  5
58D
330
1F
100
AcDbEntity
  8
LAY-1
  6
CONTINUOUS
 62
     3
100
AcDbLine
 10
554.5
 20
1021.550000000001
 30
0.0
 11
511.8155771656202
 21
1021.550000000001
 31
0.0
  0
ARC
  5
58E
330
1F
100
AcDbEntity
  8
LAY-1
  6
CONTINUOUS
 62
     3
100
AcDbCircle
 10
554.5
 20
1018.550000000001
 30
0.0
 40
3.0
100
AcDbArc
 50
0.0
 51
90.00000000000001
  0
ARC
  5
58F
330
1F
100
AcDbEntity
  8
LAY-1
  6
CONTINUOUS
 62
     3
100
AcDbCircle
 10
385.9999999999998
 20
1094.5
 30
0.0
 40
3.0
100
AcDbArc
 50
270.0
 51
0.0
  0
LINE
  5
590
330
1F
100
AcDbEntity
  8
LAY-1
  6
CONTINUOUS
 62
     3
100
AcDbLine
 10
376.9999999999998
 20
1091.5
 30
0.0
 11
376.9999999999998
 21
1046.5
 31
0.0
  0
LINE
  5
591
330
1F
100
AcDbEntity
  8
LAY-1
  6
CONTINUOUS
 62
     3
100
AcDbLine
 10
385.9999999999998
 20
1091.5
 30
0.0
 11
376.9999999999998
 21
1091.5
 31
0.0
  0
LINE
  5
592
330
1F
100
AcDbEntity
  8
LAY-1
  6
CONTINUOUS
 62
     3
100
AcDbLine
 10
359.5299999999997
 20
1081.0
 30
0.0
 11
371.9999999999998
 21
1081.0
 31
0.0
  0
LINE
  5
593
330
1F
100
AcDbEntity
  8
LAY-1
  6
CONTINUOUS
 62
     3
100
AcDbLine
 10
359.5299999999997
 20
1081.0
 30
0.0
 11
359.5299999999997
 21
1069.0
 31
0.0
  0
LINE
  5
594
330
1F
100
AcDbEntity
  8
LAY-1
  6
CONTINUOUS
 62
     1
100
AcDbLine
 10
359.5299999999997
 20
1081.0
 30
0.0
 11
371.9999999999998
 21
1069.0
 31
0.0
  0
LINE
  5
595
330
1F
100
AcDbEntity
  8
LAY-1
  6
CONTINUOUS
 62
     1
100
AcDbLine
 10
359.5299999999997
 20
1069.0
 30
0.0
 11
371.9999999999998
 21
1081.0
 31
0.0
  0
LINE
  5
596
330
1F
100
AcDbEntity
  8
LAY-1
  6
CONTINUOUS
 62
     3
100
AcDbLine
 10
359.5299999999997
 20
1057.0
 30
0.0
 11
371.9999999999998
 21
1057.0
 31
0.0
  0
LINE
  5
597
330
1F
100
AcDbEntity
  8
LAY-1
  6
CONTINUOUS
 62
     3
100
AcDbLine
 10
359.5299999999997
 20
1057.0
 30
0.0
 11
359.5299999999997
 21
1069.0
 31
0.0
  0
LINE
  5
598
330
1F
100
AcDbEntity
  8
LAY-1
  6
CONTINUOUS
 62
     1
100
AcDbLine
 10
359.5299999999997
 20
1057.0
 30
0.0
 11
371.9999999999998
 21
1069.0
 31
0.0
  0
LINE
  5
599
330
1F
100
AcDbEntity
  8
LAY-1
  6
CONTINUOUS
 62
     1
100
AcDbLine
 10
359.5299999999997
 20
1069.0
 30
0.0
 11
371.9999999999998
 21
1057.0
 31
0.0
  0
LINE
  5
59A
330
1F
100
AcDbEntity
  8
LAY-1
  6
CONTINUOUS
 62
     3
100
AcDbLine
 10
371.9999999999998
 20
1055.7795
 30
0.0
 11
371.9999999999998
 21
1082.2205
 31
0.0
  0
LINE
  5
59B
330
1F
100
AcDbEntity
  8
LAY-1
  6
CONTINUOUS
 62
     3
100
AcDbLine
 10
376.9999999999998
 20
1082.045896152541
 30
0.0
 11
371.9999999999998
 21
1082.2205
 31
0.0
  0
LINE
  5
59C
330
1F
100
AcDbEntity
  8
LAY-1
  6
CONTINUOUS
 62
     1
100
AcDbLine
 10
376.9999999999995
 20
1080.883187862066
 30
0.0
 11
372.0
 21
1081.057791709525
 31
0.0
  0
LINE
  5
59D
330
1F
100
AcDbEntity
  8
LAY-1
  6
CONTINUOUS
 62
     1
100
AcDbLine
 10
376.9999999999998
 20
1057.116812137934
 30
0.0
 11
372.0
 21
1056.942208290475
 31
0.0
  0
LINE
  5
59E
330
1F
100
AcDbEntity
  8
LAY-1
  6
CONTINUOUS
 62
     3
100
AcDbLine
 10
377.0405532151681
 20
1055.955519996938
 30
0.0
 11
371.9999999999998
 21
1055.7795
 31
0.0
  0
ARC
  5
59F
330
1F
100
AcDbEntity
  8
LAY-1
  6
CONTINUOUS
 62
     3
100
AcDbCircle
 10
385.9999999999998
 20
1043.5
 30
0.0
 40
3.0
100
AcDbArc
 50
0.0
 51
90.00000000000001
  0
LINE
  5
5A0
330
1F
100
AcDbEntity
  8
LAY-1
  6
CONTINUOUS
 62
     3
100
AcDbLine
 10
385.9999999999998
 20
1046.5
 30
0.0
 11
376.9999999999998
 21
1046.5
 31
0.0
  0
LINE
  5
5A1
330
1F
100
AcDbEntity
  8
LAY-1
  6
CONTINUOUS
 62
     3
100
AcDbLine
 10
859.000015
 20
1079.392258
 30
0.0
 11
859.000015
 21
1058.607635
 31
0.0
  0
LINE
  5
5A2
330
1F
100
AcDbEntity
  8
LAY-1
  6
CONTINUOUS
 62
     3
100
AcDbLine
 10
895.000015
 20
1058.607773
 30
0.0
 11
895.000015
 21
1079.392258
 31
0.0
  0
LINE
  5
5A3
330
1F
100
AcDbEntity
  8
LAY-1
  6
CONTINUOUS
 62
     3
100
AcDbLine
 10
876.999954
 20
1089.784775
 30
0.0
 11
895.000015
 21
1079.392258
 31
0.0
  0
LINE
  5
5A4
330
1F
100
AcDbEntity
  8
LAY-1
  6
CONTINUOUS
 62
     3
100
AcDbLine
 10
876.999954
 20
1089.784775
 30
0.0
 11
858.999954
 21
1079.392258
 31
0.0
  0
LINE
  5
5A5
330
1F
100
AcDbEntity
  8
LAY-1
  6
CONTINUOUS
 62
     3
100
AcDbLine
 10
858.999954
 20
1058.607635
 30
0.0
 11
877.000076
 21
1048.215256
 31
0.0
  0
LINE
  5
5A6
330
1F
100
AcDbEntity
  8
LAY-1
  6
CONTINUOUS
 62
     3
100
AcDbLine
 10
877.000015
 20
1048.215393
 30
0.0
 11
895.000015
 21
1058.607773
 31
0.0
  0
CIRCLE
  5
5A7
330
1F
100
AcDbEntity
  8
LAY-1
  6
CONTINUOUS
 62
     3
100
AcDbCircle
 10
877.0
 20
1069.0
 30
0.0
 40
17.0
  0
CIRCLE
  5
5A8
330
1F
100
AcDbEntity
  8
LAY-1
  6
CONTINUOUS
 62
     3
100
AcDbCircle
 10
876.9999999999999
 20
1069.0
 30
0.0
 40
27.5
  0
ARC
  5
5A9
330
1F
100
AcDbEntity
  8
LAY-1
  6
CONTINUOUS
 62
     3
100
AcDbCircle
 10
863.9999999999999
 20
1096.590759322643
 30
0.0
 40
3.0
100
AcDbArc
 50
295.2285121166939
 51
0.0
  0
LINE
  5
5AA
330
1F
100
AcDbEntity
  8
LAY-1
  6
CONTINUOUS
 62
     3
100
AcDbLine
 10
854.4999999999999
 20
1173.0
 30
0.0
 11
854.4999999999999
 21
1084.811388300842
 31
0.0
  0
LINE
  5
5AB
330
1F
100
AcDbEntity
  8
LAY-1
  6
CONTINUOUS
 62
     3
100
AcDbLine
 10
876.9999999999999
 20
1175.0
 30
0.0
 11
856.4999999999999
 21
1175.0
 31
0.0
  0
ARC
  5
5AC
330
1F
100
AcDbEntity
  8
LAY-1
  6
CONTINUOUS
 62
     3
100
AcDbCircle
 10
856.4999999999999
 20
1173.0
 30
0.0
 40
2.0
100
AcDbArc
 50
90.00000000000001
 51
180.0
  0
LINE
  5
5AD
330
1F
100
AcDbEntity
  8
LAY-1
  6
CONTINUOUS
 62
     3
100
AcDbLine
 10
866.9999999999999
 20
1172.2
 30
0.0
 11
866.9999999999999
 21
1096.590759322643
 31
0.0
  0
ARC
  5
5AE
330
1F
100
AcDbEntity
  8
LAY-1
  6
CONTINUOUS
 62
     3
100
AcDbCircle
 10
889.9999999999999
 20
1096.590759322643
 30
0.0
 40
3.0
100
AcDbArc
 50
180.0
 51
244.7714878833062
  0
LINE
  5
5AF
330
1F
100
AcDbEntity
  8
LAY-1
  6
CONTINUOUS
 62
     3
100
AcDbLine
 10
899.4999999999999
 20
1173.0
 30
0.0
 11
899.4999999999999
 21
1084.811388300842
 31
0.0
  0
LINE
  5
5B0
330
1F
100
AcDbEntity
  8
LAY-1
  6
CONTINUOUS
 62
     3
100
AcDbLine
 10
876.9999999999999
 20
1175.0
 30
0.0
 11
897.4999999999999
 21
1175.0
 31
0.0
  0
ARC
  5
5B1
330
1F
100
AcDbEntity
  8
LAY-1
  6
CONTINUOUS
 62
     3
100
AcDbCircle
 10
897.4999999999999
 20
1173.0
 30
0.0
 40
2.0
100
AcDbArc
 50
0.0
 51
90.00000000000001
  0
LINE
  5
5B2
330
1F
100
AcDbEntity
  8
LAY-1
  6
CONTINUOUS
 62
     3
100
AcDbLine
 10
886.9999999999999
 20
1172.2
 30
0.0
 11
886.9999999999999
 21
1096.590759322643
 31
0.0
  0
ARC
  5
5B3
330
1F
100
AcDbEntity
  8
LAY-1
  6
CONTINUOUS
 62
     3
100
AcDbCircle
 10
863.9999999999999
 20
1041.409240677358
 30
0.0
 40
3.0
100
AcDbArc
 50
0.0
 51
64.77148788330614
  0
LINE
  5
5B4
330
1F
100
AcDbEntity
  8
LAY-1
  6
CONTINUOUS
 62
     3
100
AcDbLine
 10
854.4999999999999
 20
965.0000000000001
 30
0.0
 11
854.4999999999999
 21
1053.188611699158
 31
0.0
  0
LINE
  5
5B5
330
1F
100
AcDbEntity
  8
LAY-1
  6
CONTINUOUS
 62
     3
100
AcDbLine
 10
876.9999999999999
 20
963.0000000000001
 30
0.0
 11
856.4999999999999
 21
963.0000000000001
 31
0.0
  0
ARC
  5
5B6
330
1F
100
AcDbEntity
  8
LAY-1
  6
CONTINUOUS
 62
     3
100
AcDbCircle
 10
856.4999999999999
 20
965.0000000000001
 30
0.0
 40
2.0
100
AcDbArc
 50
180.0
 51
270.0
  0
LINE
  5
5B7
330
1F
100
AcDbEntity
  8
LAY-1
  6
CONTINUOUS
 62
     3
100
AcDbLine
 10
866.9999999999999
 20
965.8000000000003
 30
0.0
 11
866.9999999999999
 21
1041.409240677358
 31
0.0
  0
ARC
  5
5B8
330
1F
100
AcDbEntity
  8
LAY-1
  6
CONTINUOUS
 62
     3
100
AcDbCircle
 10
889.9999999999999
 20
1041.409240677358
 30
0.0
 40
3.0
100
AcDbArc
 50
115.2285121166939
 51
180.0
  0
LINE
  5
5B9
330
1F
100
AcDbEntity
  8
LAY-1
  6
CONTINUOUS
 62
     3
100
AcDbLine
 10
899.4999999999999
 20
965.0000000000001
 30
0.0
 11
899.4999999999999
 21
1053.188611699158
 31
0.0
  0
LINE
  5
5BA
330
1F
100
AcDbEntity
  8
LAY-1
  6
CONTINUOUS
 62
     3
100
AcDbLine
 10
876.9999999999999
 20
963.0000000000001
 30
0.0
 11
897.4999999999999
 21
963.0000000000001
 31
0.0
  0
ARC
  5
5BB
330
1F
100
AcDbEntity
  8
LAY-1
  6
CONTINUOUS
 62
     3
100
AcDbCircle
 10
897.4999999999999
 20
965.0000000000001
 30
0.0
 40
2.0
100
AcDbArc
 50
270.0
 51
0.0
  0
LINE
  5
5BC
330
1F
100
AcDbEntity
  8
LAY-1
  6
CONTINUOUS
 62
     3
100
AcDbLine
 10
886.9999999999999
 20
965.8000000000003
 30
0.0
 11
886.9999999999999
 21
1041.409240677358
 31
0.0
  0
ARC
  5
5BD
330
1F
100
AcDbEntity
  8
LAY-1
  6
CONTINUOUS
 62
     3
100
AcDbCircle
 10
876.9999999999999
 20
1069.0
 30
0.0
 40
72.5
100
AcDbArc
 50
288.0800126244252
 51
71.91998737557486
  0
LINE
  5
5BE
330
1F
100
AcDbEntity
  8
LAY-1
  6
CONTINUOUS
 62
     3
100
AcDbLine
 10
899.4999999999999
 20
1088.129713894655
 30
0.0
 11
925.320067334187
 21
1084.651746001532
 31
0.0
  0
LINE
  5
5BF
330
1F
100
AcDbEntity
  8
LAY-1
  6
CONTINUOUS
 62
     3
100
AcDbLine
 10
899.4999999999999
 20
1049.870286105345
 30
0.0
 11
925.320067334187
 21
1053.348253998468
 31
0.0
  0
ARC
  5
5C0
330
1F
100
AcDbEntity
  8
LAY-1
  6
CONTINUOUS
 62
     3
100
AcDbCircle
 10
921.9999999999999
 20
1069.0
 30
0.0
 40
16.0
100
AcDbArc
 50
270.0
 51
90.00000000000001
  0
ARC
  5
5C1
330
1F
100
AcDbEntity
  8
LAY-1
  6
CONTINUOUS
 62
     3
100
AcDbCircle
 10
774.4999999999999
 20
1153.0
 30
0.0
 40
2.0
100
AcDbArc
 50
0.0
 51
90.00000000000001
  0
LINE
  5
5C2
330
1F
100
AcDbEntity
  8
LAY-1
  6
CONTINUOUS
 62
     3
100
AcDbLine
 10
787.6999034
 20
1128.8500322
 30
0.0
 11
787.6999034
 21
1149.1500322
 31
0.0
  0
LINE
  5
5C3
330
1F
100
AcDbEntity
  8
LAY-1
  6
CONTINUOUS
 62
     3
100
AcDbLine
 10
786.5599471
 20
1126.8755569
 30
0.0
 11
787.6999034
 21
1128.8500322
 31
0.0
  0
ARC
  5
5C4
330
1F
100
AcDbEntity
  8
LAY-1
  6
CONTINUOUS
 62
     3
100
AcDbCircle
 10
771.0115968
 20
1139.0
 30
0.0
 40
16.688406
100
AcDbArc
 50
338.6999127433979
 51
21.30029883962633
  0
ARC
  5
5C5
330
1F
100
AcDbEntity
  8
LAY-1
  6
CONTINUOUS
 62
     3
100
AcDbCircle
 10
779.5803801
 20
1128.7889894
 30
0.0
 40
8.1197046
100
AcDbArc
 50
0.4307695182221369
 51
30.72894961207861
  0
LINE
  5
5C6
330
1F
100
AcDbEntity
  8
LAY-1
  6
CONTINUOUS
 62
     3
100
AcDbLine
 10
786.5599471
 20
1151.1245075
 30
0.0
 11
787.6999034
 21
1149.1500322
 31
0.0
  0
ARC
  5
5C7
330
1F
100
AcDbEntity
  8
LAY-1
  6
CONTINUOUS
 62
     3
100
AcDbCircle
 10
779.5803801
 20
1149.211075
 30
0.0
 40
8.1197046
100
AcDbArc
 50
329.2710503879214
 51
359.5692877775573
  0
LINE
  5
5C8
330
1F
100
AcDbEntity
  8
LAY-1
  6
CONTINUOUS
 62
     3
100
AcDbLine
 10
776.5
 20
1126.8755891
 30
0.0
 11
776.5
 21
1151.1244109
 31
0.0
  0
LINE
  5
5C9
330
1F
100
AcDbEntity
  8
LAY-1
  6
CONTINUOUS
 62
     3
100
AcDbLine
 10
786.5599471
 20
1126.8755569
 30
0.0
 11
776.5
 21
1126.8755891
 31
0.0
  0
LINE
  5
5CA
330
1F
100
AcDbEntity
  8
LAY-1
  6
CONTINUOUS
 62
     3
100
AcDbLine
 10
786.5599471
 20
1132.937923
 30
0.0
 11
776.5000636999999
 21
1132.9379552
 31
0.0
  0
LINE
  5
5CB
330
1F
100
AcDbEntity
  8
LAY-1
  6
CONTINUOUS
 62
     3
100
AcDbLine
 10
786.5599471
 20
1145.0621414
 30
0.0
 11
776.5000637
 21
1145.0621736
 31
0.0
  0
LINE
  5
5CC
330
1F
100
AcDbEntity
  8
LAY-1
  6
CONTINUOUS
 62
     3
100
AcDbLine
 10
786.5599471
 20
1151.1245075
 30
0.0
 11
776.5
 21
1151.1245397
 31
0.0
  0
LINE
  5
5CD
330
1F
100
AcDbEntity
  8
LAY-1
  6
CONTINUOUS
 62
     3
100
AcDbLine
 10
791.9999999999999
 20
1133.7499678
 30
0.0
 11
791.9999999999999
 21
1144.2499678
 31
0.0
  0
LINE
  5
5CE
330
1F
100
AcDbEntity
  8
LAY-1
  6
CONTINUOUS
 62
     3
100
AcDbLine
 10
790.2499999999999
 20
1145.9999678
 30
0.0
 11
791.9999999999999
 21
1144.2499678
 31
0.0
  0
LINE
  5
5CF
330
1F
100
AcDbEntity
  8
LAY-1
  6
CONTINUOUS
 62
     3
100
AcDbLine
 10
790.2499895
 20
1131.9999573
 30
0.0
 11
790.2499999999999
 21
1145.9999678
 31
0.0
  0
LINE
  5
5D0
330
1F
100
AcDbEntity
  8
LAY-1
  6
CONTINUOUS
 62
     3
100
AcDbLine
 10
790.2499999999999
 20
1131.9999678
 30
0.0
 11
791.9999999999999
 21
1133.7499678
 31
0.0
  0
LINE
  5
5D1
330
1F
100
AcDbEntity
  8
LAY-1
  6
CONTINUOUS
 62
     1
100
AcDbLine
 10
787.6999034
 20
1145.0528699
 30
0.0
 11
791.1970979
 21
1145.0528699
 31
0.0
  0
LINE
  5
5D2
330
1F
100
AcDbEntity
  8
LAY-1
  6
CONTINUOUS
 62
     1
100
AcDbLine
 10
787.6999034
 20
1132.9470657
 30
0.0
 11
791.1970979
 21
1132.9470657
 31
0.0
  0
LINE
  5
5D3
330
1F
100
AcDbEntity
  8
LAY-1
  6
CONTINUOUS
 62
     3
100
AcDbLine
 10
787.6999034
 20
1131.9999678
 30
0.0
 11
790.25
 21
1131.9999678
 31
0.0
  0
LINE
  5
5D4
330
1F
100
AcDbEntity
  8
LAY-1
  6
CONTINUOUS
 62
     3
100
AcDbLine
 10
787.6999034
 20
1145.9999678
 30
0.0
 11
790.25
 21
1145.9999678
 31
0.0
  0
LINE
  5
5D5
330
1F
100
AcDbEntity
  8
LAY-1
  6
CONTINUOUS
 62
     3
100
AcDbLine
 10
787.6999034
 20
1058.8500322
 30
0.0
 11
787.6999034
 21
1079.1500322
 31
0.0
  0
LINE
  5
5D6
330
1F
100
AcDbEntity
  8
LAY-1
  6
CONTINUOUS
 62
     3
100
AcDbLine
 10
786.5599471
 20
1056.8755569
 30
0.0
 11
787.6999034
 21
1058.8500322
 31
0.0
  0
ARC
  5
5D7
330
1F
100
AcDbEntity
  8
LAY-1
  6
CONTINUOUS
 62
     3
100
AcDbCircle
 10
771.0115968
 20
1069.0
 30
0.0
 40
16.688406
100
AcDbArc
 50
338.6999127433979
 51
21.30029883962633
  0
ARC
  5
5D8
330
1F
100
AcDbEntity
  8
LAY-1
  6
CONTINUOUS
 62
     3
100
AcDbCircle
 10
779.5803801
 20
1058.7889894
 30
0.0
 40
8.1197046
100
AcDbArc
 50
0.4307695182221369
 51
30.72894961207861
  0
LINE
  5
5D9
330
1F
100
AcDbEntity
  8
LAY-1
  6
CONTINUOUS
 62
     3
100
AcDbLine
 10
786.5599471
 20
1081.1245075
 30
0.0
 11
787.6999034
 21
1079.1500322
 31
0.0
  0
ARC
  5
5DA
330
1F
100
AcDbEntity
  8
LAY-1
  6
CONTINUOUS
 62
     3
100
AcDbCircle
 10
779.5803801
 20
1079.211075
 30
0.0
 40
8.1197046
100
AcDbArc
 50
329.2710503879214
 51
359.5692877775573
  0
LINE
  5
5DB
330
1F
100
AcDbEntity
  8
LAY-1
  6
CONTINUOUS
 62
     3
100
AcDbLine
 10
776.5
 20
1056.8755891
 30
0.0
 11
776.5
 21
1081.1244109
 31
0.0
  0
LINE
  5
5DC
330
1F
100
AcDbEntity
  8
LAY-1
  6
CONTINUOUS
 62
     3
100
AcDbLine
 10
786.5599471
 20
1056.8755569
 30
0.0
 11
776.5
 21
1056.8755891
 31
0.0
  0
LINE
  5
5DD
330
1F
100
AcDbEntity
  8
LAY-1
  6
CONTINUOUS
 62
     3
100
AcDbLine
 10
786.5599471
 20
1062.937923
 30
0.0
 11
776.5000636999999
 21
1062.9379552
 31
0.0
  0
LINE
  5
5DE
330
1F
100
AcDbEntity
  8
LAY-1
  6
CONTINUOUS
 62
     3
100
AcDbLine
 10
786.5599471
 20
1075.0621414
 30
0.0
 11
776.5000637
 21
1075.0621736
 31
0.0
  0
LINE
  5
5DF
330
1F
100
AcDbEntity
  8
LAY-1
  6
CONTINUOUS
 62
     3
100
AcDbLine
 10
786.5599471
 20
1081.1245075
 30
0.0
 11
776.5
 21
1081.1245397
 31
0.0
  0
LINE
  5
5E0
330
1F
100
AcDbEntity
  8
LAY-1
  6
CONTINUOUS
 62
     3
100
AcDbLine
 10
791.9999999999999
 20
1063.7499678
 30
0.0
 11
791.9999999999999
 21
1074.2499678
 31
0.0
  0
LINE
  5
5E1
330
1F
100
AcDbEntity
  8
LAY-1
  6
CONTINUOUS
 62
     3
100
AcDbLine
 10
790.2499999999999
 20
1075.9999678
 30
0.0
 11
791.9999999999999
 21
1074.2499678
 31
0.0
  0
LINE
  5
5E2
330
1F
100
AcDbEntity
  8
LAY-1
  6
CONTINUOUS
 62
     3
100
AcDbLine
 10
790.2499895
 20
1061.9999573
 30
0.0
 11
790.2499999999999
 21
1075.9999678
 31
0.0
  0
LINE
  5
5E3
330
1F
100
AcDbEntity
  8
LAY-1
  6
CONTINUOUS
 62
     3
100
AcDbLine
 10
790.2499999999999
 20
1061.9999678
 30
0.0
 11
791.9999999999999
 21
1063.7499678
 31
0.0
  0
LINE
  5
5E4
330
1F
100
AcDbEntity
  8
LAY-1
  6
CONTINUOUS
 62
     1
100
AcDbLine
 10
787.6999034
 20
1075.0528699
 30
0.0
 11
791.1970979
 21
1075.0528699
 31
0.0
  0
LINE
  5
5E5
330
1F
100
AcDbEntity
  8
LAY-1
  6
CONTINUOUS
 62
     1
100
AcDbLine
 10
787.6999034
 20
1062.9470657
 30
0.0
 11
791.1970979
 21
1062.9470657
 31
0.0
  0
LINE
  5
5E6
330
1F
100
AcDbEntity
  8
LAY-1
  6
CONTINUOUS
 62
     3
100
AcDbLine
 10
787.6999034
 20
1061.9999678
 30
0.0
 11
790.25
 21
1061.9999678
 31
0.0
  0
LINE
  5
5E7
330
1F
100
AcDbEntity
  8
LAY-1
  6
CONTINUOUS
 62
     3
100
AcDbLine
 10
787.6999034
 20
1075.9999678
 30
0.0
 11
790.25
 21
1075.9999678
 31
0.0
  0
LINE
  5
5E8
330
1F
100
AcDbEntity
  8
LAY-1
  6
CONTINUOUS
 62
     3
100
AcDbLine
 10
787.6999034
 20
1009.1499678
 30
0.0
 11
787.6999034
 21
988.8499678000004
 31
0.0
  0
LINE
  5
5E9
330
1F
100
AcDbEntity
  8
LAY-1
  6
CONTINUOUS
 62
     3
100
AcDbLine
 10
786.5599471
 20
1011.1244431
 30
0.0
 11
787.6999034
 21
1009.1499678
 31
0.0
  0
ARC
  5
5EA
330
1F
100
AcDbEntity
  8
LAY-1
  6
CONTINUOUS
 62
     3
100
AcDbCircle
 10
771.0115968
 20
999.0000000000001
 30
0.0
 40
16.688406
100
AcDbArc
 50
338.6997011603735
 51
21.30008725660222
  0
ARC
  5
5EB
330
1F
100
AcDbEntity
  8
LAY-1
  6
CONTINUOUS
 62
     3
100
AcDbCircle
 10
779.5803801
 20
1009.2110106
 30
0.0
 40
8.1197046
100
AcDbArc
 50
329.2710503879212
 51
359.5692304817779
  0
LINE
  5
5EC
330
1F
100
AcDbEntity
  8
LAY-1
  6
CONTINUOUS
 62
     3
100
AcDbLine
 10
786.5599471
 20
986.8754925000004
 30
0.0
 11
787.6999034
 21
988.8499678000004
 31
0.0
  0
ARC
  5
5ED
330
1F
100
AcDbEntity
  8
LAY-1
  6
CONTINUOUS
 62
     3
100
AcDbCircle
 10
779.5803801
 20
988.7889250000004
 30
0.0
 40
8.1197046
100
AcDbArc
 50
0.4307122224430823
 51
30.7289496120789
  0
LINE
  5
5EE
330
1F
100
AcDbEntity
  8
LAY-1
  6
CONTINUOUS
 62
     3
100
AcDbLine
 10
776.5
 20
1011.1244109
 30
0.0
 11
776.5
 21
986.8755891000002
 31
0.0
  0
LINE
  5
5EF
330
1F
100
AcDbEntity
  8
LAY-1
  6
CONTINUOUS
 62
     3
100
AcDbLine
 10
786.5599471
 20
1011.1244431
 30
0.0
 11
776.5
 21
1011.1244109
 31
0.0
  0
LINE
  5
5F0
330
1F
100
AcDbEntity
  8
LAY-1
  6
CONTINUOUS
 62
     3
100
AcDbLine
 10
786.5599471
 20
1005.062077
 30
0.0
 11
776.5000636999999
 21
1005.0620448
 31
0.0
  0
LINE
  5
5F1
330
1F
100
AcDbEntity
  8
LAY-1
  6
CONTINUOUS
 62
     3
100
AcDbLine
 10
786.5599471
 20
992.9378586000004
 30
0.0
 11
776.5000637
 21
992.9378264000003
 31
0.0
  0
LINE
  5
5F2
330
1F
100
AcDbEntity
  8
LAY-1
  6
CONTINUOUS
 62
     3
100
AcDbLine
 10
786.5599471
 20
986.8754925000004
 30
0.0
 11
776.5
 21
986.8754603000003
 31
0.0
  0
LINE
  5
5F3
330
1F
100
AcDbEntity
  8
LAY-1
  6
CONTINUOUS
 62
     3
100
AcDbLine
 10
791.9999999999999
 20
1004.2500322
 30
0.0
 11
791.9999999999999
 21
993.7500322000002
 31
0.0
  0
LINE
  5
5F4
330
1F
100
AcDbEntity
  8
LAY-1
  6
CONTINUOUS
 62
     3
100
AcDbLine
 10
790.2499999999999
 20
992.0000322000002
 30
0.0
 11
791.9999999999999
 21
993.7500322000002
 31
0.0
  0
LINE
  5
5F5
330
1F
100
AcDbEntity
  8
LAY-1
  6
CONTINUOUS
 62
     3
100
AcDbLine
 10
790.2499895
 20
1006.0000427
 30
0.0
 11
790.2499999999999
 21
992.0000322000002
 31
0.0
  0
LINE
  5
5F6
330
1F
100
AcDbEntity
  8
LAY-1
  6
CONTINUOUS
 62
     3
100
AcDbLine
 10
790.2499999999999
 20
1006.0000322
 30
0.0
 11
791.9999999999999
 21
1004.2500322
 31
0.0
  0
LINE
  5
5F7
330
1F
100
AcDbEntity
  8
LAY-1
  6
CONTINUOUS
 62
     1
100
AcDbLine
 10
787.6999034
 20
992.9471301
 30
0.0
 11
791.1970979
 21
992.9471301
 31
0.0
  0
LINE
  5
5F8
330
1F
100
AcDbEntity
  8
LAY-1
  6
CONTINUOUS
 62
     1
100
AcDbLine
 10
787.6999034
 20
1005.0529343
 30
0.0
 11
791.1970979
 21
1005.0529343
 31
0.0
  0
LINE
  5
5F9
330
1F
100
AcDbEntity
  8
LAY-1
  6
CONTINUOUS
 62
     3
100
AcDbLine
 10
787.6999034
 20
1006.0000322
 30
0.0
 11
790.25
 21
1006.0000322
 31
0.0
  0
LINE
  5
5FA
330
1F
100
AcDbEntity
  8
LAY-1
  6
CONTINUOUS
 62
     3
100
AcDbLine
 10
787.6999034
 20
992.0000322000002
 30
0.0
 11
790.25
 21
992.0000322000002
 31
0.0
  0
LINE
  5
5FB
330
1F
100
AcDbEntity
  8
LAY-1
  6
CONTINUOUS
 62
     3
100
AcDbLine
 10
779.4999999999999
 20
1116.449999999999
 30
0.0
 11
822.1844228343795
 21
1116.449999999999
 31
0.0
  0
ARC
  5
5FC
330
1F
100
AcDbEntity
  8
LAY-1
  6
CONTINUOUS
 62
     3
100
AcDbCircle
 10
779.4999999999999
 20
1119.449999999999
 30
0.0
 40
3.0
100
AcDbArc
 50
180.0
 51
270.0
  0
LINE
  5
5FD
330
1F
100
AcDbEntity
  8
LAY-1
  6
CONTINUOUS
 62
     3
100
AcDbLine
 10
779.4999999999999
 20
1021.550000000001
 30
0.0
 11
822.1844228343795
 21
1021.550000000001
 31
0.0
  0
ARC
  5
5FE
330
1F
100
AcDbEntity
  8
LAY-1
  6
CONTINUOUS
 62
     3
100
AcDbCircle
 10
779.4999999999999
 20
1018.550000000001
 30
0.0
 40
3.0
100
AcDbArc
 50
90.00000000000001
 51
180.0
  0
LINE
  5
5FF
330
1F
100
AcDbEntity
  8
LAY-1
  6
CONTINUOUS
 62
     3
100
AcDbLine
 10
847.0000000000047
 20
1002.99810608778
 30
0.0
 11
847.0000000000047
 21
988.2147909577485
 31
0.0
  0
ARC
  5
600
330
1F
100
AcDbEntity
  8
LAY-1
  6
CONTINUOUS
 62
     3
100
AcDbCircle
 10
849.0000000000047
 20
988.2147909577485
 30
0.0
 40
2.0
100
AcDbArc
 50
180.0
 51
250.8837808251011
  0
LINE
  5
601
330
1F
100
AcDbEntity
  8
LAY-1
  6
CONTINUOUS
 62
     3
100
AcDbLine
 10
852.4999999999999
 20
1000.765111563072
 30
0.0
 11
852.4999999999999
 21
987.7103942683938
 31
0.0
  0
ARC
  5
602
330
1F
100
AcDbEntity
  8
LAY-1
  6
CONTINUOUS
 62
     3
100
AcDbCircle
 10
850.4999999999999
 20
987.7103942683938
 30
0.0
 40
2.0
100
AcDbArc
 50
251.9442937207988
 51
0.0
  0
ARC
  5
603
330
1F
100
AcDbEntity
  8
LAY-1
  6
CONTINUOUS
 62
     3
100
AcDbCircle
 10
876.9999999999999
 20
1069.0
 30
0.0
 40
87.5
100
AcDbArc
 50
250.4693073685046
 51
255.0994033121701
  0
ARC
  5
604
330
1F
100
AcDbEntity
  8
LAY-1
  6
CONTINUOUS
 62
     3
100
AcDbCircle
 10
876.9999999999999
 20
1069.0
 30
0.0
 40
87.5
100
AcDbArc
 50
284.9005966878298
 51
285.2575232904563
  0
LINE
  5
605
330
1F
100
AcDbEntity
  8
LAY-1
  6
CONTINUOUS
 62
     3
100
AcDbLine
 10
901.4999999999999
 20
1000.765111563072
 30
0.0
 11
901.4999999999999
 21
986.5136374907948
 31
0.0
  0
ARC
  5
606
330
1F
100
AcDbEntity
  8
LAY-1
  6
CONTINUOUS
 62
     3
100
AcDbCircle
 10
899.4999999999999
 20
986.5136374907948
 30
0.0
 40
2.0
100
AcDbArc
 50
285.2575232904551
 51
0.0
  0
LINE
  5
607
330
1F
100
AcDbEntity
  8
LAY-1
  6
CONTINUOUS
 62
     3
100
AcDbLine
 10
906.9999999999953
 20
1135.001893912221
 30
0.0
 11
906.9999999999953
 21
1149.785209042252
 31
0.0
  0
ARC
  5
608
330
1F
100
AcDbEntity
  8
LAY-1
  6
CONTINUOUS
 62
     3
100
AcDbCircle
 10
904.9999999999953
 20
1149.785209042252
 30
0.0
 40
2.0
100
AcDbArc
 50
0.0
 51
70.88378082510111
  0
LINE
  5
609
330
1F
100
AcDbEntity
  8
LAY-1
  6
CONTINUOUS
 62
     3
100
AcDbLine
 10
901.5000000000001
 20
1137.234888436928
 30
0.0
 11
901.5000000000001
 21
1150.289605731606
 31
0.0
  0
ARC
  5
60A
330
1F
100
AcDbEntity
  8
LAY-1
  6
CONTINUOUS
 62
     3
100
AcDbCircle
 10
903.5000000000001
 20
1150.289605731606
 30
0.0
 40
2.0
100
AcDbArc
 50
71.94429372079885
 51
180.0
  0
ARC
  5
60B
330
1F
100
AcDbEntity
  8
LAY-1
  6
CONTINUOUS
 62
     3
100
AcDbCircle
 10
877.0000000000001
 20
1069.0
 30
0.0
 40
87.5
100
AcDbArc
 50
70.46930736850453
 51
75.09940331217014
  0
ARC
  5
60C
330
1F
100
AcDbEntity
  8
LAY-1
  6
CONTINUOUS
 62
     3
100
AcDbCircle
 10
877.0000000000001
 20
1069.0
 30
0.0
 40
87.5
100
AcDbArc
 50
104.9005966878298
 51
105.2575232904564
  0
LINE
  5
60D
330
1F
100
AcDbEntity
  8
LAY-1
  6
CONTINUOUS
 62
     3
100
AcDbLine
 10
852.5000000000001
 20
1137.234888436928
 30
0.0
 11
852.5000000000001
 21
1151.486362509205
 31
0.0
  0
ARC
  5
60E
330
1F
100
AcDbEntity
  8
LAY-1
  6
CONTINUOUS
 62
     3
100
AcDbCircle
 10
854.5000000000001
 20
1151.486362509205
 30
0.0
 40
2.0
100
AcDbArc
 50
105.2575232904551
 51
180.0
  0
ARC
  5
60F
330
1F
100
AcDbEntity
  8
LAY-1
  6
CONTINUOUS
 62
     3
100
AcDbCircle
 10
948.0
 20
1094.5
 30
0.0
 40
3.0
100
AcDbArc
 50
180.0
 51
270.0
  0
LINE
  5
610
330
1F
100
AcDbEntity
  8
LAY-1
  6
CONTINUOUS
 62
     3
100
AcDbLine
 10
957.0
 20
1091.5
 30
0.0
 11
957.0
 21
1046.5
 31
0.0
  0
LINE
  5
611
330
1F
100
AcDbEntity
  8
LAY-1
  6
CONTINUOUS
 62
     3
100
AcDbLine
 10
948.0
 20
1091.5
 30
0.0
 11
957.0
 21
1091.5
 31
0.0
  0
LINE
  5
612
330
1F
100
AcDbEntity
  8
LAY-1
  6
CONTINUOUS
 62
     3
100
AcDbLine
 10
974.47
 20
1081.0
 30
0.0
 11
962.0
 21
1081.0
 31
0.0
  0
LINE
  5
613
330
1F
100
AcDbEntity
  8
LAY-1
  6
CONTINUOUS
 62
     3
100
AcDbLine
 10
974.4699999999999
 20
1081.0
 30
0.0
 11
974.4699999999999
 21
1069.0
 31
0.0
  0
LINE
  5
614
330
1F
100
AcDbEntity
  8
LAY-1
  6
CONTINUOUS
 62
     1
100
AcDbLine
 10
974.47
 20
1081.0
 30
0.0
 11
962.0
 21
1069.0
 31
0.0
  0
LINE
  5
615
330
1F
100
AcDbEntity
  8
LAY-1
  6
CONTINUOUS
 62
     1
100
AcDbLine
 10
974.47
 20
1069.0
 30
0.0
 11
962.0
 21
1081.0
 31
0.0
  0
LINE
  5
616
330
1F
100
AcDbEntity
  8
LAY-1
  6
CONTINUOUS
 62
     3
100
AcDbLine
 10
974.47
 20
1057.0
 30
0.0
 11
962.0
 21
1057.0
 31
0.0
  0
LINE
  5
617
330
1F
100
AcDbEntity
  8
LAY-1
  6
CONTINUOUS
 62
     3
100
AcDbLine
 10
974.4699999999999
 20
1057.0
 30
0.0
 11
974.4699999999999
 21
1069.0
 31
0.0
  0
LINE
  5
618
330
1F
100
AcDbEntity
  8
LAY-1
  6
CONTINUOUS
 62
     1
100
AcDbLine
 10
974.47
 20
1057.0
 30
0.0
 11
962.0
 21
1069.0
 31
0.0
  0
LINE
  5
619
330
1F
100
AcDbEntity
  8
LAY-1
  6
CONTINUOUS
 62
     1
100
AcDbLine
 10
974.47
 20
1069.0
 30
0.0
 11
962.0
 21
1057.0
 31
0.0
  0
LINE
  5
61A
330
1F
100
AcDbEntity
  8
LAY-1
  6
CONTINUOUS
 62
     3
100
AcDbLine
 10
962.0
 20
1055.7795
 30
0.0
 11
962.0
 21
1082.2205
 31
0.0
  0
LINE
  5
61B
330
1F
100
AcDbEntity
  8
LAY-1
  6
CONTINUOUS
 62
     3
100
AcDbLine
 10
957.0
 20
1082.045896152541
 30
0.0
 11
962.0
 21
1082.2205
 31
0.0
  0
LINE
  5
61C
330
1F
100
AcDbEntity
  8
LAY-1
  6
CONTINUOUS
 62
     1
100
AcDbLine
 10
957.0000000000001
 20
1080.883187862066
 30
0.0
 11
961.9999999999998
 21
1081.057791709525
 31
0.0
  0
LINE
  5
61D
330
1F
100
AcDbEntity
  8
LAY-1
  6
CONTINUOUS
 62
     1
100
AcDbLine
 10
957.0
 20
1057.116812137934
 30
0.0
 11
961.9999999999998
 21
1056.942208290475
 31
0.0
  0
LINE
  5
61E
330
1F
100
AcDbEntity
  8
LAY-1
  6
CONTINUOUS
 62
     3
100
AcDbLine
 10
956.9594467848318
 20
1055.955519996938
 30
0.0
 11
962.0
 21
1055.7795
 31
0.0
  0
ARC
  5
61F
330
1F
100
AcDbEntity
  8
LAY-1
  6
CONTINUOUS
 62
     3
100
AcDbCircle
 10
948.0
 20
1043.5
 30
0.0
 40
3.0
100
AcDbArc
 50
90.00000000000001
 51
180.0
  0
LINE
  5
620
330
1F
100
AcDbEntity
  8
LAY-1
  6
CONTINUOUS
 62
     3
100
AcDbLine
 10
948.0
 20
1046.5
 30
0.0
 11
957.0
 21
1046.5
 31
0.0
  0
LINE
  5
621
330
1F
100
AcDbEntity
  8
LAY-1
  6
CONTINUOUS
 62
     3
100
AcDbLine
 10
663.9999999999995
 20
1168.0
 30
0.0
 11
669.9999999999994
 21
1168.0
 31
0.0
  0
LINE
  5
622
330
1F
100
AcDbEntity
  8
LAY-1
  6
CONTINUOUS
 62
     3
100
AcDbLine
 10
672.9999999999994
 20
1193.799999999999
 30
0.0
 11
666.9999999999994
 21
1211.799999999999
 31
0.0
  0
LINE
  5
623
330
1F
100
AcDbEntity
  8
LAY-1
  6
CONTINUOUS
 62
     3
100
AcDbLine
 10
666.9999999999994
 20
1211.799999999999
 30
0.0
 11
660.9999999999995
 21
1193.799999999999
 31
0.0
  0
LINE
  5
624
330
1F
100
AcDbEntity
  8
LAY-1
  6
CONTINUOUS
 62
     3
100
AcDbLine
 10
660.9999999999995
 20
1193.799999999999
 30
0.0
 11
663.9999999999995
 21
1193.799999999999
 31
0.0
  0
LINE
  5
625
330
1F
100
AcDbEntity
  8
LAY-1
  6
CONTINUOUS
 62
     3
100
AcDbLine
 10
669.9999999999994
 20
1193.799999999999
 30
0.0
 11
672.9999999999994
 21
1193.799999999999
 31
0.0
  0
LINE
  5
626
330
1F
100
AcDbEntity
  8
LAY-1
  6
CONTINUOUS
 62
     3
100
AcDbLine
 10
663.9999999999995
 20
1193.8
 30
0.0
 11
663.9999999999995
 21
1168.0
 31
0.0
  0
LINE
  5
627
330
1F
100
AcDbEntity
  8
LAY-1
  6
CONTINUOUS
 62
     3
100
AcDbLine
 10
669.9999999999994
 20
1168.0
 30
0.0
 11
669.9999999999994
 21
1193.8
 31
0.0
  0
LINE
  5
628
330
1F
100
AcDbEntity
  8
LAY-1
  6
CONTINUOUS
 62
     3
100
AcDbLine
 10
667.0000000000001
 20
1155.0
 30
0.0
 11
559.5
 21
1155.0
 31
0.0
  0
LINE
  5
629
330
1F
100
AcDbEntity
  8
LAY-1
  6
CONTINUOUS
 62
     3
100
AcDbLine
 10
666.9999999999997
 20
1155.0
 30
0.0
 11
774.4999999999999
 21
1155.0
 31
0.0
  0
LINE
  5
62A
330
1F
100
AcDbEntity
  8
LAY-1
  6
CONTINUOUS
 62
     3
100
AcDbLine
 10
589.5
 20
983.0000000000001
 30
0.0
 11
559.5
 21
983.0000000000001
 31
0.0
  0
LINE
  5
62B
330
1F
100
AcDbEntity
  8
LAY-1
  6
CONTINUOUS
 62
     3
100
AcDbLine
 10
712.4999999999999
 20
1196.0
 30
0.0
 11
712.4999999999999
 21
1155.0
 31
0.0
  0
LINE
  5
62C
330
1F
100
AcDbEntity
  8
LAY-1
  6
CONTINUOUS
 62
     3
100
AcDbLine
 10
621.5
 20
1196.0
 30
0.0
 11
621.5
 21
1155.0
 31
0.0
  0
LINE
  5
62D
330
1F
100
AcDbEntity
  8
LAY-1
  6
CONTINUOUS
 62
     3
100
AcDbLine
 10
621.5
 20
942.0000000000001
 30
0.0
 11
621.5
 21
961.1
 31
0.0
  0
LINE
  5
62E
330
1F
100
AcDbEntity
  8
LAY-1
  6
CONTINUOUS
 62
     3
100
AcDbLine
 10
712.4999999999999
 20
942.0000000000001
 30
0.0
 11
712.4999999999999
 21
961.1
 31
0.0
  0
LINE
  5
62F
330
1F
100
AcDbEntity
  8
LAY-1
  6
CONTINUOUS
 62
     3
100
AcDbLine
 10
744.4999999999999
 20
1005.402359521597
 30
0.0
 11
744.4999999999999
 21
1028.784884841914
 31
0.0
  0
LINE
  5
630
330
1F
100
AcDbEntity
  8
LAY-1
  6
CONTINUOUS
 62
     3
100
AcDbLine
 10
744.4999999999999
 20
977.1
 30
0.0
 11
744.4999999999999
 21
982.3083487540117
 31
0.0
  0
LINE
  5
631
330
1F
100
AcDbEntity
  8
LAY-1
  6
CONTINUOUS
 62
     3
100
AcDbLine
 10
574.5
 20
1232.0
 30
0.0
 11
574.5
 21
1218.0
 31
0.0
  0
LINE
  5
632
330
1F
100
AcDbEntity
  8
LAY-1
  6
CONTINUOUS
 62
     3
100
AcDbLine
 10
666.9999999999998
 20
1216.0
 30
0.0
 11
576.5
 21
1216.0
 31
0.0
  0
ARC
  5
633
330
1F
100
AcDbEntity
  8
LAY-1
  6
CONTINUOUS
 62
     3
100
AcDbCircle
 10
576.5
 20
1218.0
 30
0.0
 40
2.0
100
AcDbArc
 50
180.0
 51
270.0
  0
LINE
  5
634
330
1F
100
AcDbEntity
  8
LAY-1
  6
CONTINUOUS
 62
     3
100
AcDbLine
 10
759.4999999999999
 20
1232.0
 30
0.0
 11
759.4999999999999
 21
1218.0
 31
0.0
  0
LINE
  5
635
330
1F
100
AcDbEntity
  8
LAY-1
  6
CONTINUOUS
 62
     3
100
AcDbLine
 10
667.0
 20
1216.0
 30
0.0
 11
757.4999999999999
 21
1216.0
 31
0.0
  0
ARC
  5
636
330
1F
100
AcDbEntity
  8
LAY-1
  6
CONTINUOUS
 62
     3
100
AcDbCircle
 10
757.4999999999999
 20
1218.0
 30
0.0
 40
2.0
100
AcDbArc
 50
270.0
 51
0.0
  0
LINE
  5
637
330
1F
100
AcDbEntity
  8
LAY-1
  6
CONTINUOUS
 62
     3
100
AcDbLine
 10
574.5
 20
906.0000000000003
 30
0.0
 11
574.5
 21
920.0000000000001
 31
0.0
  0
LINE
  5
638
330
1F
100
AcDbEntity
  8
LAY-1
  6
CONTINUOUS
 62
     3
100
AcDbLine
 10
666.9999999999998
 20
922.0000000000001
 30
0.0
 11
576.5
 21
922.0000000000001
 31
0.0
  0
ARC
  5
639
330
1F
100
AcDbEntity
  8
LAY-1
  6
CONTINUOUS
 62
     3
100
AcDbCircle
 10
576.5
 20
920.0000000000001
 30
0.0
 40
2.0
100
AcDbArc
 50
90.00000000000001
 51
180.0
  0
LINE
  5
63A
330
1F
100
AcDbEntity
  8
LAY-1
  6
CONTINUOUS
 62
     3
100
AcDbLine
 10
759.4999999999999
 20
906.0000000000003
 30
0.0
 11
759.4999999999999
 21
920.0000000000001
 31
0.0
  0
LINE
  5
63B
330
1F
100
AcDbEntity
  8
LAY-1
  6
CONTINUOUS
 62
     3
100
AcDbLine
 10
667.0
 20
922.0000000000001
 30
0.0
 11
757.4999999999999
 21
922.0000000000001
 31
0.0
  0
ARC
  5
63C
330
1F
100
AcDbEntity
  8
LAY-1
  6
CONTINUOUS
 62
     3
100
AcDbCircle
 10
757.4999999999999
 20
920.0000000000001
 30
0.0
 40
2.0
100
AcDbArc
 50
0.0
 51
90.00000000000001
  0
LINE
  5
63D
330
1F
100
AcDbEntity
  8
LAY-1
  6
CONTINUOUS
 62
     3
100
AcDbLine
 10
727.7036496469799
 20
1007.016833150654
 30
0.0
 11
724.7036496469799
 21
1001.820680727947
 31
0.0
  0
LINE
  5
63E
330
1F
100
AcDbEntity
  8
LAY-1
  6
CONTINUOUS
 62
     3
100
AcDbLine
 10
745.5471050646183
 20
986.3226045165942
 30
0.0
 11
764.1355623327382
 21
982.5187569393009
 31
0.0
  0
LINE
  5
63F
330
1F
100
AcDbEntity
  8
LAY-1
  6
CONTINUOUS
 62
     3
100
AcDbLine
 10
764.1355623327382
 20
982.5187569393009
 30
0.0
 11
751.5471050646183
 21
996.7149093620075
 31
0.0
  0
LINE
  5
640
330
1F
100
AcDbEntity
  8
LAY-1
  6
CONTINUOUS
 62
     3
100
AcDbLine
 10
751.5471050646183
 20
996.7149093620075
 30
0.0
 11
750.0471050646183
 21
994.1168331506541
 31
0.0
  0
LINE
  5
641
330
1F
100
AcDbEntity
  8
LAY-1
  6
CONTINUOUS
 62
     3
100
AcDbLine
 10
747.0471050646183
 20
988.9206807279476
 30
0.0
 11
745.5471050646183
 21
986.3226045165942
 31
0.0
  0
LINE
  5
642
330
1F
100
AcDbEntity
  8
LAY-1
  6
CONTINUOUS
 62
     3
100
AcDbLine
 10
750.0471050646188
 20
994.1168331506539
 30
0.0
 11
727.7036496469799
 21
1007.016833150654
 31
0.0
  0
LINE
  5
643
330
1F
100
AcDbEntity
  8
LAY-1
  6
CONTINUOUS
 62
     3
100
AcDbLine
 10
724.7036496469799
 20
1001.820680727947
 30
0.0
 11
747.0471050646188
 21
988.9206807279473
 31
0.0
  0
CIRCLE
  5
644
330
1F
100
AcDbEntity
  8
LAY-1
  6
CONTINUOUS
 62
     3
100
AcDbCircle
 10
667.0
 20
1038.6
 30
0.0
 40
12.0
  0
CIRCLE
  5
645
330
1F
100
AcDbEntity
  8
LAY-1
  6
CONTINUOUS
 62
     3
100
AcDbCircle
 10
667.0
 20
1038.6
 30
0.0
 40
17.0
  0
CIRCLE
  5
646
330
1F
100
AcDbEntity
  8
LAY-1
  6
CONTINUOUS
 62
     1
100
AcDbCircle
 10
667.0
 20
1038.6
 30
0.0
 40
16.0
  0
CIRCLE
  5
647
330
1F
100
AcDbEntity
  8
LAY-1
  6
CONTINUOUS
 62
     3
100
AcDbCircle
 10
667.0
 20
1038.6
 30
0.0
 40
25.0
  0
LINE
  5
648
330
1F
100
AcDbEntity
  8
LAY-1
  6
CONTINUOUS
 62
     3
100
AcDbLine
 10
695.8675134594812
 20
1038.600000000001
 30
0.0
 11
681.4337567297406
 21
1063.6
 31
0.0
  0
LINE
  5
649
330
1F
100
AcDbEntity
  8
LAY-1
  6
CONTINUOUS
 62
     3
100
AcDbLine
 10
695.8675134594811
 20
1038.599999999999
 30
0.0
 11
681.4337567297406
 21
1013.6
 31
0.0
  0
LINE
  5
64A
330
1F
100
AcDbEntity
  8
LAY-1
  6
CONTINUOUS
 62
     3
100
AcDbLine
 10
638.1324865405188
 20
1038.600000000001
 30
0.0
 11
652.5662432702593
 21
1063.6
 31
0.0
  0
LINE
  5
64B
330
1F
100
AcDbEntity
  8
LAY-1
  6
CONTINUOUS
 62
     3
100
AcDbLine
 10
638.132486540519
 20
1038.599999999999
 30
0.0
 11
652.5662432702593
 21
1013.6
 31
0.0
  0
LINE
  5
64C
330
1F
100
AcDbEntity
  8
LAY-1
  6
CONTINUOUS
 62
     3
100
AcDbLine
 10
681.43375672974
 20
1063.6
 30
0.0
 11
652.56624327026
 21
1063.6
 31
0.0
  0
LINE
  5
64D
330
1F
100
AcDbEntity
  8
LAY-1
  6
CONTINUOUS
 62
     3
100
AcDbLine
 10
681.43375672974
 20
1013.6
 30
0.0
 11
652.56624327026
 21
1013.6
 31
0.0
  0
CIRCLE
  5
64E
330
1F
100
AcDbEntity
  8
LAY-1
  6
CONTINUOUS
 62
     3
100
AcDbCircle
 10
667.0
 20
1038.6
 30
0.0
 40
32.5
  0
LINE
  5
64F
330
1F
100
AcDbEntity
  8
LAY-1
  6
CONTINUOUS
 62
     3
100
AcDbLine
 10
493.0
 20
1048.1
 30
0.0
 11
635.9194594641599
 21
1048.1
 31
0.0
  0
LINE
  5
650
330
1F
100
AcDbEntity
  8
LAY-1
  6
CONTINUOUS
 62
     3
100
AcDbLine
 10
492.0
 20
1047.1
 30
0.0
 11
493.0
 21
1048.1
 31
0.0
  0
LINE
  5
651
330
1F
100
AcDbEntity
  8
LAY-1
  6
CONTINUOUS
 62
     3
100
AcDbLine
 10
493.0
 20
1029.099999999999
 30
0.0
 11
635.9194594641599
 21
1029.1
 31
0.0
  0
LINE
  5
652
330
1F
100
AcDbEntity
  8
LAY-1
  6
CONTINUOUS
 62
     3
100
AcDbLine
 10
492.0
 20
1030.099999999999
 30
0.0
 11
493.0
 21
1029.099999999999
 31
0.0
  0
LINE
  5
653
330
1F
100
AcDbEntity
  8
LAY-1
  6
CONTINUOUS
 62
     3
100
AcDbLine
 10
492.0
 20
1047.1
 30
0.0
 11
492.0
 21
1030.1
 31
0.0
  0
LINE
  5
654
330
1F
100
AcDbEntity
  8
LAY-1
  6
CONTINUOUS
 62
     3
100
AcDbLine
 10
842.0
 20
1047.1
 30
0.0
 11
841.0
 21
1048.1
 31
0.0
  0
LINE
  5
655
330
1F
100
AcDbEntity
  8
LAY-1
  6
CONTINUOUS
 62
     3
100
AcDbLine
 10
842.0
 20
1030.099999999999
 30
0.0
 11
841.0
 21
1029.099999999999
 31
0.0
  0
LINE
  5
656
330
1F
100
AcDbEntity
  8
LAY-1
  6
CONTINUOUS
 62
     3
100
AcDbLine
 10
842.0
 20
1047.1
 30
0.0
 11
842.0
 21
1030.1
 31
0.0
  0
LINE
  5
657
330
1F
100
AcDbEntity
  8
LAY-1
  6
CONTINUOUS
 62
     3
100
AcDbLine
 10
841.0
 20
1048.1
 30
0.0
 11
698.0805405358401
 21
1048.1
 31
0.0
  0
LINE
  5
658
330
1F
100
AcDbEntity
  8
LAY-1
  6
CONTINUOUS
 62
     3
100
AcDbLine
 10
841.0
 20
1029.099999999999
 30
0.0
 11
698.0805405358401
 21
1029.1
 31
0.0
  0
LINE
  5
659
330
1F
100
AcDbEntity
  8
LAY-1
  6
CONTINUOUS
 62
     3
100
AcDbLine
 10
599.5
 20
1055.6
 30
0.0
 11
639.300722031071
 21
1055.6
 31
0.0
  0
LINE
  5
65A
330
1F
100
AcDbEntity
  8
LAY-1
  6
CONTINUOUS
 62
     3
100
AcDbLine
 10
599.5
 20
1021.6
 30
0.0
 11
639.300722031071
 21
1021.6
 31
0.0
  0
LINE
  5
65B
330
1F
100
AcDbEntity
  8
LAY-1
  6
CONTINUOUS
 62
     3
100
AcDbLine
 10
734.4999999999999
 20
1055.6
 30
0.0
 11
694.6992779689291
 21
1055.6
 31
0.0
  0
CIRCLE
  5
65C
330
1F
100
AcDbEntity
  8
LAY-1
  6
CONTINUOUS
 62
     3
100
AcDbCircle
 10
667.0
 20
1038.6
 30
0.0
 40
9.25
  0
LINE
  5
65D
330
1F
100
AcDbEntity
  8
LAY-1
  6
CONTINUOUS
 62
     3
100
AcDbLine
 10
665.0000000000001
 20
1039.754700538379
 30
0.0
 11
673.8212451054803
 21
1044.847648774616
 31
0.0
  0
LINE
  5
65E
330
1F
100
AcDbEntity
  8
LAY-1
  6
CONTINUOUS
 62
     3
100
AcDbLine
 10
665.0
 20
1039.75470053838
 30
0.0
 11
665.0
 21
1029.568804065906
 31
0.0
  0
LINE
  5
65F
330
1F
100
AcDbEntity
  8
LAY-1
  6
CONTINUOUS
 62
     3
100
AcDbLine
 10
668.9999999999997
 20
1037.445299461621
 30
0.0
 11
675.8212451054803
 21
1041.383547159478
 31
0.0
  0
LINE
  5
660
330
1F
100
AcDbEntity
  8
LAY-1
  6
CONTINUOUS
 62
     3
100
AcDbLine
 10
669.0
 20
1037.44529946162
 30
0.0
 11
669.0
 21
1029.568804065906
 31
0.0
  0
LINE
  5
661
330
1F
100
AcDbEntity
  8
LAY-1
  6
CONTINUOUS
 62
     3
100
AcDbLine
 10
734.4999999999999
 20
1021.6
 30
0.0
 11
694.6992779689291
 21
1021.6
 31
0.0
  0
LINE
  5
662
330
1F
100
AcDbEntity
  8
LAY-1
  6
CONTINUOUS
 62
     3
100
AcDbLine
 10
888.5063509461097
 20
922.2602540378447
 30
0.0
 11
716.4448637286703
 21
1021.6
 31
0.0
  0
LINE
  5
663
330
1F
100
AcDbEntity
  8
LAY-1
  6
CONTINUOUS
 62
     3
100
AcDbLine
 10
878.5063509461096
 20
904.9397459621558
 30
0.0
 11
688.7803566070386
 21
1014.478099866088
 31
0.0
  0
LINE
  5
664
330
1F
100
AcDbEntity
  8
LAY-1
  6
CONTINUOUS
 62
     3
100
AcDbLine
 10
590.5
 20
1048.1
 30
0.0
 11
590.5
 21
1054.6
 31
0.0
  0
LINE
  5
665
330
1F
100
AcDbEntity
  8
LAY-1
  6
CONTINUOUS
 62
     3
100
AcDbLine
 10
590.5
 20
1022.6
 30
0.0
 11
590.5
 21
1029.099999999999
 31
0.0
  0
LINE
  5
666
330
1F
100
AcDbEntity
  8
LAY-1
  6
CONTINUOUS
 62
     3
100
AcDbLine
 10
590.5
 20
1048.1
 30
0.0
 11
590.5
 21
1054.6
 31
0.0
  0
LINE
  5
667
330
1F
100
AcDbEntity
  8
LAY-1
  6
CONTINUOUS
 62
     3
100
AcDbLine
 10
594.5
 20
1048.1
 30
0.0
 11
594.5
 21
1055.6
 31
0.0
  0
LINE
  5
668
330
1F
100
AcDbEntity
  8
LAY-1
  6
CONTINUOUS
 62
     3
100
AcDbLine
 10
594.5
 20
968.6
 30
0.0
 11
594.5
 21
1029.099999999999
 31
0.0
  0
LINE
  5
669
330
1F
100
AcDbEntity
  8
LAY-1
  6
CONTINUOUS
 62
     3
100
AcDbLine
 10
599.5
 20
1048.1
 30
0.0
 11
599.5
 21
1055.6
 31
0.0
  0
LINE
  5
66A
330
1F
100
AcDbEntity
  8
LAY-1
  6
CONTINUOUS
 62
     3
100
AcDbLine
 10
599.5
 20
968.6
 30
0.0
 11
599.5
 21
1029.099999999999
 31
0.0
  0
LINE
  5
66B
330
1F
100
AcDbEntity
  8
LAY-1
  6
CONTINUOUS
 62
     3
100
AcDbLine
 10
614.5000000000011
 20
1048.1
 30
0.0
 11
614.5000000000011
 21
1049.6
 31
0.0
  0
LINE
  5
66C
330
1F
100
AcDbEntity
  8
LAY-1
  6
CONTINUOUS
 62
     3
100
AcDbLine
 10
614.5000000000011
 20
1027.6
 30
0.0
 11
614.5000000000011
 21
1029.099999999999
 31
0.0
  0
LINE
  5
66D
330
1F
100
AcDbEntity
  8
LAY-1
  6
CONTINUOUS
 62
     3
100
AcDbLine
 10
719.4999999999987
 20
1048.1
 30
0.0
 11
719.4999999999987
 21
1049.6
 31
0.0
  0
LINE
  5
66E
330
1F
100
AcDbEntity
  8
LAY-1
  6
CONTINUOUS
 62
     3
100
AcDbLine
 10
719.4999999999987
 20
1027.6
 30
0.0
 11
719.4999999999987
 21
1029.099999999999
 31
0.0
  0
LINE
  5
66F
330
1F
100
AcDbEntity
  8
LAY-1
  6
CONTINUOUS
 62
     3
100
AcDbLine
 10
734.4999999999999
 20
1048.1
 30
0.0
 11
734.4999999999999
 21
1055.6
 31
0.0
  0
LINE
  5
670
330
1F
100
AcDbEntity
  8
LAY-1
  6
CONTINUOUS
 62
     3
100
AcDbLine
 10
734.4999999999999
 20
1011.175862213493
 30
0.0
 11
734.4999999999999
 21
1029.099999999999
 31
0.0
  0
LINE
  5
671
330
1F
100
AcDbEntity
  8
LAY-1
  6
CONTINUOUS
 62
     3
100
AcDbLine
 10
739.4999999999999
 20
1048.1
 30
0.0
 11
739.4999999999999
 21
1055.6
 31
0.0
  0
LINE
  5
672
330
1F
100
AcDbEntity
  8
LAY-1
  6
CONTINUOUS
 62
     3
100
AcDbLine
 10
739.4999999999999
 20
1008.289110867545
 30
0.0
 11
739.4999999999999
 21
1029.099999999999
 31
0.0
  0
ARC
  5
673
330
1F
100
AcDbEntity
  8
LAY-1
  6
CONTINUOUS
 62
     3
100
AcDbCircle
 10
457.0
 20
1069.0
 30
0.0
 40
72.5
100
AcDbArc
 50
343.2452374791279
 51
71.91998737557486
  0
ARC
  5
674
330
1F
100
AcDbEntity
  8
LAY-1
  6
CONTINUOUS
 62
     3
100
AcDbCircle
 10
457.0
 20
1069.0
 30
0.0
 40
72.5
100
AcDbArc
 50
288.0800126244252
 51
326.6093272020224
  0
LINE
  5
675
330
1F
100
AcDbEntity
  8
LAY-1
  6
CONTINUOUS
 62
     3
100
AcDbLine
 10
557.5
 20
1048.1
 30
0.0
 11
557.5
 21
1153.0
 31
0.0
  0
LINE
  5
676
330
1F
100
AcDbEntity
  8
LAY-1
  6
CONTINUOUS
 62
     3
100
AcDbLine
 10
557.5
 20
985.0000000000001
 30
0.0
 11
557.5
 21
1029.099999999999
 31
0.0
  0
LINE
  5
677
330
1F
100
AcDbEntity
  8
LAY-1
  6
CONTINUOUS
 62
     3
100
AcDbLine
 10
577.0
 20
1048.1
 30
0.0
 11
577.0
 21
1155.0
 31
0.0
  0
LINE
  5
678
330
1F
100
AcDbEntity
  8
LAY-1
  6
CONTINUOUS
 62
     3
100
AcDbLine
 10
575.5
 20
983.0000000000001
 30
0.0
 11
575.5
 21
1029.099999999999
 31
0.0
  0
LINE
  5
679
330
1F
100
AcDbEntity
  8
LAY-1
  6
CONTINUOUS
 62
     3
100
AcDbLine
 10
577.0
 20
983.0000000000001
 30
0.0
 11
577.0
 21
1029.099999999999
 31
0.0
  0
LINE
  5
67A
330
1F
100
AcDbEntity
  8
LAY-1
  6
CONTINUOUS
 62
     3
100
AcDbLine
 10
575.5
 20
1048.1
 30
0.0
 11
575.5
 21
1155.0
 31
0.0
  0
LINE
  5
67B
330
1F
100
AcDbEntity
  8
LAY-1
  6
CONTINUOUS
 62
     3
100
AcDbLine
 10
590.5
 20
1022.6
 30
0.0
 11
590.5
 21
1029.099999999999
 31
0.0
  0
LINE
  5
67C
330
1F
100
AcDbEntity
  8
LAY-1
  6
CONTINUOUS
 62
     3
100
AcDbLine
 10
743.4999999999999
 20
1048.1
 30
0.0
 11
743.4999999999999
 21
1054.6
 31
0.0
  0
LINE
  5
67D
330
1F
100
AcDbEntity
  8
LAY-1
  6
CONTINUOUS
 62
     3
100
AcDbLine
 10
743.4999999999999
 20
1022.6
 30
0.0
 11
743.4999999999999
 21
1029.099999999999
 31
0.0
  0
LINE
  5
67E
330
1F
100
AcDbEntity
  8
LAY-1
  6
CONTINUOUS
 62
     3
100
AcDbLine
 10
756.9999999999999
 20
1048.1
 30
0.0
 11
756.9999999999999
 21
1155.0
 31
0.0
  0
LINE
  5
67F
330
1F
100
AcDbEntity
  8
LAY-1
  6
CONTINUOUS
 62
     3
100
AcDbLine
 10
758.4999999999999
 20
997.319455752942
 30
0.0
 11
758.4999999999999
 21
1029.099999999999
 31
0.0
  0
LINE
  5
680
330
1F
100
AcDbEntity
  8
LAY-1
  6
CONTINUOUS
 62
     3
100
AcDbLine
 10
758.4999999999999
 20
1048.1
 30
0.0
 11
758.4999999999999
 21
1155.0
 31
0.0
  0
LINE
  5
681
330
1F
100
AcDbEntity
  8
LAY-1
  6
CONTINUOUS
 62
     3
100
AcDbLine
 10
756.9999999999999
 20
998.1854811567265
 30
0.0
 11
756.9999999999999
 21
1029.099999999999
 31
0.0
  0
LINE
  5
682
330
1F
100
AcDbEntity
  8
LAY-1
  6
CONTINUOUS
 62
     3
100
AcDbLine
 10
776.4999999999999
 20
986.8754925000004
 30
0.0
 11
776.4999999999999
 21
1029.099999999999
 31
0.0
  0
LINE
  5
683
330
1F
100
AcDbEntity
  8
LAY-1
  6
CONTINUOUS
 62
     3
100
AcDbLine
 10
776.4999999999999
 20
1048.1
 30
0.0
 11
776.4999999999999
 21
1153.0
 31
0.0
  0
ARC
  5
684
330
1F
100
AcDbEntity
  8
LAY-1
  6
CONTINUOUS
 62
     3
100
AcDbCircle
 10
876.9999999999999
 20
1069.0
 30
0.0
 40
72.5
100
AcDbArc
 50
108.0800126244252
 51
196.7547625208721
  0
ARC
  5
685
330
1F
100
AcDbEntity
  8
LAY-1
  6
CONTINUOUS
 62
     3
100
AcDbCircle
 10
876.9999999999999
 20
1069.0
 30
0.0
 40
72.5
100
AcDbArc
 50
213.3906727979777
 51
251.9199873755748
  0
LINE
  5
686
330
1F
100
AcDbEntity
  8
LAY-1
  6
EXLTYPE2
 62
     1
100
AcDbLine
 10
486.0
 20
1038.6
 30
0.0
 11
849.0
 21
1038.600000000001
 31
0.0
  0
LINE
  5
687
330
1F
100
AcDbEntity
  8
LAY-1
  6
CONTINUOUS
 62
     3
100
AcDbLine
 10
637.1536046138892
 20
1057.389981052765
 30
0.0
 11
653.712933845482
 21
1095.560881625589
 31
0.0
  0
LINE
  5
688
330
1F
100
AcDbEntity
  8
LAY-1
  6
CONTINUOUS
 62
     3
100
AcDbLine
 10
637.212128574462
 20
1019.675115398371
 30
0.0
 11
653.712933845482
 21
981.6391183744107
 31
0.0
  0
LINE
  5
689
330
1F
100
AcDbEntity
  8
LAY-1
  6
CONTINUOUS
 62
     3
100
AcDbLine
 10
696.6259893541122
 20
1057.898038874153
 30
0.0
 11
680.2870661545177
 21
1095.560881625589
 31
0.0
  0
LINE
  5
68A
330
1F
100
AcDbEntity
  8
LAY-1
  6
CONTINUOUS
 62
     3
100
AcDbLine
 10
692.6347783296787
 20
1010.101822820235
 30
0.0
 11
680.2870661545177
 21
981.6391183744107
 31
0.0
  0
LINE
  5
68B
330
1F
100
AcDbEntity
  8
LAY-1
  6
CONTINUOUS
 62
     3
100
AcDbLine
 10
486.9999999999952
 20
1135.001893912221
 30
0.0
 11
486.9999999999952
 21
1149.785209042252
 31
0.0
  0
ARC
  5
68C
330
1F
100
AcDbEntity
  8
LAY-1
  6
CONTINUOUS
 62
     3
100
AcDbCircle
 10
484.9999999999952
 20
1149.785209042252
 30
0.0
 40
2.0
100
AcDbArc
 50
0.0
 51
70.88378082510111
  0
LINE
  5
68D
330
1F
100
AcDbEntity
  8
LAY-1
  6
CONTINUOUS
 62
     3
100
AcDbLine
 10
481.5
 20
1137.234888436928
 30
0.0
 11
481.5
 21
1150.289605731606
 31
0.0
  0
ARC
  5
68E
330
1F
100
AcDbEntity
  8
LAY-1
  6
CONTINUOUS
 62
     3
100
AcDbCircle
 10
483.5
 20
1150.289605731606
 30
0.0
 40
2.0
100
AcDbArc
 50
71.94429372079885
 51
180.0
  0
ARC
  5
68F
330
1F
100
AcDbEntity
  8
LAY-1
  6
CONTINUOUS
 62
     3
100
AcDbCircle
 10
457.0
 20
1069.0
 30
0.0
 40
87.5
100
AcDbArc
 50
70.46930736850453
 51
75.09940331217014
  0
ARC
  5
690
330
1F
100
AcDbEntity
  8
LAY-1
  6
CONTINUOUS
 62
     3
100
AcDbCircle
 10
457.0
 20
1069.0
 30
0.0
 40
87.5
100
AcDbArc
 50
104.9005966878298
 51
105.2575232904564
  0
LINE
  5
691
330
1F
100
AcDbEntity
  8
LAY-1
  6
CONTINUOUS
 62
     3
100
AcDbLine
 10
432.5
 20
1137.234888436928
 30
0.0
 11
432.5
 21
1151.486362509205
 31
0.0
  0
ARC
  5
692
330
1F
100
AcDbEntity
  8
LAY-1
  6
CONTINUOUS
 62
     3
100
AcDbCircle
 10
434.5
 20
1151.486362509205
 30
0.0
 40
2.0
100
AcDbArc
 50
105.2575232904551
 51
180.0
  0
LINE
  5
693
330
1F
100
AcDbEntity
  8
LAY-1
  6
CONTINUOUS
 62
     3
100
AcDbLine
 10
427.0000000000045
 20
1002.99810608778
 30
0.0
 11
427.0000000000045
 21
988.2147909577485
 31
0.0
  0
ARC
  5
694
330
1F
100
AcDbEntity
  8
LAY-1
  6
CONTINUOUS
 62
     3
100
AcDbCircle
 10
429.0000000000045
 20
988.2147909577485
 30
0.0
 40
2.0
100
AcDbArc
 50
180.0
 51
250.8837808251011
  0
LINE
  5
695
330
1F
100
AcDbEntity
  8
LAY-1
  6
CONTINUOUS
 62
     3
100
AcDbLine
 10
432.4999999999998
 20
1000.765111563072
 30
0.0
 11
432.4999999999998
 21
987.7103942683938
 31
0.0
  0
ARC
  5
696
330
1F
100
AcDbEntity
  8
LAY-1
  6
CONTINUOUS
 62
     3
100
AcDbCircle
 10
430.4999999999998
 20
987.7103942683938
 30
0.0
 40
2.0
100
AcDbArc
 50
251.9442937207988
 51
0.0
  0
ARC
  5
697
330
1F
100
AcDbEntity
  8
LAY-1
  6
CONTINUOUS
 62
     3
100
AcDbCircle
 10
456.9999999999998
 20
1069.0
 30
0.0
 40
87.5
100
AcDbArc
 50
250.4693073685046
 51
255.0994033121701
  0
ARC
  5
698
330
1F
100
AcDbEntity
  8
LAY-1
  6
CONTINUOUS
 62
     3
100
AcDbCircle
 10
456.9999999999998
 20
1069.0
 30
0.0
 40
87.5
100
AcDbArc
 50
284.9005966878298
 51
285.2575232904563
  0
LINE
  5
699
330
1F
100
AcDbEntity
  8
LAY-1
  6
CONTINUOUS
 62
     3
100
AcDbLine
 10
481.4999999999998
 20
1000.765111563072
 30
0.0
 11
481.4999999999998
 21
986.5136374907948
 31
0.0
  0
ARC
  5
69A
330
1F
100
AcDbEntity
  8
LAY-1
  6
CONTINUOUS
 62
     3
100
AcDbCircle
 10
479.4999999999998
 20
986.5136374907948
 30
0.0
 40
2.0
100
AcDbArc
 50
285.2575232904551
 51
0.0
  0
LINE
  5
69B
330
1F
100
AcDbEntity
  8
LAY-1
  6
EXLTYPE2
 62
     1
100
AcDbLine
 10
456.9999999999999
 20
955.2
 30
0.0
 11
456.9999999999999
 21
1183.2
 31
0.0
  0
LINE
  5
69C
330
1F
100
AcDbEntity
  8
LAY-1
  6
EXLTYPE2
 62
     1
100
AcDbLine
 10
876.9999999999999
 20
955.2
 30
0.0
 11
876.9999999999999
 21
1183.2
 31
0.0
  0
LINE
  5
69D
330
1F
100
AcDbEntity
  8
LAY-1
  6
EXLTYPE2
 62
     1
100
AcDbLine
 10
984.0
 20
1069.0
 30
0.0
 11
351.0
 21
1069.0
 31
0.0
  0
ARC
  5
69E
330
1F
100
AcDbEntity
  8
LAY-1
  6
EXLTYPE2
 62
     1
100
AcDbCircle
 10
666.9999999999999
 20
1038.6
 30
0.0
 40
85.0
100
AcDbArc
 50
33.65275344495551
 51
57.47267041753587
  0
LINE
  5
69F
330
1F
100
AcDbEntity
  8
LAY-1
  6
EXLTYPE2
 62
     1
100
AcDbLine
 10
739.8137084990267
 20
1111.413708498943
 30
0.0
 11
714.3000000000401
 21
1085.89999999996
 31
0.0
  0
ARC
  5
6A0
330
1F
100
AcDbEntity
  8
LAY-1
  6
EXLTYPE2
 62
     1
100
AcDbCircle
 10
666.9999999999999
 20
1038.6
 30
0.0
 40
85.0
100
AcDbArc
 50
302.5273295824643
 51
322.5719944569575
  0
LINE
  5
6A1
330
1F
100
AcDbEntity
  8
LAY-1
  6
EXLTYPE2
 62
     1
100
AcDbLine
 10
734.500000000002
 20
971.1000000000821
 30
0.0
 11
714.3000000000402
 21
991.3000000000405
 31
0.0
  0
LINE
  5
6A2
330
1F
100
AcDbEntity
  8
LAY-1
  6
EXLTYPE2
 62
     1
100
AcDbLine
 10
599.4999999999977
 20
971.1000000000821
 30
0.0
 11
619.6999999999596
 21
991.3000000000405
 31
0.0
  0
ARC
  5
6A3
330
1F
100
AcDbEntity
  8
LAY-1
  6
EXLTYPE2
 62
     1
100
AcDbCircle
 10
667.0
 20
1038.6
 30
0.0
 40
85.0
100
AcDbArc
 50
217.4280055430425
 51
237.4726704175357
  0
ARC
  5
6A4
330
1F
100
AcDbEntity
  8
LAY-1
  6
EXLTYPE2
 62
     1
100
AcDbCircle
 10
667.0
 20
1038.6
 30
0.0
 40
85.0
100
AcDbArc
 50
122.5273295824641
 51
146.3472465550445
  0
LINE
  5
6A5
330
1F
100
AcDbEntity
  8
LAY-1
  6
EXLTYPE2
 62
     1
100
AcDbLine
 10
594.1862915009732
 20
1111.413708498943
 30
0.0
 11
619.6999999999598
 21
1085.89999999996
 31
0.0
  0
LINE
  5
6A6
330
1F
100
AcDbEntity
  8
LAY-1
  6
EXLTYPE2
 62
     1
100
AcDbLine
 10
675.010734985009
 20
1043.225000000002
 30
0.0
 11
441.0923233502269
 21
908.1721420742512
 31
0.0
  0
LINE
  5
6A7
330
1F
100
AcDbEntity
  8
LAY-1
  6
EXLTYPE2
 62
     1
100
AcDbLine
 10
658.989265014991
 20
1043.225000000002
 30
0.0
 11
892.9076766497731
 21
908.1721420742512
 31
0.0
  0
LINE
  5
6A8
330
1F
100
AcDbEntity
  8
LAY-1
  6
EXLTYPE2
 62
     1
100
AcDbLine
 10
666.9999999999999
 20
896.2
 30
0.0
 11
666.9999999999999
 21
1241.2
 31
0.0
  0
LINE
  5
6A9
330
1F
100
AcDbEntity
  8
LAY-1
  6
EXLTYPE2
 62
     1
100
AcDbLine
 10
774.0
 20
1139.0
 30
0.0
 11
795.6999999999999
 21
1139.0
 31
0.0
  0
LINE
  5
6AA
330
1F
100
AcDbEntity
  8
LAY-1
  6
EXLTYPE2
 62
     1
100
AcDbLine
 10
559.9999999999999
 20
1139.0
 30
0.0
 11
538.3
 21
1139.0
 31
0.0
  0
LINE
  5
6AB
330
1F
100
AcDbEntity
  8
LAY-1
  6
EXLTYPE2
 62
     1
100
AcDbLine
 10
774.0
 20
999.0000000000005
 30
0.0
 11
795.6999999999999
 21
999.0000000000005
 31
0.0
  0
LINE
  5
6AC
330
1F
100
AcDbEntity
  8
LAY-1
  6
EXLTYPE2
 62
     1
100
AcDbLine
 10
559.9999999999999
 20
999.0000000000005
 30
0.0
 11
538.3
 21
999.0000000000005
 31
0.0
  0
LINE
  5
6AD
330
1F
100
AcDbEntity
  8
LAY-1
  6
EXLTYPE3
 62
     1
100
AcDbLine
 10
445.4936490538903
 20
922.2602540378447
 30
0.0
 11
617.5551362713297
 21
1021.6
 31
0.0
  0
LINE
  5
6AE
330
1F
100
AcDbEntity
  8
LAY-1
  6
EXLTYPE3
 62
     1
100
AcDbLine
 10
455.4936490538903
 20
904.9397459621558
 30
0.0
 11
645.2196433929614
 21
1014.478099866088
 31
0.0
  0
LINE
  5
6AF
330
1F
100
AcDbEntity
  8
LAY-1
  6
EXLTYPE3
 62
     1
100
AcDbLine
 10
455.4936490538885
 20
904.9397459621592
 30
0.0
 11
445.4936490538923
 21
922.2602540378413
 31
0.0
  0
TEXT
  5
6B1
330
1F
100
AcDbEntity
  8
LAY-1
  6
CONTINUOUS
 62
     3
100
AcDbText
 10
93.0
 20
1302.375
 30
0.0
 40
16.40637824897401
  1
型式：１０ＦＵＷ－１３Ａ
  7
EXCADTTF1
 72
     5
 11
381.0
 21
1302.375
 31
0.0
100
AcDbText
  0
TEXT
  5
6B2
330
1F
100
AcDbEntity
  8
LAY-1
  6
CONTINUOUS
 62
     3
100
AcDbText
 10
93.0
 20
1272.375
 30
0.0
 40
16.40637824897401
  1
口径：８０Ａ
  7
EXCADTTF1
 72
     5
 11
237.0
 21
1272.375
 31
0.0
100
AcDbText
  0
DIMENSION
  5
6B4
330
1F
100
AcDbEntity
  8
LAY-1
  6
CONTINUOUS
 62
     1
100
AcDbDimension
  2
*D15
 10
1520.0
 20
490.0
 30
0.0
 11
1510.5
 21
385.0
 31
0.0
 70
   160
  3
ISO-25
100
AcDbAlignedDimension
 13
1418.0
 23
280.0
 33
0.0
 14
1489.6
 24
490.0
 34
0.0
 50
90.0
100
AcDbRotatedDimension
1001
ACAD
1000
DSTYLE
1002
{
1070
   270
1070
     2
1070
     6
1000
EX_NORM
1070
     7
1000
EX_NORM
1070
    41
1040
2.5
1070
    42
1040
1.0
1070
    44
1040
1.0
1070
    73
1070
     0
1070
    74
1070
     0
1070
    75
1070
     0
1070
    76
1070
     0
1070
    77
1070
     1
1070
    78
1070
     8
1070
   140
1040
12.30478368673051
1070
   147
1040
0.0
1070
   173
1070
     1
1070
   176
1070
     1
1070
   177
1070
     1
1070
   178
1070
     3
1070
   271
1070
     3
1070
   277
1070
     2
1070
   279
1070
     2
1070
   280
1070
     0
1070
   287
1070
     5
1070
   340
1005
6B3
1002
}
  0
DIMENSION
  5
6C2
330
1F
100
AcDbEntity
  8
LAY-1
  6
CONTINUOUS
 62
     1
100
AcDbDimension
  2
*D16
 10
1520.0
 20
808.0
 30
0.0
 11
1510.5
 21
649.0
 31
0.0
 70
   160
  3
ISO-25
100
AcDbAlignedDimension
 13
1489.6
 23
490.0
 33
0.0
 14
1292.85
 24
808.0
 34
0.0
 50
90.0
100
AcDbRotatedDimension
1001
ACAD
1000
DSTYLE
1002
{
1070
   270
1070
     2
1070
     6
1000
EX_NORM
1070
     7
1000
EX_NORM
1070
    41
1040
2.5
1070
    42
1040
1.0
1070
    44
1040
1.0
1070
    73
1070
     0
1070
    74
1070
     0
1070
    75
1070
     0
1070
    76
1070
     0
1070
    77
1070
     1
1070
    78
1070
     8
1070
   140
1040
12.30478368673051
1070
   147
1040
0.0
1070
   173
1070
     1
1070
   176
1070
     1
1070
   177
1070
     1
1070
   178
1070
     3
1070
   271
1070
     3
1070
   277
1070
     2
1070
   279
1070
     2
1070
   280
1070
     0
1070
   287
1070
     5
1070
   340
1005
6B3
1002
}
  0
DIMENSION
  5
6CF
330
1F
100
AcDbEntity
  8
LAY-1
  6
CONTINUOUS
 62
     1
100
AcDbDimension
  2
*D17
 10
877.0
 20
240.0
 30
0.0
 11
667.0
 21
249.5
 31
0.0
 70
   160
  3
ISO-25
100
AcDbAlignedDimension
 13
457.0
 23
269.0
 33
0.0
 14
877.0
 24
269.0
 34
0.0
100
AcDbRotatedDimension
1001
ACAD
1000
DSTYLE
1002
{
1070
   270
1070
     2
1070
     6
1000
EX_NORM
1070
     7
1000
EX_NORM
1070
    41
1040
2.5
1070
    42
1040
1.0
1070
    44
1040
1.0
1070
    73
1070
     0
1070
    74
1070
     0
1070
    75
1070
     0
1070
    76
1070
     0
1070
    77
1070
     1
1070
    78
1070
     8
1070
   140
1040
12.30478368673051
1070
   147
1040
0.0
1070
   173
1070
     1
1070
   176
1070
     1
1070
   177
1070
     1
1070
   178
1070
     3
1070
   271
1070
     3
1070
   277
1070
     2
1070
   279
1070
     2
1070
   280
1070
     0
1070
   287
1070
     5
1070
   340
1005
6B3
1002
}
  0
DIMENSION
  5
6DC
330
1F
100
AcDbEntity
  8
LAY-1
  6
CONTINUOUS
 62
     1
100
AcDbDimension
  2
*D18
 10
957.0
 20
200.0
 30
0.0
 11
667.0
 21
209.5
 31
0.0
 70
   160
  3
ISO-25
100
AcDbAlignedDimension
 13
377.0
 23
280.0
 33
0.0
 14
957.0
 24
280.0
 34
0.0
100
AcDbRotatedDimension
1001
ACAD
1000
DSTYLE
1002
{
1070
   270
1070
     2
1070
     6
1000
EX_NORM
1070
     7
1000
EX_NORM
1070
    41
1040
2.5
1070
    42
1040
1.0
1070
    44
1040
1.0
1070
    73
1070
     0
1070
    74
1070
     0
1070
    75
1070
     0
1070
    76
1070
     0
1070
    77
1070
     1
1070
    78
1070
     8
1070
   140
1040
12.30478368673051
1070
   147
1040
0.0
1070
   173
1070
     1
1070
   176
1070
     1
1070
   177
1070
     1
1070
   178
1070
     3
1070
   271
1070
     3
1070
   277
1070
     2
1070
   279
1070
     2
1070
   280
1070
     0
1070
   287
1070
     5
1070
   340
1005
6B3
1002
}
  0
LINE
  5
6E9
330
1F
100
AcDbEntity
  8
LAY-1
  6
CONTINUOUS
 62
     3
100
AcDbLine
 10
657.75
 20
803.0
 30
0.0
 11
657.75
 21
806.9999999999999
 31
0.0
  0
ARC
  5
6EA
330
1F
100
AcDbEntity
  8
LAY-1
  6
CONTINUOUS
 62
     3
100
AcDbCircle
 10
658.75
 20
806.9999999999999
 30
0.0
 40
1.0
100
AcDbArc
 50
90.00000000000001
 51
180.0
  0
LINE
  5
6EB
330
1F
100
AcDbEntity
  8
LAY-1
  6
CONTINUOUS
 62
     3
100
AcDbLine
 10
658.75
 20
807.9999999999999
 30
0.0
 11
667.0
 21
807.9999999999999
 31
0.0
  0
LINE
  5
6EC
330
1F
100
AcDbEntity
  8
LAY-1
  6
CONTINUOUS
 62
     3
100
AcDbLine
 10
667.0
 20
802.9999999999999
 30
0.0
 11
655.0
 21
802.9999999999999
 31
0.0
  0
LINE
  5
6ED
330
1F
100
AcDbEntity
  8
LAY-1
  6
CONTINUOUS
 62
     3
100
AcDbLine
 10
676.25
 20
803.0
 30
0.0
 11
676.25
 21
806.9999999999999
 31
0.0
  0
ARC
  5
6EE
330
1F
100
AcDbEntity
  8
LAY-1
  6
CONTINUOUS
 62
     3
100
AcDbCircle
 10
675.25
 20
806.9999999999999
 30
0.0
 40
1.0
100
AcDbArc
 50
0.0
 51
90.00000000000001
  0
LINE
  5
6EF
330
1F
100
AcDbEntity
  8
LAY-1
  6
CONTINUOUS
 62
     3
100
AcDbLine
 10
675.25
 20
807.9999999999999
 30
0.0
 11
667.0
 21
807.9999999999999
 31
0.0
  0
LINE
  5
6F0
330
1F
100
AcDbEntity
  8
LAY-1
  6
CONTINUOUS
 62
     3
100
AcDbLine
 10
667.0
 20
802.9999999999999
 30
0.0
 11
679.0
 21
802.9999999999999
 31
0.0
  0
LINE
  5
6F1
330
1F
100
AcDbEntity
  8
LAY-1
  6
CONTINUOUS
 62
     3
100
AcDbLine
 10
655.0
 20
802.9999999999999
 30
0.0
 11
655.0
 21
796.4999999999956
 31
0.0
  0
LINE
  5
6F2
330
1F
100
AcDbEntity
  8
LAY-1
  6
CONTINUOUS
 62
     3
100
AcDbLine
 10
678.9999999999999
 20
802.9999999999999
 30
0.0
 11
678.9999999999999
 21
796.4999999999956
 31
0.0
  0
LINE
  5
6F3
330
1F
100
AcDbEntity
  8
LAY-1
  6
EXLTYPE2
 62
     1
100
AcDbLine
 10
667.0
 20
286.0
 30
0.0
 11
666.9999999999999
 21
813.5
 31
0.0
  0
LINE
  5
6F4
330
1F
100
AcDbEntity
  8
LAY-1
  6
CONTINUOUS
 62
     1
100
AcDbLine
 10
676.2499999999999
 20
802.9999999999999
 30
0.0
 11
676.2499999999999
 21
796.4999999999956
 31
0.0
  0
LINE
  5
6F5
330
1F
100
AcDbEntity
  8
LAY-1
  6
CONTINUOUS
 62
     1
100
AcDbLine
 10
657.75
 20
802.9999999999999
 30
0.0
 11
657.75
 21
796.4999999999956
 31
0.0
  0
LINE
  5
6F6
330
1F
100
AcDbEntity
  8
LAY-1
  6
EXLTYPE2
 62
     1
100
AcDbLine
 10
1284.6
 20
815.5
 30
0.0
 11
1284.6
 21
631.5341907554567
 31
0.0
  0
LINE
  5
6F7
330
1F
100
AcDbEntity
  8
LAY-1
  6
CONTINUOUS
 62
     1
100
AcDbLine
 10
1275.35
 20
802.9999999999999
 30
0.0
 11
1275.35
 21
796.4999999999956
 31
0.0
  0
LINE
  5
6F8
330
1F
100
AcDbEntity
  8
LAY-1
  6
CONTINUOUS
 62
     1
100
AcDbLine
 10
1293.85
 20
802.9999999999999
 30
0.0
 11
1293.85
 21
796.4999999999956
 31
0.0
  0
LINE
  5
6F9
330
1F
100
AcDbEntity
  8
LAY-1
  6
CONTINUOUS
 62
     3
100
AcDbLine
 10
1296.6
 20
802.9999999999999
 30
0.0
 11
1296.6
 21
796.4999999999956
 31
0.0
  0
LINE
  5
6FA
330
1F
100
AcDbEntity
  8
LAY-1
  6
CONTINUOUS
 62
     3
100
AcDbLine
 10
1272.6
 20
802.9999999999999
 30
0.0
 11
1272.6
 21
796.4999999999956
 31
0.0
  0
LINE
  5
6FB
330
1F
100
AcDbEntity
  8
LAY-1
  6
CONTINUOUS
 62
     3
100
AcDbLine
 10
1284.6
 20
802.9999999999999
 30
0.0
 11
1296.6
 21
802.9999999999999
 31
0.0
  0
LINE
  5
6FC
330
1F
100
AcDbEntity
  8
LAY-1
  6
CONTINUOUS
 62
     3
100
AcDbLine
 10
1292.85
 20
807.9999999999999
 30
0.0
 11
1284.6
 21
807.9999999999999
 31
0.0
  0
ARC
  5
6FD
330
1F
100
AcDbEntity
  8
LAY-1
  6
CONTINUOUS
 62
     3
100
AcDbCircle
 10
1292.85
 20
806.9999999999999
 30
0.0
 40
1.0
100
AcDbArc
 50
0.0
 51
90.00000000000001
  0
LINE
  5
6FE
330
1F
100
AcDbEntity
  8
LAY-1
  6
CONTINUOUS
 62
     3
100
AcDbLine
 10
1293.85
 20
803.0
 30
0.0
 11
1293.85
 21
806.9999999999999
 31
0.0
  0
LINE
  5
6FF
330
1F
100
AcDbEntity
  8
LAY-1
  6
CONTINUOUS
 62
     3
100
AcDbLine
 10
1284.6
 20
802.9999999999999
 30
0.0
 11
1272.6
 21
802.9999999999999
 31
0.0
  0
LINE
  5
700
330
1F
100
AcDbEntity
  8
LAY-1
  6
CONTINUOUS
 62
     3
100
AcDbLine
 10
1276.35
 20
807.9999999999999
 30
0.0
 11
1284.6
 21
807.9999999999999
 31
0.0
  0
ARC
  5
701
330
1F
100
AcDbEntity
  8
LAY-1
  6
CONTINUOUS
 62
     3
100
AcDbCircle
 10
1276.35
 20
806.9999999999999
 30
0.0
 40
1.0
100
AcDbArc
 50
90.00000000000001
 51
180.0
  0
LINE
  5
702
330
1F
100
AcDbEntity
  8
LAY-1
  6
CONTINUOUS
 62
     3
100
AcDbLine
 10
1275.35
 20
803.0
 30
0.0
 11
1275.35
 21
806.9999999999999
 31
0.0
  0
DIMENSION
  5
703
330
1F
100
AcDbEntity
  8
LAY-1
  6
CONTINUOUS
 62
     1
100
AcDbDimension
  2
*D19
 10
1086.0
 20
1234.0
 30
0.0
 11
1075.5
 21
1069.0
 31
0.0
 70
   160
  3
ISO-25
100
AcDbAlignedDimension
 13
730.0
 23
904.0
 33
0.0
 14
730.0
 24
1234.0
 34
0.0
 50
90.0
100
AcDbRotatedDimension
1001
ACAD
1000
DSTYLE
1002
{
1070
   270
1070
     2
1070
     6
1000
EX_NORM
1070
     7
1000
EX_NORM
1070
    41
1040
2.5
1070
    42
1040
1.0
1070
    44
1040
1.0
1070
    73
1070
     0
1070
    74
1070
     0
1070
    75
1070
     0
1070
    76
1070
     0
1070
    77
1070
     1
1070
    78
1070
     8
1070
   140
1040
13.67198187414501
1070
   147
1040
0.0
1070
   173
1070
     1
1070
   176
1070
     1
1070
   177
1070
     1
1070
   178
1070
     3
1070
   271
1070
     3
1070
   277
1070
     2
1070
   279
1070
     2
1070
   280
1070
     0
1070
   287
1070
     5
1070
   340
1005
6B3
1002
}
  0
DIMENSION
  5
710
330
1F
100
AcDbEntity
  8
LAY-1
  6
CONTINUOUS
 62
     1
100
AcDbDimension
  2
*D20
 10
1054.0
 20
1234.0
 30
0.0
 11
1043.5
 21
1151.5
 31
0.0
 70
   160
  3
ISO-25
100
AcDbAlignedDimension
 13
984.0
 23
1069.0
 33
0.0
 14
730.0
 24
1234.0
 34
0.0
 50
90.0
100
AcDbRotatedDimension
1001
ACAD
1000
DSTYLE
1002
{
1070
   270
1070
     2
1070
     6
1000
EX_NORM
1070
     7
1000
EX_NORM
1070
    41
1040
2.5
1070
    42
1040
1.0
1070
    44
1040
1.0
1070
    73
1070
     0
1070
    74
1070
     0
1070
    75
1070
     0
1070
    76
1070
     0
1070
    77
1070
     1
1070
    78
1070
     8
1070
   140
1040
13.67198187414501
1070
   147
1040
0.0
1070
   173
1070
     1
1070
   176
1070
     1
1070
   177
1070
     1
1070
   178
1070
     3
1070
   271
1070
     3
1070
   277
1070
     2
1070
   279
1070
     2
1070
   280
1070
     0
1070
   287
1070
     5
1070
   340
1005
6B3
1002
}
  0
DIMENSION
  5
71D
330
1F
100
AcDbEntity
  8
LAY-1
  6
CONTINUOUS
 62
     1
100
AcDbDimension
  2
*D21
 10
1053.0
 20
1069.0
 30
0.0
 11
1042.5
 21
986.5
 31
0.0
 70
   160
  3
ISO-25
100
AcDbAlignedDimension
 13
730.0
 23
904.0
 33
0.0
 14
984.0
 24
1069.0
 34
0.0
 50
90.0
100
AcDbRotatedDimension
1001
ACAD
1000
DSTYLE
1002
{
1070
   270
1070
     2
1070
     6
1000
EX_NORM
1070
     7
1000
EX_NORM
1070
    41
1040
2.5
1070
    42
1040
1.0
1070
    44
1040
1.0
1070
    73
1070
     0
1070
    74
1070
     0
1070
    75
1070
     0
1070
    76
1070
     0
1070
    77
1070
     1
1070
    78
1070
     8
1070
   140
1040
13.67198187414501
1070
   147
1040
0.0
1070
   173
1070
     1
1070
   176
1070
     1
1070
   177
1070
     1
1070
   178
1070
     3
1070
   271
1070
     3
1070
   277
1070
     2
1070
   279
1070
     2
1070
   280
1070
     0
1070
   287
1070
     5
1070
   340
1005
6B3
1002
}
  0
DIMENSION
  5
72A
330
1F
100
AcDbEntity
  8
LAY-1
  6
CONTINUOUS
 62
     1
100
AcDbDimension
  2
*D22
 10
1023.0
 20
1069.0
 30
0.0
 11
1012.5
 21
1053.8
 31
0.0
 70
   160
  1
30
  3
ISO-25
100
AcDbAlignedDimension
 13
849.0
 23
1038.6
 33
0.0
 14
985.0
 24
1069.0
 34
0.0
 50
90.0
100
AcDbRotatedDimension
1001
ACAD
1000
DSTYLE
1002
{
1070
   270
1070
     2
1070
     6
1000
EX_NORM
1070
     7
1000
EX_NORM
1070
    41
1040
2.5
1070
    42
1040
1.0
1070
    44
1040
1.0
1070
    73
1070
     0
1070
    74
1070
     0
1070
    75
1070
     0
1070
    76
1070
     0
1070
    77
1070
     1
1070
    78
1070
     8
1070
   140
1040
13.67198187414501
1070
   147
1040
0.0
1070
   173
1070
     1
1070
   176
1070
     1
1070
   177
1070
     1
1070
   178
1070
     3
1070
   271
1070
     3
1070
   277
1070
     2
1070
   279
1070
     2
1070
   280
1070
     0
1070
   287
1070
     5
1070
   340
1005
6B3
1002
}
  0
DIMENSION
  5
737
330
1F
100
AcDbEntity
  8
LAY-1
  6
CONTINUOUS
 62
     1
100
AcDbDimension
  2
*D23
 10
605.3517536155587
 20
931.8221050646227
 30
0.0
 11
718.8549290886137
 21
878.4153718043596
 31
0.0
 70
   160
  3
ISO-25
100
AcDbAlignedDimension
 13
883.50635094611
 23
913.6
 33
0.0
 14
667.0
 24
1038.6
 34
0.0
 50
330.0000000000001
100
AcDbRotatedDimension
1001
ACAD
1000
DSTYLE
1002
{
1070
   270
1070
     2
1070
     6
1000
EX_NORM
1070
     7
1000
EX_NORM
1070
    41
1040
2.5
1070
    42
1040
0.9999999999999836
1070
    44
1040
0.9999999999999836
1070
    73
1070
     0
1070
    74
1070
     0
1070
    75
1070
     0
1070
    76
1070
     0
1070
    77
1070
     1
1070
    78
1070
     8
1070
   140
1040
13.67198187414501
1070
   147
1040
0.0
1070
   173
1070
     1
1070
   176
1070
     1
1070
   177
1070
     1
1070
   178
1070
     3
1070
   271
1070
     3
1070
   277
1070
     2
1070
   279
1070
     2
1070
   280
1070
     0
1070
   287
1070
     5
1070
   340
1005
6B3
1002
}
  0
ARC
  5
744
330
1F
100
AcDbEntity
  8
LAY-1
  6
CONTINUOUS
 62
     3
100
AcDbCircle
 10
429.0
 20
525.0
 30
0.0
 40
2.0
100
AcDbArc
 50
180.0
 51
270.0
  0
LINE
  5
745
330
1F
100
AcDbEntity
  8
LAY-1
  6
CONTINUOUS
 62
     3
100
AcDbLine
 10
430.5
 20
523.0
 30
0.0
 11
429.0
 21
523.0
 31
0.0
  0
ARC
  5
746
330
1F
100
AcDbEntity
  8
LAY-1
  6
CONTINUOUS
 62
     3
100
AcDbCircle
 10
425.0
 20
537.0
 30
0.0
 40
2.0
100
AcDbArc
 50
0.0
 51
90.00000000000001
  0
LINE
  5
747
330
1F
100
AcDbEntity
  8
LAY-1
  6
CONTINUOUS
 62
     3
100
AcDbLine
 10
427.0
 20
525.0
 30
0.0
 11
427.0
 21
555.0
 31
0.0
  0
LINE
  5
748
330
1F
100
AcDbEntity
  8
LAY-1
  6
CONTINUOUS
 62
     3
100
AcDbLine
 10
425.0
 20
539.0
 30
0.0
 11
385.5
 21
539.0
 31
0.0
  0
ARC
  5
749
330
1F
100
AcDbEntity
  8
LAY-1
  6
CONTINUOUS
 62
     3
100
AcDbCircle
 10
434.5
 20
525.0
 30
0.0
 40
2.0
100
AcDbArc
 50
180.0
 51
270.0
  0
ARC
  5
74A
330
1F
100
AcDbEntity
  8
LAY-1
  6
CONTINUOUS
 62
     3
100
AcDbCircle
 10
430.5
 20
525.0
 30
0.0
 40
2.0
100
AcDbArc
 50
270.0
 51
0.0
  0
LINE
  5
74B
330
1F
100
AcDbEntity
  8
LAY-1
  6
CONTINUOUS
 62
     3
100
AcDbLine
 10
481.5
 20
539.0
 30
0.0
 11
528.5
 21
539.0
 31
0.0
  0
ENDSEC
  0
SECTION
  2
OBJECTS
  0
DICTIONARY
  5
C
330
0
100
AcDbDictionary
  3
ACAD_GROUP
350
D
  3
ACAD_LAYOUT
350
1A
  3
ACAD_MATERIAL
350
43
  3
ACAD_MLEADERSTYLE
350
6B
  3
ACAD_MLINESTYLE
350
17
  3
ACAD_PLOTSETTINGS
350
19
  3
ACAD_SCALELIST
350
47
  3
ACAD_VISUALSTYLE
350
2A
  3
ACDBHEADERROUNDTRIPXREC
350
74C
  3
ACDBVARIABLEDICTIONARY
350
76D
  0
DICTIONARY
  5
778
330
8
100
AcDbDictionary
280
     1
  3
ACAD_XREC_ROUNDTRIP
360
779
  0
DICTIONARY
  5
D
102
{ACAD_REACTORS
330
C
102
}
330
C
100
AcDbDictionary
  0
DICTIONARY
  5
1A
102
{ACAD_REACTORS
330
C
102
}
330
C
100
AcDbDictionary
  0
DICTIONARY
  5
43
102
{ACAD_REACTORS
330
C
102
}
330
C
100
AcDbDictionary
  3
BYBLOCK
350
45
  3
BYLAYER
350
44
  3
GLOBAL
350
46
  0
DICTIONARY
  5
6B
102
{ACAD_REACTORS
330
C
102
}
330
C
100
AcDbDictionary
  3
STANDARD
350
6C
  0
DICTIONARY
  5
17
102
{ACAD_REACTORS
330
C
102
}
330
C
100
AcDbDictionary
  3
STANDARD
350
18
  0
DICTIONARY
  5
19
102
{ACAD_REACTORS
330
C
102
}
330
C
100
AcDbDictionary
  0
DICTIONARY
  5
47
102
{ACAD_REACTORS
330
C
102
}
330
C
100
AcDbDictionary
  3
A0
350
48
  3
A1
350
49
  3
A2
350
4A
  3
A3
350
4B
  3
A4
350
4C
  3
A5
350
4D
  3
A6
350
4E
  3
A7
350
4F
  3
A8
350
50
  3
A9
350
51
  3
B0
350
52
  3
B1
350
53
  3
B2
350
54
  3
B3
350
55
  3
B4
350
56
  3
B5
350
57
  3
B6
350
58
  3
B7
350
59
  3
B8
350
5A
  3
B9
350
5B
  3
C0
350
5C
  3
C1
350
5D
  3
C2
350
5E
  3
C3
350
5F
  3
C4
350
60
  3
C5
350
61
  3
C6
350
62
  3
C7
350
63
  3
C8
350
64
  3
C9
350
65
  3
D0
350
66
  3
D1
350
67
  3
D2
350
68
  0
DICTIONARY
  5
2A
102
{ACAD_REACTORS
330
C
102
}
330
C
100
AcDbDictionary
  3
2DWIREFRAME
350
2F
  3
BASIC
350
32
  3
BRIGHTEN
350
36
  3
COLORCHANGE
350
3A
  3
CONCEPTUAL
350
34
  3
DIM
350
35
  3
EDGECOLOROFF
350
3D
  3
FACEPATTERN
350
39
  3
FLAT
350
2B
  3
FLATWITHEDGES
350
2C
  3
GOURAUD
350
2D
  3
GOURAUDWITHEDGES
350
2E
  3
HIDDEN
350
31
  3
JITTEROFF
350
3B
  3
LINEPATTERN
350
38
  3
OVERHANGOFF
350
3C
  3
REALISTIC
350
33
  3
SHADED
350
42
  3
SHADED_WITH_EDGES
350
41
  3
SHADES_OF_GRAY
350
3E
  3
SKETCHY
350
3F
  3
THICKEN
350
37
  3
WIREFRAME
350
30
  3
X-RAY
350
40
  0
DICTIONARY
  5
74C
102
{ACAD_REACTORS
330
C
102
}
330
C
100
AcDbDictionary
  3
CEPSNID
350
756
  3
CEPSNTYPE
350
755
  3
DIMSTYLEDATA
350
76C
  3
FINGERPRINTGUID
350
757
  3
HYPERLINKBASE
350
74F
  3
INSUNITS
350
754
  3
LAYOUTDICT
350
751
  3
LWETCUNION
350
753
  3
PLOTSETDICT
350
752
  3
PSVPSCALE
350
759
  3
PUCSBASE
350
75C
  3
PUCSORGBACK
350
762
  3
PUCSORGBOTTOM
350
75E
  3
PUCSORGFRONT
350
761
  3
PUCSORGLEFT
350
75F
  3
PUCSORGRIGHT
350
760
  3
PUCSORGTOP
350
75D
  3
PUCSORTHOREF
350
75A
  3
PUCSORTHOVIEW
350
75B
  3
STYLESHEET
350
750
  3
TSTACKALIGN
350
74D
  3
TSTACKSIZE
350
74E
  3
UCSBASE
350
765
  3
UCSORGBACK
350
76B
  3
UCSORGBOTTOM
350
767
  3
UCSORGFRONT
350
76A
  3
UCSORGLEFT
350
768
  3
UCSORGRIGHT
350
769
  3
UCSORGTOP
350
766
  3
UCSORTHOREF
350
763
  3
UCSORTHOVIEW
350
764
  3
VERSIONGUID
350
758
  0
DICTIONARY
  5
76D
102
{ACAD_REACTORS
330
C
102
}
330
C
100
AcDbDictionary
  3
CANNOSCALE
350
77A
  3
CENTEREXE
350
774
  3
CENTERLTYPEFILE
350
775
  3
CMLEADERSTYLE
350
76F
  3
CTABLESTYLE
350
76E
  3
DIMASSOC
350
776
  3
HIDETEXT
350
777
  3
MSLTSCALE
350
77B
  3
PSOLHEIGHT
350
771
  3
PSOLWIDTH
350
770
  0
XRECORD
  5
779
102
{ACAD_REACTORS
330
778
102
}
330
778
100
AcDbXrecord
102
VTR_0.000_0.000_1.000_1.000_VISUALSTYLE
340
2F
102
VTR_0.000_0.000_1.000_1.000_GRIDDISPLAY
 70
     3
102
VTR_0.000_0.000_1.000_1.000_GRIDMAJOR
 70
     5
102
VTR_0.000_0.000_1.000_1.000_DEFAULTLIGHTING
280
     1
102
VTR_0.000_0.000_1.000_1.000_DEFAULTLIGHTINGTYPE
 70
     1
102
VTR_0.000_0.000_1.000_1.000_BRIGHTNESS
141
0.0
102
VTR_0.000_0.000_1.000_1.000_CONTRAST
142
0.0
  0
MATERIAL
  5
45
102
{ACAD_REACTORS
330
43
102
}
102
{ACAD_XDICTIONARY
360
77E
102
}
330
43
100
AcDbMaterial
  1
BYBLOCK
  0
MATERIAL
  5
44
102
{ACAD_REACTORS
330
43
102
}
102
{ACAD_XDICTIONARY
360
77C
102
}
330
43
100
AcDbMaterial
  1
BYLAYER
  0
MATERIAL
  5
46
102
{ACAD_REACTORS
330
43
102
}
102
{ACAD_XDICTIONARY
360
780
102
}
330
43
100
AcDbMaterial
  1
GLOBAL
  0
ACAD_PROXY_OBJECT
  5
6C
102
{ACAD_REACTORS
330
6B
102
}
330
6B
100
AcDbProxyObject
 90
      499
 91
      505
 93
      610
310
40901902A4063FBFFFFFE0000000000000020400000000000020404214DD185B99185C990000000000000104090141901A00000000000004100000000000000041025764000000000000039000
340
14
340
0
340
11
340
0
 94
        0
1001
ACAD_MLEADERVER
1070
     2
  0
MLINESTYLE
  5
18
102
{ACAD_REACTORS
330
17
102
}
330
17
100
AcDbMlineStyle
  2
Standard
 70
     0
  3

 62
   256
 51
90.0
 52
90.0
 71
     2
 49
0.5
 62
   256
  6
BYLAYER
 49
-0.5
 62
   256
  6
BYLAYER
  0
ACAD_PROXY_OBJECT
  5
48
102
{ACAD_REACTORS
330
47
102
}
330
47
100
AcDbProxyObject
 90
      499
 91
      503
 93
       41
310
903313A31580
  0
ACAD_PROXY_OBJECT
  5
49
102
{ACAD_REACTORS
330
47
102
}
330
47
100
AcDbProxyObject
 90
      499
 91
      503
 93
      105
310
903313A324000000000000004000
  0
ACAD_PROXY_OBJECT
  5
4A
102
{ACAD_REACTORS
330
47
102
}
330
47
100
AcDbProxyObject
 90
      499
 91
      503
 93
      105
310
903313A344000000000000104000
  0
ACAD_PROXY_OBJECT
  5
4B
102
{ACAD_REACTORS
330
47
102
}
330
47
100
AcDbProxyObject
 90
      499
 91
      503
 93
      105
310
903313A354000000000000144000
  0
ACAD_PROXY_OBJECT
  5
4C
102
{ACAD_REACTORS
330
47
102
}
330
47
100
AcDbProxyObject
 90
      499
 91
      503
 93
      105
310
903313A384000000000000204000
  0
ACAD_PROXY_OBJECT
  5
4D
102
{ACAD_REACTORS
330
47
102
}
330
47
100
AcDbProxyObject
 90
      499
 91
      503
 93
      113
310
904313A31304000000000000244000
  0
ACAD_PROXY_OBJECT
  5
4E
102
{ACAD_REACTORS
330
47
102
}
330
47
100
AcDbProxyObject
 90
      499
 91
      503
 93
      113
310
904313A31364000000000000304000
  0
ACAD_PROXY_OBJECT
  5
4F
102
{ACAD_REACTORS
330
47
102
}
330
47
100
AcDbProxyObject
 90
      499
 91
      503
 93
      113
310
904313A32304000000000000344000
  0
ACAD_PROXY_OBJECT
  5
50
102
{ACAD_REACTORS
330
47
102
}
330
47
100
AcDbProxyObject
 90
      499
 91
      503
 93
      113
310
904313A333040000000000003E4000
  0
ACAD_PROXY_OBJECT
  5
51
102
{ACAD_REACTORS
330
47
102
}
330
47
100
AcDbProxyObject
 90
      499
 91
      503
 93
      113
310
904313A34304000000000000444000
  0
ACAD_PROXY_OBJECT
  5
52
102
{ACAD_REACTORS
330
47
102
}
330
47
100
AcDbProxyObject
 90
      499
 91
      503
 93
      113
310
904313A35304000000000000494000
  0
ACAD_PROXY_OBJECT
  5
53
102
{ACAD_REACTORS
330
47
102
}
330
47
100
AcDbProxyObject
 90
      499
 91
      503
 93
      121
310
905313A3130304000000000000594000
  0
ACAD_PROXY_OBJECT
  5
54
102
{ACAD_REACTORS
330
47
102
}
330
47
100
AcDbProxyObject
 90
      499
 91
      503
 93
      105
310
903323A310000000000000010100
  0
ACAD_PROXY_OBJECT
  5
55
102
{ACAD_REACTORS
330
47
102
}
330
47
100
AcDbProxyObject
 90
      499
 91
      503
 93
      105
310
903343A310000000000000410100
  0
ACAD_PROXY_OBJECT
  5
56
102
{ACAD_REACTORS
330
47
102
}
330
47
100
AcDbProxyObject
 90
      499
 91
      503
 93
      105
310
903383A310000000000000810100
  0
ACAD_PROXY_OBJECT
  5
57
102
{ACAD_REACTORS
330
47
102
}
330
47
100
AcDbProxyObject
 90
      499
 91
      503
 93
      113
310
90431303A310000000000000910100
  0
ACAD_PROXY_OBJECT
  5
58
102
{ACAD_REACTORS
330
47
102
}
330
47
100
AcDbProxyObject
 90
      499
 91
      503
 93
      121
310
9053130303A310000000000001650100
  0
ACAD_PROXY_OBJECT
  5
59
102
{ACAD_REACTORS
330
47
102
}
330
47
100
AcDbProxyObject
 90
      499
 91
      503
 93
      257
310
90E312F31323822203D2031272D3022000000000000200FC000000000000284000
  0
ACAD_PROXY_OBJECT
  5
5A
102
{ACAD_REACTORS
330
47
102
}
330
47
100
AcDbProxyObject
 90
      499
 91
      503
 93
      249
310
90D312F363422203D2031272D3022000000000000240FC000000000000284000
  0
ACAD_PROXY_OBJECT
  5
5B
102
{ACAD_REACTORS
330
47
102
}
330
47
100
AcDbProxyObject
 90
      499
 91
      503
 93
      249
310
90D312F333222203D2031272D3022000000000000280FC000000000000284000
  0
ACAD_PROXY_OBJECT
  5
5C
102
{ACAD_REACTORS
330
47
102
}
330
47
100
AcDbProxyObject
 90
      499
 91
      503
 93
      249
310
90D312F313622203D2031272D30220000000000002C0FC000000000000284000
  0
ACAD_PROXY_OBJECT
  5
5D
102
{ACAD_REACTORS
330
47
102
}
330
47
100
AcDbProxyObject
 90
      499
 91
      503
 93
      249
310
90D332F333222203D2031272D30220000000000002E0FC000000000000284000
  0
ACAD_PROXY_OBJECT
  5
5E
102
{ACAD_REACTORS
330
47
102
}
330
47
100
AcDbProxyObject
 90
      499
 91
      503
 93
      241
310
90C312F3822203D2031272D3022000000000000300FC000000000000284000
  0
ACAD_PROXY_OBJECT
  5
5F
102
{ACAD_REACTORS
330
47
102
}
330
47
100
AcDbProxyObject
 90
      499
 91
      503
 93
      249
310
90D332F313622203D2031272D3022000000000000320FC000000000000284000
  0
ACAD_PROXY_OBJECT
  5
60
102
{ACAD_REACTORS
330
47
102
}
330
47
100
AcDbProxyObject
 90
      499
 91
      503
 93
      241
310
90C312F3422203D2031272D3022000000000000340FC000000000000284000
  0
ACAD_PROXY_OBJECT
  5
61
102
{ACAD_REACTORS
330
47
102
}
330
47
100
AcDbProxyObject
 90
      499
 91
      503
 93
      241
310
90C332F3822203D2031272D3022000000000000360FC000000000000284000
  0
ACAD_PROXY_OBJECT
  5
62
102
{ACAD_REACTORS
330
47
102
}
330
47
100
AcDbProxyObject
 90
      499
 91
      503
 93
      241
310
90C312F3222203D2031272D3022000000000000380FC000000000000284000
  0
ACAD_PROXY_OBJECT
  5
63
102
{ACAD_REACTORS
330
47
102
}
330
47
100
AcDbProxyObject
 90
      499
 91
      503
 93
      241
310
90C332F3422203D2031272D30220000000000003A0FC000000000000284000
  0
ACAD_PROXY_OBJECT
  5
64
102
{ACAD_REACTORS
330
47
102
}
330
47
100
AcDbProxyObject
 90
      499
 91
      503
 93
      161
310
90A3122203D2031272D30224000000000000284000
  0
ACAD_PROXY_OBJECT
  5
65
102
{ACAD_REACTORS
330
47
102
}
330
47
100
AcDbProxyObject
 90
      499
 91
      503
 93
      257
310
90E312D312F3222203D2031272D30220000000000003E0FC000000000000284000
  0
ACAD_PROXY_OBJECT
  5
66
102
{ACAD_REACTORS
330
47
102
}
330
47
100
AcDbProxyObject
 90
      499
 91
      503
 93
      225
310
90A3322203D2031272D302200000000000002100000000000000284000
  0
ACAD_PROXY_OBJECT
  5
67
102
{ACAD_REACTORS
330
47
102
}
330
47
100
AcDbProxyObject
 90
      499
 91
      503
 93
      225
310
90A3622203D2031272D302200000000000006100000000000000284000
  0
ACAD_PROXY_OBJECT
  5
68
102
{ACAD_REACTORS
330
47
102
}
330
47
100
AcDbProxyObject
 90
      499
 91
      503
 93
      249
310
90D31272D3022203D2031272D30220000000000000A100000000000000284000
  0
ACAD_PROXY_OBJECT
  5
2F
102
{ACAD_REACTORS
330
2A
102
}
330
2A
100
AcDbProxyObject
 90
      499
 91
      501
 93
      436
310
42CC9915DA5C99599C985B595049028333333333333E33F0000000000000F90107901411070040501600405405064090741402480A0340
1001
ACAD
1000
AcDbSavedByObjectVersion
1070
     0
  0
ACAD_PROXY_OBJECT
  5
32
102
{ACAD_REACTORS
330
2A
102
}
330
2A
100
AcDbProxyObject
 90
      499
 91
      501
 93
      388
310
4150985CDA58D07406404333333333333E33F0000000000000F90107A41107004050150841D405064090741402480A0350
1001
ACAD
1000
AcDbSavedByObjectVersion
1070
     0
  0
ACAD_PROXY_OBJECT
  5
36
102
{ACAD_REACTORS
330
2A
102
}
330
2A
100
AcDbProxyObject
 90
      499
 91
      501
 93
      428
310
42109C9A59DA1D195B90C409028333333333333E33F0000000000000F9010790141107004050150841D405064090741402480A029950
1001
ACAD
1000
AcDbSavedByObjectVersion
1070
     0
  0
ACAD_PROXY_OBJECT
  5
3A
102
{ACAD_REACTORS
330
2A
102
}
330
2A
100
AcDbProxyObject
 90
      499
 91
      501
 93
      452
310
42D0DBDB1BDC90DA185B99D95104090240C333333333333E33F0000000000000F90108901411070040501508421405064090741402480A0350
1001
ACAD
1000
AcDbSavedByObjectVersion
1070
     0
  0
ACAD_PROXY_OBJECT
  5
34
102
{ACAD_REACTORS
330
2A
102
}
330
2A
100
AcDbProxyObject
 90
      499
 91
      501
 93
      500
310
4290DBDB98D95C1D1D585B10940D028333333333333E33F0000000000000F90107902409070040501000000000018199010841D405064090740C02480A0340
1001
ACAD
1000
AcDbSavedByObjectVersion
1070
     0
  0
ACAD_PROXY_OBJECT
  5
35
102
{ACAD_REACTORS
330
2A
102
}
330
2A
100
AcDbProxyObject
 90
      499
 91
      501
 93
      412
310
40D11A5B50B409028333333333333E33F0000000000000F9010790141107004050150841D405064090741402480A02677FFFFFD0
1001
ACAD
1000
AcDbSavedByObjectVersion
1070
     0
  0
ACAD_PROXY_OBJECT
  5
3D
102
{ACAD_REACTORS
330
2A
102
}
330
2A
100
AcDbProxyObject
 90
      499
 91
      501
 93
      452
310
43115919D950DBDB1BDC93D999916409028333333333333E33F0000000000000F9010790141107004050150841D405064090741402480A0350
1001
ACAD
1000
AcDbSavedByObjectVersion
1070
     0
  0
ACAD_PROXY_OBJECT
  5
39
102
{ACAD_REACTORS
330
2A
102
}
330
2A
100
AcDbProxyObject
 90
      499
 91
      501
 93
      444
310
42D19858D95C185D1D195C9B90F409028333333333333E33F0000000000000F9010790141107004050150841D405064090741402480A0350
1001
ACAD
1000
AcDbSavedByObjectVersion
1070
     0
  0
ACAD_PROXY_OBJECT
  5
2B
102
{ACAD_REACTORS
330
2A
102
}
330
2A
100
AcDbProxyObject
 90
      499
 91
      501
 93
      380
310
41119B185D240901404333333333333E33F0000000000000F9010740A907004050150841D405064090741402480A1B50
1001
ACAD
1000
AcDbSavedByObjectVersion
1070
     0
  0
ACAD_PROXY_OBJECT
  5
2C
102
{ACAD_REACTORS
330
2A
102
}
330
2A
100
AcDbProxyObject
 90
      499
 91
      501
 93
      468
310
43519B185D15DA5D1A115919D95CD0140901404333333333333E33F0000000000000F90107409019070040501600405405064090741402480A1B50
1001
ACAD
1000
AcDbSavedByObjectVersion
1070
     0
  0
ACAD_PROXY_OBJECT
  5
2D
102
{ACAD_REACTORS
330
2A
102
}
330
2A
100
AcDbProxyObject
 90
      499
 91
      501
 93
      404
310
41D1DBDD5C985D5910240902404333333333333E33F0000000000000F9010740A9070040501641D405064090741402480A1B50
1001
ACAD
1000
AcDbSavedByObjectVersion
1070
     0
  0
ACAD_PROXY_OBJECT
  5
2E
102
{ACAD_REACTORS
330
2A
102
}
330
2A
100
AcDbProxyObject
 90
      499
 91
      501
 93
      492
310
4411DBDD5C985D5915DA5D1A115919D95CD0340902404333333333333E33F0000000000000F90107409019070040501600405405064090741402480A1B50
1001
ACAD
1000
AcDbSavedByObjectVersion
1070
     0
  0
ACAD_PROXY_OBJECT
  5
31
102
{ACAD_REACTORS
330
2A
102
}
330
2A
100
AcDbProxyObject
 90
      499
 91
      501
 93
      476
310
41921A5919195B90640502408333333333333E33F0000000000000F901079024090700405020000000000001110200405405064090740C02480A0340
1001
ACAD
1000
AcDbSavedByObjectVersion
1070
     0
  0
ACAD_PROXY_OBJECT
  5
3B
102
{ACAD_REACTORS
330
2A
102
}
330
2A
100
AcDbProxyObject
 90
      499
 91
      501
 93
      428
310
42529A5D1D195C93D999914409028333333333333E33F0000000000000F9010790141107004050150A41D405064090741402480A0350
1001
ACAD
1000
AcDbSavedByObjectVersion
1070
     0
  0
ACAD_PROXY_OBJECT
  5
38
102
{ACAD_REACTORS
330
2A
102
}
330
2A
100
AcDbProxyObject
 90
      499
 91
      501
 93
      444
310
42D31A5B995C185D1D195C9B90E409028333333333333E33F0000000000000F9010790141107004050750841D405064090741402483A0350
1001
ACAD
1000
AcDbSavedByObjectVersion
1070
     0
  0
ACAD_PROXY_OBJECT
  5
3C
102
{ACAD_REACTORS
330
2A
102
}
330
2A
100
AcDbProxyObject
 90
      499
 91
      501
 93
      444
310
42D3DD995C9A185B99D3D999915409028333333333333E33F0000000000000F9010790141107004050150941D405064090741402480A0350
1001
ACAD
1000
AcDbSavedByObjectVersion
1070
     0
  0
ACAD_PROXY_OBJECT
  5
33
102
{ACAD_REACTORS
330
2A
102
}
330
2A
100
AcDbProxyObject
 90
      499
 91
      501
 93
      428
310
425499585B1A5CDD1A58D08409038333333333333E33F0000000000000F9010740A907004050150800405405064090740C02480A1B40
1001
ACAD
1000
AcDbSavedByObjectVersion
1070
     0
  0
ACAD_PROXY_OBJECT
  5
42
102
{ACAD_REACTORS
330
2A
102
}
330
2A
100
AcDbProxyObject
 90
      499
 91
      501
 93
      420
310
4194DA1859195911B40902404333333333333E33F0000000000000F9010740A41107004050150800405405064090840C02480A0B40
1001
ACAD
1000
AcDbSavedByObjectVersion
1070
     0
  0
ACAD_PROXY_OBJECT
  5
41
102
{ACAD_REACTORS
330
2A
102
}
330
2A
100
AcDbProxyObject
 90
      499
 91
      501
 93
      516
310
4454DA18591959081DDA5D1A08195919D95CD1A40902404333333333333E33F0000000000000F901074090142907004050250800405405064090740C02480A0B40
1001
ACAD
1000
AcDbSavedByObjectVersion
1070
     0
  0
ACAD_PROXY_OBJECT
  5
3E
102
{ACAD_REACTORS
330
2A
102
}
330
2A
100
AcDbProxyObject
 90
      499
 91
      501
 93
      532
310
4394DA1859195CC81BD98811DC985E5174090240C333333333333E33F0000000000000F901079024090741D01000000000000111010841D405064090740C02480A0340
1001
ACAD
1000
AcDbSavedByObjectVersion
1070
     0
  0
ACAD_PROXY_OBJECT
  5
3F
102
{ACAD_REACTORS
330
2A
102
}
330
2A
100
AcDbProxyObject
 90
      499
 91
      501
 93
      476
310
41D4DAD95D18DA1E51840502408333333333333E33F0000000000000F901079024090741D01000000000000111010B41D405064090741802480A0340
1001
ACAD
1000
AcDbSavedByObjectVersion
1070
     0
  0
ACAD_PROXY_OBJECT
  5
37
102
{ACAD_REACTORS
330
2A
102
}
330
2A
100
AcDbProxyObject
 90
      499
 91
      501
 93
      412
310
41D51A1A58DAD95B90D409028333333333333E33F0000000000000F9010790141107004050150C41D405064090741402480A0350
1001
ACAD
1000
AcDbSavedByObjectVersion
1070
     0
  0
ACAD_PROXY_OBJECT
  5
30
102
{ACAD_REACTORS
330
2A
102
}
330
2A
100
AcDbProxyObject
 90
      499
 91
      501
 93
      420
310
4255DA5C99599C985B595059028333333333333E33F0000000000000F90107901411070040501600405405064090740C02480A0340
1001
ACAD
1000
AcDbSavedByObjectVersion
1070
     0
  0
ACAD_PROXY_OBJECT
  5
40
102
{ACAD_REACTORS
330
2A
102
}
330
2A
100
AcDbProxyObject
 90
      499
 91
      501
 93
      404
310
41560B54985E51940902404000000000000E03F0000000000000F9010740501907004050150841D405064090740C02480A1B40
1001
ACAD
1000
AcDbSavedByObjectVersion
1070
     0
  0
XRECORD
  5
756
102
{ACAD_REACTORS
330
74C
102
}
330
74C
100
AcDbXrecord
340
0
  0
XRECORD
  5
755
102
{ACAD_REACTORS
330
74C
102
}
330
74C
100
AcDbXrecord
 90
        0
  0
XRECORD
  5
76C
102
{ACAD_REACTORS
330
74C
102
}
330
74C
100
AcDbXrecord
1000
DSTYLE
1002
{
1070
   340
340
11
1002
}
  0
XRECORD
  5
757
102
{ACAD_REACTORS
330
74C
102
}
330
74C
100
AcDbXrecord
  1
{801ff44c-fb86-44e8-af2f-d3a86f47c847}
  0
XRECORD
  5
74F
102
{ACAD_REACTORS
330
74C
102
}
330
74C
100
AcDbXrecord
  1

  0
XRECORD
  5
754
102
{ACAD_REACTORS
330
74C
102
}
330
74C
100
AcDbXrecord
 90
        4
  0
XRECORD
  5
751
102
{ACAD_REACTORS
330
74C
102
}
330
74C
100
AcDbXrecord
340
1A
  0
XRECORD
  5
753
102
{ACAD_REACTORS
330
74C
102
}
330
74C
100
AcDbXrecord
 90
    10781
  0
XRECORD
  5
752
102
{ACAD_REACTORS
330
74C
102
}
330
74C
100
AcDbXrecord
340
19
  0
XRECORD
  5
759
102
{ACAD_REACTORS
330
74C
102
}
330
74C
100
AcDbXrecord
 40
0.0
  0
XRECORD
  5
75C
102
{ACAD_REACTORS
330
74C
102
}
330
74C
100
AcDbXrecord
340
0
  0
XRECORD
  5
762
102
{ACAD_REACTORS
330
74C
102
}
330
74C
100
AcDbXrecord
 10
0.0
 20
0.0
 30
0.0
  0
XRECORD
  5
75E
102
{ACAD_REACTORS
330
74C
102
}
330
74C
100
AcDbXrecord
 10
0.0
 20
0.0
 30
0.0
  0
XRECORD
  5
761
102
{ACAD_REACTORS
330
74C
102
}
330
74C
100
AcDbXrecord
 10
0.0
 20
0.0
 30
0.0
  0
XRECORD
  5
75F
102
{ACAD_REACTORS
330
74C
102
}
330
74C
100
AcDbXrecord
 10
0.0
 20
0.0
 30
0.0
  0
XRECORD
  5
760
102
{ACAD_REACTORS
330
74C
102
}
330
74C
100
AcDbXrecord
 10
0.0
 20
0.0
 30
0.0
  0
XRECORD
  5
75D
102
{ACAD_REACTORS
330
74C
102
}
330
74C
100
AcDbXrecord
 10
0.0
 20
0.0
 30
0.0
  0
XRECORD
  5
75A
102
{ACAD_REACTORS
330
74C
102
}
330
74C
100
AcDbXrecord
340
0
  0
XRECORD
  5
75B
102
{ACAD_REACTORS
330
74C
102
}
330
74C
100
AcDbXrecord
 70
     0
  0
XRECORD
  5
750
102
{ACAD_REACTORS
330
74C
102
}
330
74C
100
AcDbXrecord
  1

  0
XRECORD
  5
74D
102
{ACAD_REACTORS
330
74C
102
}
330
74C
100
AcDbXrecord
 90
        1
  0
XRECORD
  5
74E
102
{ACAD_REACTORS
330
74C
102
}
330
74C
100
AcDbXrecord
 90
       70
  0
XRECORD
  5
765
102
{ACAD_REACTORS
330
74C
102
}
330
74C
100
AcDbXrecord
340
0
  0
XRECORD
  5
76B
102
{ACAD_REACTORS
330
74C
102
}
330
74C
100
AcDbXrecord
 10
0.0
 20
0.0
 30
0.0
  0
XRECORD
  5
767
102
{ACAD_REACTORS
330
74C
102
}
330
74C
100
AcDbXrecord
 10
0.0
 20
0.0
 30
0.0
  0
XRECORD
  5
76A
102
{ACAD_REACTORS
330
74C
102
}
330
74C
100
AcDbXrecord
 10
0.0
 20
0.0
 30
0.0
  0
XRECORD
  5
768
102
{ACAD_REACTORS
330
74C
102
}
330
74C
100
AcDbXrecord
 10
0.0
 20
0.0
 30
0.0
  0
XRECORD
  5
769
102
{ACAD_REACTORS
330
74C
102
}
330
74C
100
AcDbXrecord
 10
0.0
 20
0.0
 30
0.0
  0
XRECORD
  5
766
102
{ACAD_REACTORS
330
74C
102
}
330
74C
100
AcDbXrecord
 10
0.0
 20
0.0
 30
0.0
  0
XRECORD
  5
763
102
{ACAD_REACTORS
330
74C
102
}
330
74C
100
AcDbXrecord
340
0
  0
XRECORD
  5
764
102
{ACAD_REACTORS
330
74C
102
}
330
74C
100
AcDbXrecord
 70
     0
  0
XRECORD
  5
758
102
{ACAD_REACTORS
330
74C
102
}
330
74C
100
AcDbXrecord
  1
{FAEB1C32-E019-11D5-929B-00C0DF256EC4}
  0
DICTIONARYVAR
  5
77A
102
{ACAD_REACTORS
330
76D
102
}
330
76D
100
DictionaryVariables
280
     0
  1
1:1
  0
DICTIONARYVAR
  5
774
102
{ACAD_REACTORS
330
76D
102
}
330
76D
100
DictionaryVariables
280
     0
  1
3.500000
  0
DICTIONARYVAR
  5
775
102
{ACAD_REACTORS
330
76D
102
}
330
76D
100
DictionaryVariables
280
     0
  1
acadiso.lin
  0
DICTIONARYVAR
  5
76F
102
{ACAD_REACTORS
330
76D
102
}
330
76D
100
DictionaryVariables
280
     0
  1
Standard
  0
DICTIONARYVAR
  5
76E
102
{ACAD_REACTORS
330
76D
102
}
330
76D
100
DictionaryVariables
280
     0
  1
Standard
  0
DICTIONARYVAR
  5
776
102
{ACAD_REACTORS
330
76D
102
}
330
76D
100
DictionaryVariables
280
     0
  1
2
  0
DICTIONARYVAR
  5
777
102
{ACAD_REACTORS
330
76D
102
}
330
76D
100
DictionaryVariables
280
     0
  1
1
  0
DICTIONARYVAR
  5
77B
102
{ACAD_REACTORS
330
76D
102
}
330
76D
100
DictionaryVariables
280
     0
  1
1
  0
DICTIONARYVAR
  5
771
102
{ACAD_REACTORS
330
76D
102
}
330
76D
100
DictionaryVariables
280
     0
  1
80.000000
  0
DICTIONARYVAR
  5
770
102
{ACAD_REACTORS
330
76D
102
}
330
76D
100
DictionaryVariables
280
     0
  1
5.000000
  0
DICTIONARY
  5
77E
330
45
100
AcDbDictionary
280
     1
  3
ACAD_XREC_ROUNDTRIP
360
77F
  0
DICTIONARY
  5
77C
330
44
100
AcDbDictionary
280
     1
  3
ACAD_XREC_ROUNDTRIP
360
77D
  0
DICTIONARY
  5
780
330
46
100
AcDbDictionary
280
     1
  3
ACAD_XREC_ROUNDTRIP
360
781
  0
XRECORD
  5
77F
102
{ACAD_REACTORS
330
77E
102
}
330
77E
100
AcDbXrecord
102
MATERIAL
148
0.0
149
0.0
149
0.0
 93
        0
 94
      127
282
     0
 72
     1
 77
     1
171
     1
175
     1
179
     1
273
     0
  0
XRECORD
  5
77D
102
{ACAD_REACTORS
330
77C
102
}
330
77C
100
AcDbXrecord
102
MATERIAL
148
0.0
149
0.0
149
0.0
 93
        0
 94
      127
282
     0
 72
     1
 77
     1
171
     1
175
     1
179
     1
273
     0
  0
XRECORD
  5
781
102
{ACAD_REACTORS
330
780
102
}
330
780
100
AcDbXrecord
102
MATERIAL
148
0.0
149
0.0
149
0.0
 93
        0
 94
      127
282
     0
 72
     1
 77
     1
171
     1
175
     1
179
     1
273
     0
  0
ENDSEC
  0
EOF
