  0
SECTION
  2
HEADER
  9
$ACADVER
  1
AC1014
  9
$ACADMAINTVER
 70
     9
  9
$DWGCODEPAGE
  3
ANSI_932
  9
$INSBASE
 10
0.0
 20
0.0
 30
0.0
  9
$EXTMIN
 10
7.536070755162333
 20
66.0
 30
0.0
  9
$EXTMAX
 10
761.9334414993159
 20
544.666473
 30
0.0
  9
$LIMMIN
 10
0.0
 20
0.0
  9
$LIMMAX
 10
570.0
 20
400.0
  9
$ORTHOMODE
 70
     0
  9
$REGENMODE
 70
     1
  9
$FILLMODE
 70
     1
  9
$QTEXTMODE
 70
     0
  9
$MIRRTEXT
 70
     1
  9
$DRAGMODE
 70
     2
  9
$LTSCALE
 40
1.0
  9
$OSMODE
 70
    37
  9
$ATTMODE
 70
     1
  9
$TEXTSIZE
 40
2.5
  9
$TRACEWID
 40
1.0
  9
$TEXTSTYLE
  7
STANDARD
  9
$CLAYER
  8
LAY-1
  9
$CELTYPE
  6
BYLAYER
  9
$CECOLOR
 62
   256
  9
$CELTSCALE
 40
1.0
  9
$DELOBJ
 70
     1
  9
$DISPSILH
 70
     0
  9
$DIMSCALE
 40
1.0
  9
$DIMASZ
 40
2.5
  9
$DIMEXO
 40
0.625
  9
$DIMDLI
 40
3.75
  9
$DIMRND
 40
0.0
  9
$DIMDLE
 40
0.0
  9
$DIMEXE
 40
1.25
  9
$DIMTP
 40
0.0
  9
$DIMTM
 40
0.0
  9
$DIMTXT
 40
2.5
  9
$DIMCEN
 40
2.5
  9
$DIMTSZ
 40
0.0
  9
$DIMTOL
 70
     0
  9
$DIMLIM
 70
     0
  9
$DIMTIH
 70
     0
  9
$DIMTOH
 70
     0
  9
$DIMSE1
 70
     0
  9
$DIMSE2
 70
     0
  9
$DIMTAD
 70
     1
  9
$DIMZIN
 70
     8
  9
$DIMBLK
  1

  9
$DIMASO
 70
     1
  9
$DIMSHO
 70
     1
  9
$DIMPOST
  1

  9
$DIMAPOST
  1

  9
$DIMALT
 70
     0
  9
$DIMALTD
 70
     3
  9
$DIMALTF
 40
0.03937007874016
  9
$DIMLFAC
 40
1.0
  9
$DIMTOFL
 70
     1
  9
$DIMTVP
 40
0.0
  9
$DIMTIX
 70
     0
  9
$DIMSOXD
 70
     0
  9
$DIMSAH
 70
     0
  9
$DIMBLK1
  1

  9
$DIMBLK2
  1

  9
$DIMSTYLE
  2
ISO-25
  9
$DIMCLRD
 70
     0
  9
$DIMCLRE
 70
     0
  9
$DIMCLRT
 70
     0
  9
$DIMTFAC
 40
1.0
  9
$DIMGAP
 40
0.625
  9
$DIMJUST
 70
     0
  9
$DIMSD1
 70
     0
  9
$DIMSD2
 70
     0
  9
$DIMTOLJ
 70
     0
  9
$DIMTZIN
 70
     8
  9
$DIMALTZ
 70
     0
  9
$DIMALTTZ
 70
     0
  9
$DIMFIT
 70
     3
  9
$DIMUPT
 70
     0
  9
$DIMUNIT
 70
     2
  9
$DIMDEC
 70
     2
  9
$DIMTDEC
 70
     2
  9
$DIMALTU
 70
     2
  9
$DIMALTTD
 70
     3
  9
$DIMTXSTY
  7
STANDARD
  9
$DIMAUNIT
 70
     0
  9
$LUNITS
 70
     2
  9
$LUPREC
 70
     4
  9
$SKETCHINC
 40
1.0
  9
$FILLETRAD
 40
10.0
  9
$AUNITS
 70
     0
  9
$AUPREC
 70
     0
  9
$MENU
  1
.
  9
$ELEVATION
 40
0.0
  9
$PELEVATION
 40
0.0
  9
$THICKNESS
 40
0.0
  9
$LIMCHECK
 70
     0
  9
$CHAMFERA
 40
0.0
  9
$CHAMFERB
 40
0.0
  9
$CHAMFERC
 40
0.0
  9
$CHAMFERD
 40
0.0
  9
$SKPOLY
 70
     0
  9
$TDCREATE
 40
2460292.646737431
  9
$TDUPDATE
 40
2460292.646737535
  9
$TDINDWG
 40
0.0000000116
  9
$TDUSRTIMER
 40
0.0000000116
  9
$USRTIMER
 70
     1
  9
$ANGBASE
 50
0.0
  9
$ANGDIR
 70
     0
  9
$PDMODE
 70
     0
  9
$PDSIZE
 40
0.0
  9
$PLINEWID
 40
0.0
  9
$COORDS
 70
     1
  9
$SPLFRAME
 70
     0
  9
$SPLINETYPE
 70
     6
  9
$SPLINESEGS
 70
     8
  9
$ATTDIA
 70
     0
  9
$ATTREQ
 70
     1
  9
$HANDLING
 70
     1
  9
$HANDSEED
  5
54F
  9
$SURFTAB1
 70
     6
  9
$SURFTAB2
 70
     6
  9
$SURFTYPE
 70
     6
  9
$SURFU
 70
     6
  9
$SURFV
 70
     6
  9
$UCSNAME
  2

  9
$UCSORG
 10
0.0
 20
0.0
 30
0.0
  9
$UCSXDIR
 10
1.0
 20
0.0
 30
0.0
  9
$UCSYDIR
 10
0.0
 20
1.0
 30
0.0
  9
$PUCSNAME
  2

  9
$PUCSORG
 10
0.0
 20
0.0
 30
0.0
  9
$PUCSXDIR
 10
1.0
 20
0.0
 30
0.0
  9
$PUCSYDIR
 10
0.0
 20
1.0
 30
0.0
  9
$USERI1
 70
     0
  9
$USERI2
 70
     0
  9
$USERI3
 70
     0
  9
$USERI4
 70
     0
  9
$USERI5
 70
     0
  9
$USERR1
 40
0.0
  9
$USERR2
 40
0.0
  9
$USERR3
 40
0.0
  9
$USERR4
 40
0.0
  9
$USERR5
 40
0.0
  9
$WORLDVIEW
 70
     1
  9
$SHADEDGE
 70
     3
  9
$SHADEDIF
 70
    70
  9
$TILEMODE
 70
     1
  9
$MAXACTVP
 70
    64
  9
$PINSBASE
 10
0.0
 20
0.0
 30
0.0
  9
$PLIMCHECK
 70
     0
  9
$PEXTMIN
 10
1.000000000000000E+20
 20
1.000000000000000E+20
 30
1.000000000000000E+20
  9
$PEXTMAX
 10
-1.000000000000000E+20
 20
-1.000000000000000E+20
 30
-1.000000000000000E+20
  9
$PLIMMIN
 10
0.0
 20
0.0
  9
$PLIMMAX
 10
420.0
 20
297.0
  9
$UNITMODE
 70
     0
  9
$VISRETAIN
 70
     1
  9
$PLINEGEN
 70
     0
  9
$PSLTSCALE
 70
     1
  9
$TREEDEPTH
 70
  3020
  9
$PICKSTYLE
 70
     1
  9
$CMLSTYLE
  2
STANDARD
  9
$CMLJUST
 70
     0
  9
$CMLSCALE
 40
20.0
  9
$PROXYGRAPHICS
 70
     1
  9
$MEASUREMENT
 70
     1
  0
ENDSEC
  0
SECTION
  2
CLASSES
  0
CLASS
  1
ACDBDICTIONARYWDFLT
  2
AcDbDictionaryWithDefault
  3
ObjectDBX Classes
 90
        0
280
     0
281
     0
  0
CLASS
  1
VISUALSTYLE
  2
AcDbVisualStyle
  3
ObjectDBX Classes
 90
     4095
280
     0
281
     0
  0
CLASS
  1
MATERIAL
  2
AcDbMaterial
  3
ObjectDBX Classes
 90
     1153
280
     0
281
     0
  0
CLASS
  1
SCALE
  2
AcDbScale
  3
ObjectDBX Classes
 90
     1153
280
     0
281
     0
  0
CLASS
  1
TABLESTYLE
  2
AcDbTableStyle
  3
ObjectDBX Classes
 90
     4095
280
     0
281
     0
  0
CLASS
  1
MLEADERSTYLE
  2
AcDbMLeaderStyle
  3
ACDB_MLEADERSTYLE_CLASS
 90
     4095
280
     0
281
     0
  0
CLASS
  1
SUN
  2
AcDbSun
  3
SCENEOE
 90
     1153
280
     0
281
     0
  0
CLASS
  1
DICTIONARYVAR
  2
AcDbDictionaryVar
  3
ObjectDBX Classes
 90
        0
280
     0
281
     0
  0
CLASS
  1
XRECORD
  2
AcDbXrecord
  3
ObjectDBX Classes
 90
        0
280
     0
281
     0
  0
CLASS
  1
LWPOLYLINE
  2
AcDbPolyline
  3
ObjectDBX Classes
 90
        0
280
     0
281
     1
  0
CLASS
  1
HATCH
  2
AcDbHatch
  3
ObjectDBX Classes
 90
        0
280
     0
281
     1
  0
CLASS
  1
ACDBPLACEHOLDER
  2
AcDbPlaceHolder
  3
ObjectDBX Classes
 90
        0
280
     0
281
     0
  0
CLASS
  1
LAYOUT
  2
AcDbLayout
  3
ObjectDBX Classes
 90
        0
280
     0
281
     0
  0
ENDSEC
  0
SECTION
  2
TABLES
  0
TABLE
  2
VPORT
  5
8
102
{ACAD_XDICTIONARY
360
544
102
}
330
0
100
AcDbSymbolTable
 70
     1
  0
VPORT
  5
29
330
8
100
AcDbSymbolTableRecord
100
AcDbViewportTableRecord
  2
*ACTIVE
 70
     0
 10
0.0
 20
0.0
 11
1.0
 21
1.0
 12
385.5159633775812
 22
305.3332365
 13
0.0
 23
0.0
 14
10.0
 24
10.0
 15
10.0
 25
10.0
 16
0.0
 26
0.0
 36
1.0
 17
0.0
 27
0.0
 37
0.0
 40
478.666473
 41
1.579303811497234
 42
50.0
 43
0.0
 44
0.0
 50
0.0
 51
0.0
 71
     0
 72
  1000
 73
     1
 74
     3
 75
     0
 76
     0
 77
     0
 78
     0
  0
ENDTAB
  0
TABLE
  2
LTYPE
  5
5
330
0
100
AcDbSymbolTable
 70
    12
  0
LTYPE
  5
14
330
5
100
AcDbSymbolTableRecord
100
AcDbLinetypeTableRecord
  2
BYBLOCK
 70
     0
  3

 72
    65
 73
     0
 40
0.0
  0
LTYPE
  5
15
330
5
100
AcDbSymbolTableRecord
100
AcDbLinetypeTableRecord
  2
BYLAYER
 70
     0
  3

 72
    65
 73
     0
 40
0.0
  0
LTYPE
  5
16
330
5
100
AcDbSymbolTableRecord
100
AcDbLinetypeTableRecord
  2
CONTINUOUS
 70
     0
  3
Solid line
 72
    65
 73
     0
 40
0.0
  0
LTYPE
  5
6E
330
5
100
AcDbSymbolTableRecord
100
AcDbLinetypeTableRecord
  2
EXLTYPE0
 70
     0
  3
一点鎖線3
 72
    65
 73
     4
 40
33.0
 49
30.0
 74
     0
 49
-1.0
 74
     0
 49
1.0
 74
     0
 49
-1.0
 74
     0
  0
LTYPE
  5
6F
330
5
100
AcDbSymbolTableRecord
100
AcDbLinetypeTableRecord
  2
EXLTYPE1
 70
     0
  3
二点鎖線3
 72
    65
 73
     6
 40
35.0
 49
30.0
 74
     0
 49
-1.0
 74
     0
 49
1.0
 74
     0
 49
-1.0
 74
     0
 49
1.0
 74
     0
 49
-1.0
 74
     0
  0
LTYPE
  5
70
330
5
100
AcDbSymbolTableRecord
100
AcDbLinetypeTableRecord
  2
EXLTYPE2
 70
     0
  3
四点鎖線
 72
    65
 73
    10
 40
39.0
 49
30.0
 74
     0
 49
-1.0
 74
     0
 49
1.0
 74
     0
 49
-1.0
 74
     0
 49
1.0
 74
     0
 49
-1.0
 74
     0
 49
1.0
 74
     0
 49
-1.0
 74
     0
 49
1.0
 74
     0
 49
-1.0
 74
     0
  0
LTYPE
  5
71
330
5
100
AcDbSymbolTableRecord
100
AcDbLinetypeTableRecord
  2
EXLTYPE3
 70
     0
  3
一点鎖線2
 72
    65
 73
     4
 40
8.0
 49
5.0
 74
     0
 49
-1.0
 74
     0
 49
1.0
 74
     0
 49
-1.0
 74
     0
  0
LTYPE
  5
72
330
5
100
AcDbSymbolTableRecord
100
AcDbLinetypeTableRecord
  2
EXLTYPE4
 70
     0
  3
点線
 72
    65
 73
     2
 40
2.0
 49
1.0
 74
     0
 49
-1.0
 74
     0
  0
LTYPE
  5
73
330
5
100
AcDbSymbolTableRecord
100
AcDbLinetypeTableRecord
  2
EXLTYPE5
 70
     0
  3
一点鎖線
 72
    65
 73
     4
 40
13.0
 49
10.0
 74
     0
 49
-1.0
 74
     0
 49
1.0
 74
     0
 49
-1.0
 74
     0
  0
LTYPE
  5
74
330
5
100
AcDbSymbolTableRecord
100
AcDbLinetypeTableRecord
  2
EXLTYPE6
 70
     0
  3
二点鎖線
 72
    65
 73
     6
 40
15.0
 49
10.0
 74
     0
 49
-1.0
 74
     0
 49
1.0
 74
     0
 49
-1.0
 74
     0
 49
1.0
 74
     0
 49
-1.0
 74
     0
  0
LTYPE
  5
75
330
5
100
AcDbSymbolTableRecord
100
AcDbLinetypeTableRecord
  2
EXLTYPE7
 70
     0
  3
破線
 72
    65
 73
     2
 40
3.0
 49
2.0
 74
     0
 49
-1.0
 74
     0
  0
LTYPE
  5
76
330
5
100
AcDbSymbolTableRecord
100
AcDbLinetypeTableRecord
  2
EXLTYPE8
 70
     0
  3
点線2
 72
    65
 73
     2
 40
1.0
 49
0.5
 74
     0
 49
-0.5
 74
     0
  0
LTYPE
  5
77
330
5
100
AcDbSymbolTableRecord
100
AcDbLinetypeTableRecord
  2
EXLTYPE9
 70
     0
  3
二点鎖線2
 72
    65
 73
     6
 40
7.5
 49
5.0
 74
     0
 49
-0.5
 74
     0
 49
0.5
 74
     0
 49
-0.5
 74
     0
 49
0.5
 74
     0
 49
-0.5
 74
     0
  0
LTYPE
  5
78
330
5
100
AcDbSymbolTableRecord
100
AcDbLinetypeTableRecord
  2
EXLTYPE10
 70
     0
  3
三点鎖線
 72
    65
 73
     8
 40
37.0
 49
30.0
 74
     0
 49
-1.0
 74
     0
 49
1.0
 74
     0
 49
-1.0
 74
     0
 49
1.0
 74
     0
 49
-1.0
 74
     0
 49
1.0
 74
     0
 49
-1.0
 74
     0
  0
ENDTAB
  0
TABLE
  2
LAYER
  5
2
330
0
100
AcDbSymbolTable
 70
     3
  0
LAYER
  5
10
330
2
100
AcDbSymbolTableRecord
100
AcDbLayerTableRecord
  2
0
 70
     0
 62
     7
  6
CONTINUOUS
  0
LAYER
  5
7B
330
2
100
AcDbSymbolTableRecord
100
AcDbLayerTableRecord
  2
LAY-1
 70
     0
 62
     7
  6
CONTINUOUS
  0
LAYER
  5
DA
330
2
100
AcDbSymbolTableRecord
100
AcDbLayerTableRecord
  2
DEFPOINTS
 70
     0
 62
     7
  6
CONTINUOUS
  0
ENDTAB
  0
TABLE
  2
STYLE
  5
3
330
0
100
AcDbSymbolTable
 70
     5
  0
STYLE
  5
11
330
3
100
AcDbSymbolTableRecord
100
AcDbTextStyleTableRecord
  2
STANDARD
 70
     0
 40
0.0
 41
1.0
 50
0.0
 71
     0
 42
2.5
  3
monotxt
  4
extfont
  0
STYLE
  5
79
330
3
100
AcDbSymbolTableRecord
100
AcDbTextStyleTableRecord
  2
EXCADSTD
 70
     0
 40
0.0
 41
1.0
 50
0.0
 71
     0
 42
2.5
  3
monotxt
  4
extfont
  0
STYLE
  5
7A
330
3
100
AcDbSymbolTableRecord
100
AcDbTextStyleTableRecord
  2
EXCADVERT
 70
     4
 40
0.0
 41
1.0
 50
0.0
 71
     0
 42
2.5
  3
monotxt
  4
extfont
  0
STYLE
  5
D8
330
3
100
AcDbSymbolTableRecord
100
AcDbTextStyleTableRecord
  2
EXCADDIM1
 70
     0
 40
0.0
 41
1.0
 50
0.0
 71
     0
 42
2.5
  3
msmincho.ttc
  4

1001
ACAD
1000
MS Mincho
1071
    32785
  0
STYLE
  5
49A
330
3
100
AcDbSymbolTableRecord
100
AcDbTextStyleTableRecord
  2
EXCADTTF1
 70
     0
 40
0.0
 41
1.0
 50
0.0
 71
     0
 42
2.5
  3
msmincho.ttc
  4

1001
ACAD
1000
MS Mincho
1071
    32785
  0
ENDTAB
  0
TABLE
  2
VIEW
  5
6
330
0
100
AcDbSymbolTable
 70
     0
  0
ENDTAB
  0
TABLE
  2
UCS
  5
7
330
0
100
AcDbSymbolTable
 70
     0
  0
ENDTAB
  0
TABLE
  2
APPID
  5
9
330
0
100
AcDbSymbolTable
 70
     2
  0
APPID
  5
12
330
9
100
AcDbSymbolTableRecord
100
AcDbRegAppTableRecord
  2
ACAD
 70
     0
  0
APPID
  5
54E
330
9
100
AcDbSymbolTableRecord
100
AcDbRegAppTableRecord
  2
ACAD_MLEADERVER
 70
     0
  0
ENDTAB
  0
TABLE
  2
DIMSTYLE
  5
A
330
0
100
AcDbSymbolTable
 70
     1
  0
DIMSTYLE
105
27
102
{ACAD_REACTORS
330
D9
330
E7
330
4BE
102
}
330
A
100
AcDbSymbolTableRecord
100
AcDbDimStyleTableRecord
  2
ISO-25
 70
     0
  3

  4

  5

  6

  7

 40
1.0
 41
2.5
 42
0.625
 43
3.75
 44
1.25
 45
0.0
 46
0.0
 47
0.0
 48
0.0
140
2.5
141
2.5
142
0.0
143
0.03937007874016
144
1.0
145
0.0
146
1.0
147
0.625
 71
     0
 72
     0
 73
     0
 74
     0
 75
     0
 76
     0
 77
     1
 78
     8
170
     0
171
     3
172
     1
173
     0
174
     0
175
     0
176
     0
177
     0
178
     0
270
     2
271
     2
272
     2
273
     2
274
     3
340
11
275
     0
280
     0
281
     0
282
     0
283
     0
284
     8
285
     0
286
     0
287
     5
288
     0
  0
ENDTAB
  0
TABLE
  2
BLOCK_RECORD
  5
1
330
0
100
AcDbSymbolTable
 70
    17
  0
BLOCK_RECORD
  5
1F
330
1
100
AcDbSymbolTableRecord
100
AcDbBlockTableRecord
  2
*MODEL_SPACE
  0
BLOCK_RECORD
  5
1B
330
1
100
AcDbSymbolTableRecord
100
AcDbBlockTableRecord
  2
*PAPER_SPACE
  0
BLOCK_RECORD
  5
7C
330
1
100
AcDbSymbolTableRecord
100
AcDbBlockTableRecord
  2
EX_NORM
  0
BLOCK_RECORD
  5
7F
330
1
100
AcDbSymbolTableRecord
100
AcDbBlockTableRecord
  2
EX_BNORM
  0
BLOCK_RECORD
  5
82
330
1
100
AcDbSymbolTableRecord
100
AcDbBlockTableRecord
  2
EX_BCIR
  0
BLOCK_RECORD
  5
85
330
1
100
AcDbSymbolTableRecord
100
AcDbBlockTableRecord
  2
EX_RCIVIL
  0
BLOCK_RECORD
  5
88
330
1
100
AcDbSymbolTableRecord
100
AcDbBlockTableRecord
  2
EX_SLANT
  0
BLOCK_RECORD
  5
8B
330
1
100
AcDbSymbolTableRecord
100
AcDbBlockTableRecord
  2
EX_NONE
  0
BLOCK_RECORD
  5
8E
330
1
100
AcDbSymbolTableRecord
100
AcDbBlockTableRecord
  2
EX_CIVIL
  0
BLOCK_RECORD
  5
91
330
1
100
AcDbSymbolTableRecord
100
AcDbBlockTableRecord
  2
EX_WCIR
  0
BLOCK_RECORD
  5
94
330
1
100
AcDbSymbolTableRecord
100
AcDbBlockTableRecord
  2
EX_WCIR2
  0
BLOCK_RECORD
  5
97
330
1
100
AcDbSymbolTableRecord
100
AcDbBlockTableRecord
  2
EX_WNORM
  0
BLOCK_RECORD
  5
9A
330
1
100
AcDbSymbolTableRecord
100
AcDbBlockTableRecord
  2
EX_NNORM
  0
BLOCK_RECORD
  5
9D
330
1
100
AcDbSymbolTableRecord
100
AcDbBlockTableRecord
  2
EX_BBOX
  0
BLOCK_RECORD
  5
A0
330
1
100
AcDbSymbolTableRecord
100
AcDbBlockTableRecord
  2
EX_WBOX
  0
BLOCK_RECORD
  5
A3
330
1
100
AcDbSymbolTableRecord
100
AcDbBlockTableRecord
  2
EX_INTEGRAL
  0
BLOCK_RECORD
  5
DB
330
1
100
AcDbSymbolTableRecord
100
AcDbBlockTableRecord
  2
*D15
  0
BLOCK_RECORD
  5
E8
330
1
100
AcDbSymbolTableRecord
100
AcDbBlockTableRecord
  2
*D16
  0
BLOCK_RECORD
  5
4BF
330
1
100
AcDbSymbolTableRecord
100
AcDbBlockTableRecord
  2
*D17
  0
ENDTAB
  0
ENDSEC
  0
SECTION
  2
BLOCKS
  0
BLOCK
  5
20
330
1F
100
AcDbEntity
  8
0
100
AcDbBlockBegin
  2
*MODEL_SPACE
 70
     0
 10
0.0
 20
0.0
 30
0.0
  3
*MODEL_SPACE
  1

  0
ENDBLK
  5
21
330
1F
100
AcDbEntity
  8
0
100
AcDbBlockEnd
  0
BLOCK
  5
1C
330
1B
100
AcDbEntity
 67
     1
  8
0
100
AcDbBlockBegin
  2
*PAPER_SPACE
 70
     0
 10
0.0
 20
0.0
 30
0.0
  3
*PAPER_SPACE
  1

  0
ENDBLK
  5
1D
330
1B
100
AcDbEntity
 67
     1
  8
0
100
AcDbBlockEnd
  0
BLOCK
  5
7D
330
7C
100
AcDbEntity
  8
0
100
AcDbBlockBegin
  2
EX_NORM
 70
     0
 10
0.0
 20
0.0
 30
0.0
  3
EX_NORM
  1

  0
LINE
  5
A6
330
7C
100
AcDbEntity
  8
0
  6
CONTINUOUS
 62
     0
100
AcDbLine
 10
0.0
 20
0.0
 30
0.0
 11
-1.0
 21
0.0
 31
0.0
  0
LINE
  5
A7
330
7C
100
AcDbEntity
  8
0
  6
CONTINUOUS
 62
     0
100
AcDbLine
 10
0.0
 20
0.0
 30
0.0
 11
-1.0
 21
0.166666667
 31
0.0
  0
LINE
  5
A8
330
7C
100
AcDbEntity
  8
0
  6
CONTINUOUS
 62
     0
100
AcDbLine
 10
0.0
 20
0.0
 30
0.0
 11
-1.0
 21
-0.166666667
 31
0.0
  0
ENDBLK
  5
7E
330
7C
100
AcDbEntity
  8
0
100
AcDbBlockEnd
  0
BLOCK
  5
80
330
7F
100
AcDbEntity
  8
0
100
AcDbBlockBegin
  2
EX_BNORM
 70
     0
 10
0.0
 20
0.0
 30
0.0
  3
EX_BNORM
  1

  0
LINE
  5
A9
330
7F
100
AcDbEntity
  8
0
  6
CONTINUOUS
 62
     0
100
AcDbLine
 10
0.0
 20
0.0
 30
0.0
 11
-1.0
 21
0.0
 31
0.0
  0
LINE
  5
AA
330
7F
100
AcDbEntity
  8
0
  6
CONTINUOUS
 62
     0
100
AcDbLine
 10
0.0
 20
0.0
 30
0.0
 11
-1.0
 21
0.166666667
 31
0.0
  0
LINE
  5
AB
330
7F
100
AcDbEntity
  8
0
  6
CONTINUOUS
 62
     0
100
AcDbLine
 10
0.0
 20
0.0
 30
0.0
 11
-1.0
 21
-0.166666667
 31
0.0
  0
LINE
  5
AC
330
7F
100
AcDbEntity
  8
0
  6
CONTINUOUS
 62
     0
100
AcDbLine
 10
0.0
 20
0.0
 30
0.0
 11
-1.0
 21
0.083333333
 31
0.0
  0
LINE
  5
AD
330
7F
100
AcDbEntity
  8
0
  6
CONTINUOUS
 62
     0
100
AcDbLine
 10
0.0
 20
0.0
 30
0.0
 11
-1.0
 21
-0.083333333
 31
0.0
  0
LINE
  5
AE
330
7F
100
AcDbEntity
  8
0
  6
CONTINUOUS
 62
     0
100
AcDbLine
 10
-1.0
 20
0.166666667
 30
0.0
 11
-1.0
 21
-0.166666667
 31
0.0
  0
ENDBLK
  5
81
330
7F
100
AcDbEntity
  8
0
100
AcDbBlockEnd
  0
BLOCK
  5
83
330
82
100
AcDbEntity
  8
0
100
AcDbBlockBegin
  2
EX_BCIR
 70
     0
 10
0.0
 20
0.0
 30
0.0
  3
EX_BCIR
  1

  0
LINE
  5
AF
330
82
100
AcDbEntity
  8
0
  6
CONTINUOUS
 62
     0
100
AcDbLine
 10
0.0
 20
0.0
 30
0.0
 11
-1.0
 21
0.0
 31
0.0
  0
CIRCLE
  5
B0
330
82
100
AcDbEntity
  8
0
  6
CONTINUOUS
 62
     0
100
AcDbCircle
 10
0.0
 20
0.0
 30
0.0
 40
0.5
  0
CIRCLE
  5
B1
330
82
100
AcDbEntity
  8
0
  6
CONTINUOUS
 62
     0
100
AcDbCircle
 10
0.0
 20
0.0
 30
0.0
 40
0.25
  0
ENDBLK
  5
84
330
82
100
AcDbEntity
  8
0
100
AcDbBlockEnd
  0
BLOCK
  5
86
330
85
100
AcDbEntity
  8
0
100
AcDbBlockBegin
  2
EX_RCIVIL
 70
     0
 10
0.0
 20
0.0
 30
0.0
  3
EX_RCIVIL
  1

  0
LINE
  5
B2
330
85
100
AcDbEntity
  8
0
  6
CONTINUOUS
 62
     0
100
AcDbLine
 10
0.0
 20
0.0
 30
0.0
 11
-1.0
 21
0.0
 31
0.0
  0
LINE
  5
B3
330
85
100
AcDbEntity
  8
0
  6
CONTINUOUS
 62
     0
100
AcDbLine
 10
-1.0
 20
-0.25
 30
0.0
 11
0.0
 21
-0.25
 31
0.0
  0
LINE
  5
B4
330
85
100
AcDbEntity
  8
0
  6
CONTINUOUS
 62
     0
100
AcDbLine
 10
-1.0
 20
-0.125
 30
0.0
 11
0.0
 21
-0.125
 31
0.0
  0
ENDBLK
  5
87
330
85
100
AcDbEntity
  8
0
100
AcDbBlockEnd
  0
BLOCK
  5
89
330
88
100
AcDbEntity
  8
0
100
AcDbBlockBegin
  2
EX_SLANT
 70
     0
 10
0.0
 20
0.0
 30
0.0
  3
EX_SLANT
  1

  0
LINE
  5
B5
330
88
100
AcDbEntity
  8
0
  6
CONTINUOUS
 62
     0
100
AcDbLine
 10
0.0
 20
0.0
 30
0.0
 11
-1.0
 21
0.0
 31
0.0
  0
LINE
  5
B6
330
88
100
AcDbEntity
  8
0
  6
CONTINUOUS
 62
     0
100
AcDbLine
 10
0.707106781
 20
0.707106781
 30
0.0
 11
-0.707106781
 21
-0.707106781
 31
0.0
  0
ENDBLK
  5
8A
330
88
100
AcDbEntity
  8
0
100
AcDbBlockEnd
  0
BLOCK
  5
8C
330
8B
100
AcDbEntity
  8
0
100
AcDbBlockBegin
  2
EX_NONE
 70
     0
 10
0.0
 20
0.0
 30
0.0
  3
EX_NONE
  1

  0
LINE
  5
B7
330
8B
100
AcDbEntity
  8
0
  6
CONTINUOUS
 62
     0
100
AcDbLine
 10
0.0
 20
0.0
 30
0.0
 11
-1.0
 21
0.0
 31
0.0
  0
ENDBLK
  5
8D
330
8B
100
AcDbEntity
  8
0
100
AcDbBlockEnd
  0
BLOCK
  5
8F
330
8E
100
AcDbEntity
  8
0
100
AcDbBlockBegin
  2
EX_CIVIL
 70
     0
 10
0.0
 20
0.0
 30
0.0
  3
EX_CIVIL
  1

  0
LINE
  5
B8
330
8E
100
AcDbEntity
  8
0
  6
CONTINUOUS
 62
     0
100
AcDbLine
 10
0.0
 20
0.0
 30
0.0
 11
-1.0
 21
0.0
 31
0.0
  0
LINE
  5
B9
330
8E
100
AcDbEntity
  8
0
  6
CONTINUOUS
 62
     0
100
AcDbLine
 10
-1.0
 20
0.25
 30
0.0
 11
0.0
 21
0.25
 31
0.0
  0
LINE
  5
BA
330
8E
100
AcDbEntity
  8
0
  6
CONTINUOUS
 62
     0
100
AcDbLine
 10
-1.0
 20
0.125
 30
0.0
 11
0.0
 21
0.125
 31
0.0
  0
ENDBLK
  5
90
330
8E
100
AcDbEntity
  8
0
100
AcDbBlockEnd
  0
BLOCK
  5
92
330
91
100
AcDbEntity
  8
0
100
AcDbBlockBegin
  2
EX_WCIR
 70
     0
 10
0.0
 20
0.0
 30
0.0
  3
EX_WCIR
  1

  0
LINE
  5
BB
330
91
100
AcDbEntity
  8
0
  6
CONTINUOUS
 62
     0
100
AcDbLine
 10
0.0
 20
0.0
 30
0.0
 11
-1.0
 21
0.0
 31
0.0
  0
CIRCLE
  5
BC
330
91
100
AcDbEntity
  8
0
  6
CONTINUOUS
 62
     0
100
AcDbCircle
 10
0.0
 20
0.0
 30
0.0
 40
0.5
  0
ENDBLK
  5
93
330
91
100
AcDbEntity
  8
0
100
AcDbBlockEnd
  0
BLOCK
  5
95
330
94
100
AcDbEntity
  8
0
100
AcDbBlockBegin
  2
EX_WCIR2
 70
     0
 10
0.0
 20
0.0
 30
0.0
  3
EX_WCIR2
  1

  0
LINE
  5
BD
330
94
100
AcDbEntity
  8
0
  6
CONTINUOUS
 62
     0
100
AcDbLine
 10
-0.5
 20
0.0
 30
0.0
 11
-1.0
 21
0.0
 31
0.0
  0
CIRCLE
  5
BE
330
94
100
AcDbEntity
  8
0
  6
CONTINUOUS
 62
     0
100
AcDbCircle
 10
0.0
 20
0.0
 30
0.0
 40
0.5
  0
ENDBLK
  5
96
330
94
100
AcDbEntity
  8
0
100
AcDbBlockEnd
  0
BLOCK
  5
98
330
97
100
AcDbEntity
  8
0
100
AcDbBlockBegin
  2
EX_WNORM
 70
     0
 10
0.0
 20
0.0
 30
0.0
  3
EX_WNORM
  1

  0
LINE
  5
BF
330
97
100
AcDbEntity
  8
0
  6
CONTINUOUS
 62
     0
100
AcDbLine
 10
-1.0
 20
0.0
 30
0.0
 11
-1.0
 21
0.0
 31
0.0
  0
LINE
  5
C0
330
97
100
AcDbEntity
  8
0
  6
CONTINUOUS
 62
     0
100
AcDbLine
 10
0.0
 20
0.0
 30
0.0
 11
-1.0
 21
0.166666667
 31
0.0
  0
LINE
  5
C1
330
97
100
AcDbEntity
  8
0
  6
CONTINUOUS
 62
     0
100
AcDbLine
 10
0.0
 20
0.0
 30
0.0
 11
-1.0
 21
-0.166666667
 31
0.0
  0
LINE
  5
C2
330
97
100
AcDbEntity
  8
0
  6
CONTINUOUS
 62
     0
100
AcDbLine
 10
-1.0
 20
0.166666667
 30
0.0
 11
-1.0
 21
-0.166666667
 31
0.0
  0
ENDBLK
  5
99
330
97
100
AcDbEntity
  8
0
100
AcDbBlockEnd
  0
BLOCK
  5
9B
330
9A
100
AcDbEntity
  8
0
100
AcDbBlockBegin
  2
EX_NNORM
 70
     0
 10
0.0
 20
0.0
 30
0.0
  3
EX_NNORM
  1

  0
LINE
  5
C3
330
9A
100
AcDbEntity
  8
0
  6
CONTINUOUS
 62
     0
100
AcDbLine
 10
0.0
 20
0.0
 30
0.0
 11
-1.0
 21
0.0
 31
0.0
  0
LINE
  5
C4
330
9A
100
AcDbEntity
  8
0
  6
CONTINUOUS
 62
     0
100
AcDbLine
 10
0.0
 20
0.0
 30
0.0
 11
-1.0
 21
0.166666667
 31
0.0
  0
LINE
  5
C5
330
9A
100
AcDbEntity
  8
0
  6
CONTINUOUS
 62
     0
100
AcDbLine
 10
0.0
 20
0.0
 30
0.0
 11
-1.0
 21
-0.166666667
 31
0.0
  0
LINE
  5
C6
330
9A
100
AcDbEntity
  8
0
  6
CONTINUOUS
 62
     0
100
AcDbLine
 10
-1.0
 20
0.166666667
 30
0.0
 11
-1.0
 21
-0.166666667
 31
0.0
  0
ENDBLK
  5
9C
330
9A
100
AcDbEntity
  8
0
100
AcDbBlockEnd
  0
BLOCK
  5
9E
330
9D
100
AcDbEntity
  8
0
100
AcDbBlockBegin
  2
EX_BBOX
 70
     0
 10
0.0
 20
0.0
 30
0.0
  3
EX_BBOX
  1

  0
LINE
  5
C7
330
9D
100
AcDbEntity
  8
0
  6
CONTINUOUS
 62
     0
100
AcDbLine
 10
0.0
 20
0.0
 30
0.0
 11
-1.0
 21
0.0
 31
0.0
  0
LINE
  5
C8
330
9D
100
AcDbEntity
  8
0
  6
CONTINUOUS
 62
     0
100
AcDbLine
 10
-0.5
 20
0.5
 30
0.0
 11
0.5
 21
0.5
 31
0.0
  0
LINE
  5
C9
330
9D
100
AcDbEntity
  8
0
  6
CONTINUOUS
 62
     0
100
AcDbLine
 10
0.5
 20
0.5
 30
0.0
 11
0.5
 21
-0.5
 31
0.0
  0
LINE
  5
CA
330
9D
100
AcDbEntity
  8
0
  6
CONTINUOUS
 62
     0
100
AcDbLine
 10
0.5
 20
-0.5
 30
0.0
 11
-0.5
 21
-0.5
 31
0.0
  0
LINE
  5
CB
330
9D
100
AcDbEntity
  8
0
  6
CONTINUOUS
 62
     0
100
AcDbLine
 10
-0.5
 20
-0.5
 30
0.0
 11
-0.5
 21
0.5
 31
0.0
  0
LINE
  5
CC
330
9D
100
AcDbEntity
  8
0
  6
CONTINUOUS
 62
     0
100
AcDbLine
 10
-0.25
 20
0.25
 30
0.0
 11
0.25
 21
0.25
 31
0.0
  0
LINE
  5
CD
330
9D
100
AcDbEntity
  8
0
  6
CONTINUOUS
 62
     0
100
AcDbLine
 10
0.25
 20
0.25
 30
0.0
 11
0.25
 21
-0.25
 31
0.0
  0
LINE
  5
CE
330
9D
100
AcDbEntity
  8
0
  6
CONTINUOUS
 62
     0
100
AcDbLine
 10
0.25
 20
-0.25
 30
0.0
 11
-0.25
 21
-0.25
 31
0.0
  0
LINE
  5
CF
330
9D
100
AcDbEntity
  8
0
  6
CONTINUOUS
 62
     0
100
AcDbLine
 10
-0.25
 20
-0.25
 30
0.0
 11
-0.25
 21
0.25
 31
0.0
  0
ENDBLK
  5
9F
330
9D
100
AcDbEntity
  8
0
100
AcDbBlockEnd
  0
BLOCK
  5
A1
330
A0
100
AcDbEntity
  8
0
100
AcDbBlockBegin
  2
EX_WBOX
 70
     0
 10
0.0
 20
0.0
 30
0.0
  3
EX_WBOX
  1

  0
LINE
  5
D0
330
A0
100
AcDbEntity
  8
0
  6
CONTINUOUS
 62
     0
100
AcDbLine
 10
-0.5
 20
0.0
 30
0.0
 11
-1.0
 21
0.0
 31
0.0
  0
LINE
  5
D1
330
A0
100
AcDbEntity
  8
0
  6
CONTINUOUS
 62
     0
100
AcDbLine
 10
-0.5
 20
0.5
 30
0.0
 11
0.5
 21
0.5
 31
0.0
  0
LINE
  5
D2
330
A0
100
AcDbEntity
  8
0
  6
CONTINUOUS
 62
     0
100
AcDbLine
 10
0.5
 20
0.5
 30
0.0
 11
0.5
 21
-0.5
 31
0.0
  0
LINE
  5
D3
330
A0
100
AcDbEntity
  8
0
  6
CONTINUOUS
 62
     0
100
AcDbLine
 10
0.5
 20
-0.5
 30
0.0
 11
-0.5
 21
-0.5
 31
0.0
  0
LINE
  5
D4
330
A0
100
AcDbEntity
  8
0
  6
CONTINUOUS
 62
     0
100
AcDbLine
 10
-0.5
 20
-0.5
 30
0.0
 11
-0.5
 21
0.5
 31
0.0
  0
ENDBLK
  5
A2
330
A0
100
AcDbEntity
  8
0
100
AcDbBlockEnd
  0
BLOCK
  5
A4
330
A3
100
AcDbEntity
  8
0
100
AcDbBlockBegin
  2
EX_INTEGRAL
 70
     0
 10
0.0
 20
0.0
 30
0.0
  3
EX_INTEGRAL
  1

  0
LINE
  5
D5
330
A3
100
AcDbEntity
  8
0
  6
CONTINUOUS
 62
     0
100
AcDbLine
 10
0.0
 20
0.0
 30
0.0
 11
-1.0
 21
0.0
 31
0.0
  0
ARC
  5
D6
330
A3
100
AcDbEntity
  8
0
  6
CONTINUOUS
 62
     0
100
AcDbCircle
 10
0.542115
 20
0.164992
 30
0.0
 40
0.56667
100
AcDbArc
 50
73.07249033629006
 51
196.9275130221199
  0
ARC
  5
D7
330
A3
100
AcDbEntity
  8
0
  6
CONTINUOUS
 62
     0
100
AcDbCircle
 10
-0.542115
 20
-0.164992
 30
0.0
 40
0.56667
100
AcDbArc
 50
253.0724869220464
 51
16.9275130559125
  0
ENDBLK
  5
A5
330
A3
100
AcDbEntity
  8
0
100
AcDbBlockEnd
  0
BLOCK
  5
DC
330
DB
100
AcDbEntity
  8
0
100
AcDbBlockBegin
  2
*D15
 70
     1
 10
0.0
 20
0.0
 30
0.0
  3
*D15
  1

  0
LINE
  5
DE
330
DB
100
AcDbEntity
  8
LAY-1
  6
CONTINUOUS
 62
     1
100
AcDbLine
 10
613.996845
 20
77.13293099999999
 30
0.0
 11
685.495856
 21
77.132931
 31
0.0
  0
LINE
  5
DF
330
DB
100
AcDbEntity
  8
LAY-1
  6
CONTINUOUS
 62
     1
100
AcDbLine
 10
657.095856
 20
182.132931
 30
0.0
 11
685.495856
 21
182.132931
 31
0.0
  0
LINE
  5
E0
330
DB
100
AcDbEntity
  8
LAY-1
  6
CONTINUOUS
 62
     1
100
AcDbLine
 10
683.495856
 20
82.132931
 30
0.0
 11
683.495856
 21
177.132931
 31
0.0
  0
INSERT
  5
E1
330
DB
100
AcDbEntity
  8
LAY-1
 62
     1
100
AcDbBlockReference
  2
EX_NORM
 10
683.495856
 20
77.132931
 30
0.0
 41
5.0
 42
5.0
 43
5.0
 50
270.0
  0
INSERT
  5
E2
330
DB
100
AcDbEntity
  8
LAY-1
 62
     1
100
AcDbBlockReference
  2
EX_NORM
 10
683.495856
 20
182.132931
 30
0.0
 41
5.0
 42
5.0
 43
5.0
 50
90.0
  0
MTEXT
  5
E3
330
DB
100
AcDbEntity
  8
LAY-1
 62
     3
100
AcDbMText
 10
676.495856
 20
129.632931
 30
0.0
 40
8.203189124487004
 41
0.0
 71
     5
 72
     1
  1
105
  7
EXCADDIM1
 11
0.0
 21
1.0
 31
0.0
  0
POINT
  5
E4
330
DB
100
AcDbEntity
  8
DEFPOINTS
 62
     0
100
AcDbPoint
 10
611.996845
 20
77.13293099999999
 30
0.0
  0
POINT
  5
E5
330
DB
100
AcDbEntity
  8
DEFPOINTS
 62
     0
100
AcDbPoint
 10
655.095856
 20
182.132931
 30
0.0
  0
POINT
  5
E6
330
DB
100
AcDbEntity
  8
DEFPOINTS
 62
     0
100
AcDbPoint
 10
683.495856
 20
182.132931
 30
0.0
  0
ENDBLK
  5
DD
330
DB
100
AcDbEntity
  8
0
100
AcDbBlockEnd
  0
BLOCK
  5
E9
330
E8
100
AcDbEntity
  8
0
100
AcDbBlockBegin
  2
*D16
 70
     1
 10
0.0
 20
0.0
 30
0.0
  3
*D16
  1

  0
LINE
  5
EB
330
E8
100
AcDbEntity
  8
LAY-1
  6
CONTINUOUS
 62
     1
100
AcDbLine
 10
493.67624284852
 20
304.13293673063
 30
0.0
 11
685.095856
 21
304.13293673063
 31
0.0
  0
LINE
  5
EC
330
E8
100
AcDbEntity
  8
LAY-1
  6
CONTINUOUS
 62
     1
100
AcDbLine
 10
657.095856
 20
182.132931
 30
0.0
 11
685.095856
 21
182.132931
 31
0.0
  0
LINE
  5
ED
330
E8
100
AcDbEntity
  8
LAY-1
  6
CONTINUOUS
 62
     1
100
AcDbLine
 10
683.095856
 20
299.13293673063
 30
0.0
 11
683.095856
 21
187.132931
 31
0.0
  0
INSERT
  5
EE
330
E8
100
AcDbEntity
  8
LAY-1
 62
     1
100
AcDbBlockReference
  2
EX_NORM
 10
683.095856
 20
304.13293673063
 30
0.0
 41
5.0
 42
5.0
 43
5.0
 50
90.0
  0
INSERT
  5
EF
330
E8
100
AcDbEntity
  8
LAY-1
 62
     1
100
AcDbBlockReference
  2
EX_NORM
 10
683.095856
 20
182.132931
 30
0.0
 41
5.0
 42
5.0
 43
5.0
 50
270.0
  0
MTEXT
  5
F0
330
E8
100
AcDbEntity
  8
LAY-1
 62
     3
100
AcDbMText
 10
676.095856
 20
243.132933865315
 30
0.0
 40
8.203189124487004
 41
0.0
 71
     5
 72
     1
  1
122
  7
EXCADDIM1
 11
0.0
 21
1.0
 31
0.0
  0
POINT
  5
F1
330
E8
100
AcDbEntity
  8
DEFPOINTS
 62
     0
100
AcDbPoint
 10
491.67624284852
 20
304.13293673063
 30
0.0
  0
POINT
  5
F2
330
E8
100
AcDbEntity
  8
DEFPOINTS
 62
     0
100
AcDbPoint
 10
655.095856
 20
182.132931
 30
0.0
  0
POINT
  5
F3
330
E8
100
AcDbEntity
  8
DEFPOINTS
 62
     0
100
AcDbPoint
 10
683.095856
 20
182.132931
 30
0.0
  0
ENDBLK
  5
EA
330
E8
100
AcDbEntity
  8
0
100
AcDbBlockEnd
  0
BLOCK
  5
4C0
330
4BF
100
AcDbEntity
  8
0
100
AcDbBlockBegin
  2
*D17
 70
     1
 10
0.0
 20
0.0
 30
0.0
  3
*D17
  1

  0
LINE
  5
4C2
330
4BF
100
AcDbEntity
  8
LAY-1
  6
CONTINUOUS
 62
     1
100
AcDbLine
 10
243.491742
 20
362.93255
 30
0.0
 11
395.9
 21
362.93255
 31
0.0
  0
LINE
  5
4C3
330
4BF
100
AcDbEntity
  8
LAY-1
  6
CONTINUOUS
 62
     1
100
AcDbLine
 10
243.491742
 20
532.93255
 30
0.0
 11
395.9
 21
532.93255
 31
0.0
  0
LINE
  5
4C4
330
4BF
100
AcDbEntity
  8
LAY-1
  6
CONTINUOUS
 62
     1
100
AcDbLine
 10
394.9
 20
365.43255
 30
0.0
 11
394.9
 21
530.43255
 31
0.0
  0
INSERT
  5
4C5
330
4BF
100
AcDbEntity
  8
LAY-1
 62
     1
100
AcDbBlockReference
  2
EX_NORM
 10
394.9
 20
362.93255
 30
0.0
 41
2.5
 42
2.5
 43
2.5
 50
270.0
  0
INSERT
  5
4C6
330
4BF
100
AcDbEntity
  8
LAY-1
 62
     1
100
AcDbBlockReference
  2
EX_NORM
 10
394.9
 20
532.93255
 30
0.0
 41
2.5
 42
2.5
 43
2.5
 50
90.0
  0
MTEXT
  5
4C7
330
4BF
100
AcDbEntity
  8
LAY-1
 62
     3
100
AcDbMText
 10
388.4
 20
447.93255
 30
0.0
 40
8.203189124487004
 41
0.0
 71
     5
 72
     1
  1
170
  7
EXCADDIM1
 11
0.0
 21
1.0
 31
0.0
  0
POINT
  5
4C8
330
4BF
100
AcDbEntity
  8
DEFPOINTS
 62
     0
100
AcDbPoint
 10
242.491742
 20
362.93255
 30
0.0
  0
POINT
  5
4C9
330
4BF
100
AcDbEntity
  8
DEFPOINTS
 62
     0
100
AcDbPoint
 10
242.491742
 20
532.93255
 30
0.0
  0
POINT
  5
4CA
330
4BF
100
AcDbEntity
  8
DEFPOINTS
 62
     0
100
AcDbPoint
 10
394.9
 20
532.93255
 30
0.0
  0
ENDBLK
  5
4C1
330
4BF
100
AcDbEntity
  8
0
100
AcDbBlockEnd
  0
ENDSEC
  0
SECTION
  2
ENTITIES
  0
DIMENSION
  5
D9
330
1F
100
AcDbEntity
  8
LAY-1
  6
CONTINUOUS
 62
     1
100
AcDbDimension
  2
*D15
 10
683.495856
 20
182.132931
 30
0.0
 11
676.495856
 21
129.632931
 31
0.0
 70
   160
  3
ISO-25
100
AcDbAlignedDimension
 13
611.996845
 23
77.13293099999999
 33
0.0
 14
655.095856
 24
182.132931
 34
0.0
 50
90.0
100
AcDbRotatedDimension
1001
ACAD
1000
DSTYLE
1002
{
1070
   270
1070
     2
1070
     6
1000
EX_NORM
1070
     7
1000
EX_NORM
1070
    41
1040
5.0
1070
    42
1040
2.0
1070
    44
1040
2.0
1070
    73
1070
     0
1070
    74
1070
     0
1070
    75
1070
     0
1070
    76
1070
     0
1070
    77
1070
     1
1070
    78
1070
     8
1070
   140
1040
8.203189124487004
1070
   147
1040
0.0
1070
   173
1070
     1
1070
   176
1070
     1
1070
   177
1070
     1
1070
   178
1070
     3
1070
   271
1070
     3
1070
   277
1070
     2
1070
   279
1070
     2
1070
   280
1070
     0
1070
   287
1070
     5
1070
   340
1005
D8
1002
}
  0
DIMENSION
  5
E7
330
1F
100
AcDbEntity
  8
LAY-1
  6
CONTINUOUS
 62
     1
100
AcDbDimension
  2
*D16
 10
683.095856
 20
182.132931
 30
0.0
 11
676.095856
 21
243.132933865315
 31
0.0
 70
   160
  3
ISO-25
100
AcDbAlignedDimension
 13
491.67624284852
 23
304.13293673063
 33
0.0
 14
655.095856
 24
182.132931
 34
0.0
 50
90.0
100
AcDbRotatedDimension
1001
ACAD
1000
DSTYLE
1002
{
1070
   270
1070
     2
1070
     6
1000
EX_NORM
1070
     7
1000
EX_NORM
1070
    41
1040
5.0
1070
    42
1040
2.0
1070
    44
1040
2.0
1070
    73
1070
     0
1070
    74
1070
     0
1070
    75
1070
     0
1070
    76
1070
     0
1070
    77
1070
     1
1070
    78
1070
     8
1070
   140
1040
8.203189124487004
1070
   147
1040
0.0
1070
   173
1070
     1
1070
   176
1070
     1
1070
   177
1070
     1
1070
   178
1070
     3
1070
   271
1070
     3
1070
   277
1070
     2
1070
   279
1070
     2
1070
   280
1070
     0
1070
   287
1070
     5
1070
   340
1005
D8
1002
}
  0
LINE
  5
F4
330
1F
100
AcDbEntity
  8
LAY-1
  6
CONTINUOUS
 62
     3
100
AcDbLine
 10
167.991773
 20
487.9381649999999
 30
0.0
 11
167.991773
 21
472.927057
 31
0.0
  0
LINE
  5
F5
330
1F
100
AcDbEntity
  8
LAY-1
  6
CONTINUOUS
 62
     3
100
AcDbLine
 10
162.2166869999999
 20
487.9381649999999
 30
0.0
 11
167.991773
 21
487.9381649999999
 31
0.0
  0
LINE
  5
F6
330
1F
100
AcDbEntity
  8
LAY-1
  6
CONTINUOUS
 62
     3
100
AcDbLine
 10
162.2166869999999
 20
484.185296
 30
0.0
 11
167.9917419999999
 21
484.185296
 31
0.0
  0
LINE
  5
F7
330
1F
100
AcDbEntity
  8
LAY-1
  6
CONTINUOUS
 62
     3
100
AcDbLine
 10
162.2166869999999
 20
476.6798029999999
 30
0.0
 11
167.9917419999999
 21
476.6798029999999
 31
0.0
  0
LINE
  5
F8
330
1F
100
AcDbEntity
  8
LAY-1
  6
CONTINUOUS
 62
     3
100
AcDbLine
 10
161.491773
 20
474.1825499999999
 30
0.0
 11
161.491773
 21
486.6825499999999
 31
0.0
  0
LINE
  5
F9
330
1F
100
AcDbEntity
  8
LAY-1
  6
CONTINUOUS
 62
     3
100
AcDbLine
 10
161.491773
 20
486.6825499999999
 30
0.0
 11
162.2166869999999
 21
487.9381649999999
 31
0.0
  0
ARC
  5
FA
330
1F
100
AcDbEntity
  8
LAY-1
  6
CONTINUOUS
 62
     3
100
AcDbCircle
 10
171.5711789999998
 20
480.433465
 30
0.0
 40
10.07909
100
AcDbArc
 50
158.1455760766088
 51
201.863745535358
  0
ARC
  5
FB
330
1F
100
AcDbEntity
  8
LAY-1
  6
CONTINUOUS
 62
     3
100
AcDbCircle
 10
166.3006109999999
 20
486.7240539999999
 30
0.0
 40
4.809198
100
AcDbArc
 50
180.4944824250409
 51
211.8671875678857
  0
LINE
  5
FC
330
1F
100
AcDbEntity
  8
LAY-1
  6
CONTINUOUS
 62
     3
100
AcDbLine
 10
162.2166869999999
 20
472.926934
 30
0.0
 11
167.991773
 21
472.926934
 31
0.0
  0
LINE
  5
FD
330
1F
100
AcDbEntity
  8
LAY-1
  6
CONTINUOUS
 62
     3
100
AcDbLine
 10
161.491773
 20
474.1825499999999
 30
0.0
 11
162.2167179999999
 21
472.926934
 31
0.0
  0
ARC
  5
FE
330
1F
100
AcDbEntity
  8
LAY-1
  6
CONTINUOUS
 62
     3
100
AcDbCircle
 10
166.3006109999999
 20
474.1410460000001
 30
0.0
 40
4.809198
100
AcDbArc
 50
148.1328521278002
 51
179.5055572706449
  0
LINE
  5
FF
330
1F
100
AcDbEntity
  8
LAY-1
  6
EXLTYPE2
 62
     1
100
AcDbLine
 10
182.87312
 20
480.4326110000001
 30
0.0
 11
154.9161499999998
 21
480.4326110000001
 31
0.0
  0
LINE
  5
100
330
1F
100
AcDbEntity
  8
LAY-1
  6
CONTINUOUS
 62
     3
100
AcDbLine
 10
158.6918459999999
 20
484.4326110000001
 30
0.0
 11
158.6918459999999
 21
476.4326110000001
 31
0.0
  0
ARC
  5
101
330
1F
100
AcDbEntity
  8
LAY-1
  6
CONTINUOUS
 62
     3
100
AcDbCircle
 10
164.7596559999999
 20
480.432367
 30
0.0
 40
7.267864
100
AcDbArc
 50
146.6050028713042
 51
213.3919428522878
  0
LINE
  5
102
330
1F
100
AcDbEntity
  8
LAY-1
  6
CONTINUOUS
 62
     1
100
AcDbLine
 10
161.491773
 20
477.108636
 30
0.0
 11
158.2963379999999
 21
477.108636
 31
0.0
  0
LINE
  5
103
330
1F
100
AcDbEntity
  8
LAY-1
  6
CONTINUOUS
 62
     3
100
AcDbLine
 10
161.491773
 20
476.432672
 30
0.0
 11
158.6918459999999
 21
476.4326110000001
 31
0.0
  0
LINE
  5
104
330
1F
100
AcDbEntity
  8
LAY-1
  6
CONTINUOUS
 62
     3
100
AcDbLine
 10
161.491773
 20
484.4325499999999
 30
0.0
 11
158.6918459999999
 21
484.4326110000001
 31
0.0
  0
LINE
  5
105
330
1F
100
AcDbEntity
  8
LAY-1
  6
CONTINUOUS
 62
     1
100
AcDbLine
 10
161.491773
 20
483.756585
 30
0.0
 11
158.2963379999999
 21
483.756585
 31
0.0
  0
LINE
  5
106
330
1F
100
AcDbEntity
  8
LAY-1
  6
CONTINUOUS
 62
     3
100
AcDbLine
 10
158.3555119999999
 20
464.4326110000001
 30
0.0
 11
162.9918029999999
 21
464.4326110000001
 31
0.0
  0
ARC
  5
107
330
1F
100
AcDbEntity
  8
LAY-1
  6
CONTINUOUS
 62
     3
100
AcDbCircle
 10
162.9918029999999
 20
469.4326110000001
 30
0.0
 40
5.0
100
AcDbArc
 50
270.0000011238745
 51
359.9999823999061
  0
ARC
  5
108
330
1F
100
AcDbEntity
  8
LAY-1
  6
CONTINUOUS
 62
     3
100
AcDbCircle
 10
169.9918029999999
 20
486.4326110000001
 30
0.0
 40
2.0
100
AcDbArc
 50
89.99998127603166
 51
180.0000198478429
  0
LINE
  5
109
330
1F
100
AcDbEntity
  8
LAY-1
  6
CONTINUOUS
 62
     3
100
AcDbLine
 10
214.4917419999999
 20
488.4326110000001
 30
0.0
 11
169.9918029999999
 21
488.4326110000001
 31
0.0
  0
LINE
  5
10A
330
1F
100
AcDbEntity
  8
LAY-1
  6
CONTINUOUS
 62
     3
100
AcDbLine
 10
79.75178299999993
 20
447.9325499999999
 30
0.0
 11
79.75178299999993
 21
456.39306
 31
0.0
  0
LINE
  5
10B
330
1F
100
AcDbEntity
  8
LAY-1
  6
CONTINUOUS
 62
     3
100
AcDbLine
 10
79.75178299999993
 20
455.4375549999999
 30
0.0
 11
72.24677799999995
 21
455.4375549999999
 31
0.0
  0
LINE
  5
10C
330
1F
100
AcDbEntity
  8
LAY-1
  6
CONTINUOUS
 62
     3
100
AcDbLine
 10
72.24674699999991
 20
455.4375549999999
 30
0.0
 11
72.24674699999991
 21
447.9325499999999
 31
0.0
  0
LINE
  5
10D
330
1F
100
AcDbEntity
  8
LAY-1
  6
CONTINUOUS
 62
     1
100
AcDbLine
 10
72.24674699999991
 20
455.4375549999999
 30
0.0
 11
79.75178299999993
 21
447.9325499999999
 31
0.0
  0
LINE
  5
10E
330
1F
100
AcDbEntity
  8
LAY-1
  6
CONTINUOUS
 62
     1
100
AcDbLine
 10
79.75178299999993
 20
455.4375549999999
 30
0.0
 11
72.24677799999995
 21
447.9325499999999
 31
0.0
  0
LINE
  5
10F
330
1F
100
AcDbEntity
  8
LAY-1
  6
CONTINUOUS
 62
     3
100
AcDbLine
 10
79.75178299999993
 20
447.9325499999999
 30
0.0
 11
79.75178299999993
 21
439.4720389999999
 31
0.0
  0
LINE
  5
110
330
1F
100
AcDbEntity
  8
LAY-1
  6
CONTINUOUS
 62
     3
100
AcDbLine
 10
84.49180299999989
 20
439.6375669999999
 30
0.0
 11
79.75178299999993
 21
439.4720389999999
 31
0.0
  0
LINE
  5
111
330
1F
100
AcDbEntity
  8
LAY-1
  6
CONTINUOUS
 62
     3
100
AcDbLine
 10
79.75178299999993
 20
440.4275449999999
 30
0.0
 11
72.24677799999995
 21
440.4275449999999
 31
0.0
  0
LINE
  5
112
330
1F
100
AcDbEntity
  8
LAY-1
  6
CONTINUOUS
 62
     3
100
AcDbLine
 10
72.24674699999991
 20
440.4275449999999
 30
0.0
 11
72.24674699999991
 21
447.9325499999999
 31
0.0
  0
LINE
  5
113
330
1F
100
AcDbEntity
  8
LAY-1
  6
CONTINUOUS
 62
     1
100
AcDbLine
 10
72.24674699999991
 20
440.4275449999999
 30
0.0
 11
79.75178299999993
 21
447.9325499999999
 31
0.0
  0
LINE
  5
114
330
1F
100
AcDbEntity
  8
LAY-1
  6
CONTINUOUS
 62
     1
100
AcDbLine
 10
79.75178299999993
 20
440.4275449999999
 30
0.0
 11
72.24677799999995
 21
447.9325499999999
 31
0.0
  0
LINE
  5
115
330
1F
100
AcDbEntity
  8
LAY-1
  6
CONTINUOUS
 62
     3
100
AcDbLine
 10
84.49180299999989
 20
447.9325499999999
 30
0.0
 11
84.49180299999989
 21
463.2254569999999
 31
0.0
  0
LINE
  5
116
330
1F
100
AcDbEntity
  8
LAY-1
  6
CONTINUOUS
 62
     3
100
AcDbLine
 10
79.75178299999993
 20
447.932672
 30
0.0
 11
79.75178299999993
 21
439.472161
 31
0.0
  0
LINE
  5
117
330
1F
100
AcDbEntity
  8
LAY-1
  6
CONTINUOUS
 62
     1
100
AcDbLine
 10
84.49177299999997
 20
440.427667
 30
0.0
 11
79.75178299999993
 21
440.2621399999999
 31
0.0
  0
LINE
  5
118
330
1F
100
AcDbEntity
  8
LAY-1
  6
CONTINUOUS
 62
     3
100
AcDbLine
 10
79.75178299999993
 20
440.427667
 30
0.0
 11
72.24677799999995
 21
440.427667
 31
0.0
  0
LINE
  5
119
330
1F
100
AcDbEntity
  8
LAY-1
  6
CONTINUOUS
 62
     3
100
AcDbLine
 10
72.24674699999991
 20
440.427667
 30
0.0
 11
72.24674699999991
 21
447.932672
 31
0.0
  0
LINE
  5
11A
330
1F
100
AcDbEntity
  8
LAY-1
  6
CONTINUOUS
 62
     1
100
AcDbLine
 10
72.24674699999991
 20
440.427667
 30
0.0
 11
79.75178299999993
 21
447.932672
 31
0.0
  0
LINE
  5
11B
330
1F
100
AcDbEntity
  8
LAY-1
  6
CONTINUOUS
 62
     1
100
AcDbLine
 10
79.75178299999993
 20
440.427667
 30
0.0
 11
72.24677799999995
 21
447.932672
 31
0.0
  0
LINE
  5
11C
330
1F
100
AcDbEntity
  8
LAY-1
  6
CONTINUOUS
 62
     3
100
AcDbLine
 10
79.75178299999993
 20
447.932672
 30
0.0
 11
79.75178299999993
 21
456.3931819999999
 31
0.0
  0
LINE
  5
11D
330
1F
100
AcDbEntity
  8
LAY-1
  6
CONTINUOUS
 62
     3
100
AcDbLine
 10
79.75178299999993
 20
455.437677
 30
0.0
 11
72.24677799999995
 21
455.437677
 31
0.0
  0
LINE
  5
11E
330
1F
100
AcDbEntity
  8
LAY-1
  6
CONTINUOUS
 62
     3
100
AcDbLine
 10
72.24674699999991
 20
455.437677
 30
0.0
 11
72.24674699999991
 21
447.932672
 31
0.0
  0
LINE
  5
11F
330
1F
100
AcDbEntity
  8
LAY-1
  6
CONTINUOUS
 62
     1
100
AcDbLine
 10
72.24674699999991
 20
455.437677
 30
0.0
 11
79.75178299999993
 21
447.932672
 31
0.0
  0
LINE
  5
120
330
1F
100
AcDbEntity
  8
LAY-1
  6
CONTINUOUS
 62
     1
100
AcDbLine
 10
79.75178299999993
 20
455.437677
 30
0.0
 11
72.24677799999995
 21
447.932672
 31
0.0
  0
LINE
  5
121
330
1F
100
AcDbEntity
  8
LAY-1
  6
CONTINUOUS
 62
     3
100
AcDbLine
 10
84.49177299999997
 20
447.9325499999999
 30
0.0
 11
84.49177299999997
 21
432.6397639999999
 31
0.0
  0
LINE
  5
122
330
1F
100
AcDbEntity
  8
LAY-1
  6
CONTINUOUS
 62
     3
100
AcDbLine
 10
84.49180299999989
 20
463.2254569999999
 30
0.0
 11
85.19889599999988
 21
463.9325499999999
 31
0.0
  0
LINE
  5
123
330
1F
100
AcDbEntity
  8
LAY-1
  6
CONTINUOUS
 62
     3
100
AcDbLine
 10
84.49177299999997
 20
432.6397639999999
 30
0.0
 11
85.19889599999988
 21
431.932672
 31
0.0
  0
LINE
  5
124
330
1F
100
AcDbEntity
  8
LAY-1
  6
CONTINUOUS
 62
     3
100
AcDbLine
 10
84.49180299999989
 20
432.639642
 30
0.0
 11
85.19889599999988
 21
431.9325499999999
 31
0.0
  0
LINE
  5
125
330
1F
100
AcDbEntity
  8
LAY-1
  6
CONTINUOUS
 62
     3
100
AcDbLine
 10
84.49180299999989
 20
456.2275329999999
 30
0.0
 11
79.75178299999993
 21
456.39306
 31
0.0
  0
LINE
  5
126
330
1F
100
AcDbEntity
  8
LAY-1
  6
CONTINUOUS
 62
     1
100
AcDbLine
 10
84.49177299999997
 20
455.4374320000001
 30
0.0
 11
79.75178299999993
 21
455.6029600000001
 31
0.0
  0
LINE
  5
127
330
1F
100
AcDbEntity
  8
LAY-1
  6
CONTINUOUS
 62
     3
100
AcDbLine
 10
349.231671
 20
447.9325499999999
 30
0.0
 11
349.231671
 21
456.39306
 31
0.0
  0
LINE
  5
128
330
1F
100
AcDbEntity
  8
LAY-1
  6
CONTINUOUS
 62
     3
100
AcDbLine
 10
349.231671
 20
455.4375549999999
 30
0.0
 11
356.736676
 21
455.4375549999999
 31
0.0
  0
LINE
  5
129
330
1F
100
AcDbEntity
  8
LAY-1
  6
CONTINUOUS
 62
     3
100
AcDbLine
 10
356.7367369999999
 20
455.4375549999999
 30
0.0
 11
356.7367369999999
 21
447.9325499999999
 31
0.0
  0
LINE
  5
12A
330
1F
100
AcDbEntity
  8
LAY-1
  6
CONTINUOUS
 62
     1
100
AcDbLine
 10
356.7367369999999
 20
455.4375549999999
 30
0.0
 11
349.231671
 21
447.9325499999999
 31
0.0
  0
LINE
  5
12B
330
1F
100
AcDbEntity
  8
LAY-1
  6
CONTINUOUS
 62
     1
100
AcDbLine
 10
349.231671
 20
455.4375549999999
 30
0.0
 11
356.736676
 21
447.9325499999999
 31
0.0
  0
LINE
  5
12C
330
1F
100
AcDbEntity
  8
LAY-1
  6
CONTINUOUS
 62
     3
100
AcDbLine
 10
349.231671
 20
447.9325499999999
 30
0.0
 11
349.231671
 21
439.4720389999999
 31
0.0
  0
LINE
  5
12D
330
1F
100
AcDbEntity
  8
LAY-1
  6
CONTINUOUS
 62
     3
100
AcDbLine
 10
344.491681
 20
439.6375669999999
 30
0.0
 11
349.231671
 21
439.4720389999999
 31
0.0
  0
LINE
  5
12E
330
1F
100
AcDbEntity
  8
LAY-1
  6
CONTINUOUS
 62
     3
100
AcDbLine
 10
349.231671
 20
440.4275449999999
 30
0.0
 11
356.736676
 21
440.4275449999999
 31
0.0
  0
LINE
  5
12F
330
1F
100
AcDbEntity
  8
LAY-1
  6
CONTINUOUS
 62
     3
100
AcDbLine
 10
356.7367369999999
 20
440.4275449999999
 30
0.0
 11
356.7367369999999
 21
447.9325499999999
 31
0.0
  0
LINE
  5
130
330
1F
100
AcDbEntity
  8
LAY-1
  6
CONTINUOUS
 62
     1
100
AcDbLine
 10
356.7367369999999
 20
440.4275449999999
 30
0.0
 11
349.231671
 21
447.9325499999999
 31
0.0
  0
LINE
  5
131
330
1F
100
AcDbEntity
  8
LAY-1
  6
CONTINUOUS
 62
     1
100
AcDbLine
 10
349.231671
 20
440.4275449999999
 30
0.0
 11
356.736676
 21
447.9325499999999
 31
0.0
  0
LINE
  5
132
330
1F
100
AcDbEntity
  8
LAY-1
  6
CONTINUOUS
 62
     3
100
AcDbLine
 10
344.491681
 20
447.9325499999999
 30
0.0
 11
344.491681
 21
463.2254569999999
 31
0.0
  0
LINE
  5
133
330
1F
100
AcDbEntity
  8
LAY-1
  6
CONTINUOUS
 62
     3
100
AcDbLine
 10
338.407025
 20
463.9325499999999
 30
0.0
 11
343.7845889999999
 21
463.9325499999999
 31
0.0
  0
LINE
  5
134
330
1F
100
AcDbEntity
  8
LAY-1
  6
CONTINUOUS
 62
     3
100
AcDbLine
 10
349.231671
 20
447.932672
 30
0.0
 11
349.231671
 21
439.472161
 31
0.0
  0
LINE
  5
135
330
1F
100
AcDbEntity
  8
LAY-1
  6
CONTINUOUS
 62
     1
100
AcDbLine
 10
344.491681
 20
440.427667
 30
0.0
 11
349.231671
 21
440.2621399999999
 31
0.0
  0
LINE
  5
136
330
1F
100
AcDbEntity
  8
LAY-1
  6
CONTINUOUS
 62
     3
100
AcDbLine
 10
349.231671
 20
440.427667
 30
0.0
 11
356.736676
 21
440.427667
 31
0.0
  0
LINE
  5
137
330
1F
100
AcDbEntity
  8
LAY-1
  6
CONTINUOUS
 62
     3
100
AcDbLine
 10
356.7367369999999
 20
440.427667
 30
0.0
 11
356.7367369999999
 21
447.932672
 31
0.0
  0
LINE
  5
138
330
1F
100
AcDbEntity
  8
LAY-1
  6
CONTINUOUS
 62
     1
100
AcDbLine
 10
356.7367369999999
 20
440.427667
 30
0.0
 11
349.231671
 21
447.932672
 31
0.0
  0
LINE
  5
139
330
1F
100
AcDbEntity
  8
LAY-1
  6
CONTINUOUS
 62
     1
100
AcDbLine
 10
349.231671
 20
440.427667
 30
0.0
 11
356.736676
 21
447.932672
 31
0.0
  0
LINE
  5
13A
330
1F
100
AcDbEntity
  8
LAY-1
  6
CONTINUOUS
 62
     3
100
AcDbLine
 10
349.231671
 20
447.932672
 30
0.0
 11
349.231671
 21
456.3931819999999
 31
0.0
  0
LINE
  5
13B
330
1F
100
AcDbEntity
  8
LAY-1
  6
CONTINUOUS
 62
     3
100
AcDbLine
 10
349.231671
 20
455.437677
 30
0.0
 11
356.736676
 21
455.437677
 31
0.0
  0
LINE
  5
13C
330
1F
100
AcDbEntity
  8
LAY-1
  6
CONTINUOUS
 62
     3
100
AcDbLine
 10
356.7367369999999
 20
455.437677
 30
0.0
 11
356.7367369999999
 21
447.932672
 31
0.0
  0
LINE
  5
13D
330
1F
100
AcDbEntity
  8
LAY-1
  6
CONTINUOUS
 62
     1
100
AcDbLine
 10
356.7367369999999
 20
455.437677
 30
0.0
 11
349.231671
 21
447.932672
 31
0.0
  0
LINE
  5
13E
330
1F
100
AcDbEntity
  8
LAY-1
  6
CONTINUOUS
 62
     1
100
AcDbLine
 10
349.231671
 20
455.437677
 30
0.0
 11
356.736676
 21
447.932672
 31
0.0
  0
LINE
  5
13F
330
1F
100
AcDbEntity
  8
LAY-1
  6
CONTINUOUS
 62
     3
100
AcDbLine
 10
344.491681
 20
447.9325499999999
 30
0.0
 11
344.491681
 21
432.6397639999999
 31
0.0
  0
LINE
  5
140
330
1F
100
AcDbEntity
  8
LAY-1
  6
CONTINUOUS
 62
     3
100
AcDbLine
 10
344.491681
 20
463.2254569999999
 30
0.0
 11
343.7845889999999
 21
463.9325499999999
 31
0.0
  0
LINE
  5
141
330
1F
100
AcDbEntity
  8
LAY-1
  6
CONTINUOUS
 62
     3
100
AcDbLine
 10
344.491681
 20
432.6397639999999
 30
0.0
 11
343.7845889999999
 21
431.932672
 31
0.0
  0
LINE
  5
142
330
1F
100
AcDbEntity
  8
LAY-1
  6
CONTINUOUS
 62
     3
100
AcDbLine
 10
344.491681
 20
432.639642
 30
0.0
 11
343.7845889999999
 21
431.9325499999999
 31
0.0
  0
LINE
  5
143
330
1F
100
AcDbEntity
  8
LAY-1
  6
CONTINUOUS
 62
     3
100
AcDbLine
 10
338.407025
 20
431.9325499999999
 30
0.0
 11
343.7845889999999
 21
431.9325499999999
 31
0.0
  0
LINE
  5
144
330
1F
100
AcDbEntity
  8
LAY-1
  6
CONTINUOUS
 62
     3
100
AcDbLine
 10
344.491681
 20
456.2275329999999
 30
0.0
 11
349.231671
 21
456.39306
 31
0.0
  0
LINE
  5
145
330
1F
100
AcDbEntity
  8
LAY-1
  6
CONTINUOUS
 62
     1
100
AcDbLine
 10
344.491681
 20
455.4374320000001
 30
0.0
 11
349.231671
 21
455.6029600000001
 31
0.0
  0
LINE
  5
146
330
1F
100
AcDbEntity
  8
LAY-1
  6
CONTINUOUS
 62
     3
100
AcDbLine
 10
292.5916869999999
 20
454.803033
 30
0.0
 11
292.5916869999999
 21
441.0620660000001
 31
0.0
  0
LINE
  5
147
330
1F
100
AcDbEntity
  8
LAY-1
  6
CONTINUOUS
 62
     3
100
AcDbLine
 10
316.3916749999999
 20
441.062249
 30
0.0
 11
316.3916749999999
 21
454.803033
 31
0.0
  0
LINE
  5
148
330
1F
100
AcDbEntity
  8
LAY-1
  6
CONTINUOUS
 62
     3
100
AcDbLine
 10
304.4915899999999
 20
461.6736999999999
 30
0.0
 11
316.3916749999999
 21
454.803033
 31
0.0
  0
LINE
  5
149
330
1F
100
AcDbEntity
  8
LAY-1
  6
CONTINUOUS
 62
     3
100
AcDbLine
 10
304.4915899999999
 20
461.6736999999999
 30
0.0
 11
292.591596
 21
454.803033
 31
0.0
  0
LINE
  5
14A
330
1F
100
AcDbEntity
  8
LAY-1
  6
CONTINUOUS
 62
     3
100
AcDbLine
 10
292.591596
 20
441.0620660000001
 30
0.0
 11
304.491681
 21
434.191522
 31
0.0
  0
LINE
  5
14B
330
1F
100
AcDbEntity
  8
LAY-1
  6
CONTINUOUS
 62
     3
100
AcDbLine
 10
304.491681
 20
434.1917050000001
 30
0.0
 11
316.3916749999999
 21
441.062249
 31
0.0
  0
CIRCLE
  5
14C
330
1F
100
AcDbEntity
  8
LAY-1
  6
CONTINUOUS
 62
     3
100
AcDbCircle
 10
304.491681
 20
447.9326110000001
 30
0.0
 40
11.55
  0
LINE
  5
14D
330
1F
100
AcDbEntity
  8
LAY-1
  6
CONTINUOUS
 62
     3
100
AcDbLine
 10
296.491681
 20
505.9325499999999
 30
0.0
 11
304.4916509999998
 21
505.9325499999999
 31
0.0
  0
ARC
  5
14E
330
1F
100
AcDbEntity
  8
LAY-1
  6
CONTINUOUS
 62
     3
100
AcDbCircle
 10
296.491681
 20
503.9325499999999
 30
0.0
 40
2.0
100
AcDbArc
 50
89.99998127603166
 51
180.0000198478429
  0
LINE
  5
14F
330
1F
100
AcDbEntity
  8
LAY-1
  6
CONTINUOUS
 62
     3
100
AcDbLine
 10
312.491681
 20
505.9325499999999
 30
0.0
 11
304.491712
 21
505.9325499999999
 31
0.0
  0
ARC
  5
150
330
1F
100
AcDbEntity
  8
LAY-1
  6
CONTINUOUS
 62
     3
100
AcDbCircle
 10
312.491681
 20
503.9325499999999
 30
0.0
 40
2.0
100
AcDbArc
 50
359.9999823999061
 51
90.00002097171735
  0
LINE
  5
151
330
1F
100
AcDbEntity
  8
LAY-1
  6
CONTINUOUS
 62
     3
100
AcDbLine
 10
310.491681
 20
391.1671689999999
 30
0.0
 11
310.491681
 21
432.9325499999999
 31
0.0
  0
LINE
  5
152
330
1F
100
AcDbEntity
  8
LAY-1
  6
CONTINUOUS
 62
     3
100
AcDbLine
 10
314.491681
 20
435.8909849999999
 30
0.0
 11
314.491681
 21
391.9325499999999
 31
0.0
  0
ARC
  5
153
330
1F
100
AcDbEntity
  8
LAY-1
  6
CONTINUOUS
 62
     3
100
AcDbCircle
 10
312.491681
 20
391.9325499999999
 30
0.0
 40
2.0
100
AcDbArc
 50
270.0000011238745
 51
359.9999823999061
  0
ARC
  5
154
330
1F
100
AcDbEntity
  8
LAY-1
  6
CONTINUOUS
 62
     3
100
AcDbCircle
 10
304.491681
 20
447.9325499999999
 30
0.0
 40
15.00000000000001
100
AcDbArc
 50
180.0000198478429
 51
0.5148025789250447
  0
ARC
  5
155
330
1F
100
AcDbEntity
  8
LAY-1
  6
CONTINUOUS
 62
     3
100
AcDbCircle
 10
316.491681
 20
435.8909849999999
 30
0.0
 40
2.0
100
AcDbArc
 50
134.9017096521825
 51
180.0000198478429
  0
ARC
  5
156
330
1F
100
AcDbEntity
  8
LAY-1
  6
CONTINUOUS
 62
     3
100
AcDbCircle
 10
312.491681
 20
432.9325499999999
 30
0.0
 40
2.0
100
AcDbArc
 50
118.0720484484663
 51
180.0000198478429
  0
LINE
  5
157
330
1F
100
AcDbEntity
  8
LAY-1
  6
CONTINUOUS
 62
     3
100
AcDbLine
 10
294.491681
 20
400.404809
 30
0.0
 11
294.491681
 21
435.8909849999999
 31
0.0
  0
ARC
  5
158
330
1F
100
AcDbEntity
  8
LAY-1
  6
CONTINUOUS
 62
     3
100
AcDbCircle
 10
292.491681
 20
435.8909849999999
 30
0.0
 40
2.0
100
AcDbArc
 50
359.9999823999061
 51
45.09829259556645
  0
LINE
  5
159
330
1F
100
AcDbEntity
  8
LAY-1
  6
CONTINUOUS
 62
     3
100
AcDbLine
 10
298.491681
 20
398.095361
 30
0.0
 11
298.491681
 21
432.9325499999999
 31
0.0
  0
ARC
  5
15A
330
1F
100
AcDbEntity
  8
LAY-1
  6
CONTINUOUS
 62
     3
100
AcDbCircle
 10
296.491681
 20
432.9325499999999
 30
0.0
 40
2.0
100
AcDbArc
 50
359.9999823999061
 51
61.92795379928265
  0
LINE
  5
15B
330
1F
100
AcDbEntity
  8
LAY-1
  6
CONTINUOUS
 62
     3
100
AcDbLine
 10
310.491681
 20
462.9325499999999
 30
0.0
 11
310.491681
 21
505.9325499999999
 31
0.0
  0
LINE
  5
15C
330
1F
100
AcDbEntity
  8
LAY-1
  6
CONTINUOUS
 62
     3
100
AcDbLine
 10
314.491681
 20
459.9741149999999
 30
0.0
 11
314.491681
 21
503.9325499999999
 31
0.0
  0
ARC
  5
15D
330
1F
100
AcDbEntity
  8
LAY-1
  6
CONTINUOUS
 62
     3
100
AcDbCircle
 10
304.491681
 20
447.9325499999999
 30
0.0
 40
15.00000000000001
100
AcDbArc
 50
359.4852371167607
 51
180.000002247749
  0
ARC
  5
15E
330
1F
100
AcDbEntity
  8
LAY-1
  6
CONTINUOUS
 62
     3
100
AcDbCircle
 10
316.491681
 20
459.9741149999999
 30
0.0
 40
2.0
100
AcDbArc
 50
180.0000198478429
 51
225.0983300435031
  0
ARC
  5
15F
330
1F
100
AcDbEntity
  8
LAY-1
  6
CONTINUOUS
 62
     3
100
AcDbCircle
 10
312.491681
 20
462.9325499999999
 30
0.0
 40
2.0
100
AcDbArc
 50
180.0000198478429
 51
241.92793395144
  0
LINE
  5
160
330
1F
100
AcDbEntity
  8
LAY-1
  6
CONTINUOUS
 62
     3
100
AcDbLine
 10
294.491681
 20
459.9741149999999
 30
0.0
 11
294.491681
 21
503.9325499999999
 31
0.0
  0
ARC
  5
161
330
1F
100
AcDbEntity
  8
LAY-1
  6
CONTINUOUS
 62
     3
100
AcDbCircle
 10
292.491681
 20
459.9741149999999
 30
0.0
 40
2.0
100
AcDbArc
 50
314.9017295000256
 51
359.9999823999061
  0
LINE
  5
162
330
1F
100
AcDbEntity
  8
LAY-1
  6
CONTINUOUS
 62
     3
100
AcDbLine
 10
298.491681
 20
462.9325499999999
 30
0.0
 11
298.491681
 21
505.9325499999999
 31
0.0
  0
ARC
  5
163
330
1F
100
AcDbEntity
  8
LAY-1
  6
CONTINUOUS
 62
     3
100
AcDbCircle
 10
296.491681
 20
462.9325499999999
 30
0.0
 40
2.0
100
AcDbArc
 50
298.0720682963092
 51
359.9999823999061
  0
ARC
  5
164
330
1F
100
AcDbEntity
  8
LAY-1
  6
CONTINUOUS
 62
     3
100
AcDbCircle
 10
304.491681
 20
447.9325499999999
 30
0.0
 40
37.500011
100
AcDbArc
 50
285.4660227751796
 51
74.53399932041249
  0
LINE
  5
165
330
1F
100
AcDbEntity
  8
LAY-1
  6
CONTINUOUS
 62
     3
100
AcDbLine
 10
293.491681
 20
494.4326110000001
 30
0.0
 11
293.491681
 21
483.782953
 31
0.0
  0
LINE
  5
166
330
1F
100
AcDbEntity
  8
LAY-1
  6
CONTINUOUS
 62
     3
100
AcDbLine
 10
319.491681
 20
494.4325499999999
 30
0.0
 11
319.491681
 21
482.301873
 31
0.0
  0
LINE
  5
167
330
1F
100
AcDbEntity
  8
LAY-1
  6
CONTINUOUS
 62
     3
100
AcDbLine
 10
318.491681
 20
495.4325499999999
 30
0.0
 11
314.491712
 21
495.4325499999999
 31
0.0
  0
LINE
  5
168
330
1F
100
AcDbEntity
  8
LAY-1
  6
CONTINUOUS
 62
     3
100
AcDbLine
 10
294.4917419999999
 20
495.4326110000001
 30
0.0
 11
294.491681
 21
495.4326110000001
 31
0.0
  0
ARC
  5
169
330
1F
100
AcDbEntity
  8
LAY-1
  6
CONTINUOUS
 62
     3
100
AcDbCircle
 10
318.491681
 20
494.4325499999999
 30
0.0
 40
1.0
100
AcDbArc
 50
0.0
 51
89.99998127603166
  0
ARC
  5
16A
330
1F
100
AcDbEntity
  8
LAY-1
  6
CONTINUOUS
 62
     3
100
AcDbCircle
 10
294.491681
 20
494.4326110000001
 30
0.0
 40
1.0
100
AcDbArc
 50
89.99998127603166
 51
180.0000198478429
  0
LINE
  5
16B
330
1F
100
AcDbEntity
  8
LAY-1
  6
CONTINUOUS
 62
     3
100
AcDbLine
 10
289.491681
 20
403.291528
 30
0.0
 11
289.491681
 21
413.563226
 31
0.0
  0
LINE
  5
16C
330
1F
100
AcDbEntity
  8
LAY-1
  6
CONTINUOUS
 62
     3
100
AcDbLine
 10
315.491681
 20
401.4324889999999
 30
0.0
 11
315.491681
 21
412.082147
 31
0.0
  0
ARC
  5
16D
330
1F
100
AcDbEntity
  8
LAY-1
  6
CONTINUOUS
 62
     3
100
AcDbCircle
 10
314.491681
 20
401.4324889999999
 30
0.0
 40
1.0
100
AcDbArc
 50
270.0000011238745
 51
359.9999823999061
  0
LINE
  5
16E
330
1F
100
AcDbEntity
  8
LAY-1
  6
CONTINUOUS
 62
     3
100
AcDbLine
 10
260.991712
 20
487.9381649999999
 30
0.0
 11
260.991712
 21
472.927057
 31
0.0
  0
LINE
  5
16F
330
1F
100
AcDbEntity
  8
LAY-1
  6
CONTINUOUS
 62
     3
100
AcDbLine
 10
266.766797
 20
487.9381649999999
 30
0.0
 11
260.991712
 21
487.9381649999999
 31
0.0
  0
LINE
  5
170
330
1F
100
AcDbEntity
  8
LAY-1
  6
CONTINUOUS
 62
     3
100
AcDbLine
 10
266.766797
 20
484.185296
 30
0.0
 11
260.9917419999999
 21
484.185296
 31
0.0
  0
LINE
  5
171
330
1F
100
AcDbEntity
  8
LAY-1
  6
CONTINUOUS
 62
     3
100
AcDbLine
 10
266.766797
 20
476.6798029999999
 30
0.0
 11
260.9917419999999
 21
476.6798029999999
 31
0.0
  0
LINE
  5
172
330
1F
100
AcDbEntity
  8
LAY-1
  6
CONTINUOUS
 62
     3
100
AcDbLine
 10
267.491712
 20
474.1825499999999
 30
0.0
 11
267.491712
 21
486.6825499999999
 31
0.0
  0
LINE
  5
173
330
1F
100
AcDbEntity
  8
LAY-1
  6
CONTINUOUS
 62
     3
100
AcDbLine
 10
267.491712
 20
486.6825499999999
 30
0.0
 11
266.766797
 21
487.9381649999999
 31
0.0
  0
ARC
  5
174
330
1F
100
AcDbEntity
  8
LAY-1
  6
CONTINUOUS
 62
     3
100
AcDbCircle
 10
257.4123049999998
 20
480.433465
 30
0.0
 40
10.07909
100
AcDbArc
 50
338.1362567123911
 51
21.8544834669197
  0
ARC
  5
175
330
1F
100
AcDbEntity
  8
LAY-1
  6
CONTINUOUS
 62
     3
100
AcDbCircle
 10
262.6828739999999
 20
486.7240539999999
 30
0.0
 40
4.809198
100
AcDbArc
 50
328.1328146798634
 51
359.5055198227083
  0
LINE
  5
176
330
1F
100
AcDbEntity
  8
LAY-1
  6
CONTINUOUS
 62
     3
100
AcDbLine
 10
266.766797
 20
472.926934
 30
0.0
 11
260.991712
 21
472.926934
 31
0.0
  0
LINE
  5
177
330
1F
100
AcDbEntity
  8
LAY-1
  6
CONTINUOUS
 62
     3
100
AcDbLine
 10
267.491712
 20
474.1825499999999
 30
0.0
 11
266.7667669999998
 21
472.926934
 31
0.0
  0
ARC
  5
178
330
1F
100
AcDbEntity
  8
LAY-1
  6
CONTINUOUS
 62
     3
100
AcDbCircle
 10
262.6828739999999
 20
474.1410460000001
 30
0.0
 40
4.809198
100
AcDbArc
 50
0.4944625771979004
 51
31.86716772004272
  0
LINE
  5
179
330
1F
100
AcDbEntity
  8
LAY-1
  6
EXLTYPE2
 62
     1
100
AcDbLine
 10
246.1103639999999
 20
480.4326110000001
 30
0.0
 11
274.0673339999998
 21
480.4326110000001
 31
0.0
  0
LINE
  5
17A
330
1F
100
AcDbEntity
  8
LAY-1
  6
CONTINUOUS
 62
     3
100
AcDbLine
 10
270.2916379999999
 20
484.4326110000001
 30
0.0
 11
270.2916379999999
 21
476.4326110000001
 31
0.0
  0
ARC
  5
17B
330
1F
100
AcDbEntity
  8
LAY-1
  6
CONTINUOUS
 62
     3
100
AcDbCircle
 10
264.2238279999999
 20
480.432367
 30
0.0
 40
7.267864
100
AcDbArc
 50
326.6080593954615
 51
33.39499937644468
  0
LINE
  5
17C
330
1F
100
AcDbEntity
  8
LAY-1
  6
CONTINUOUS
 62
     1
100
AcDbLine
 10
267.491712
 20
477.108636
 30
0.0
 11
270.687146
 21
477.108636
 31
0.0
  0
LINE
  5
17D
330
1F
100
AcDbEntity
  8
LAY-1
  6
CONTINUOUS
 62
     3
100
AcDbLine
 10
267.491712
 20
476.432672
 30
0.0
 11
270.2916379999999
 21
476.4326110000001
 31
0.0
  0
LINE
  5
17E
330
1F
100
AcDbEntity
  8
LAY-1
  6
CONTINUOUS
 62
     3
100
AcDbLine
 10
267.491712
 20
484.4325499999999
 30
0.0
 11
270.2916379999999
 21
484.4326110000001
 31
0.0
  0
LINE
  5
17F
330
1F
100
AcDbEntity
  8
LAY-1
  6
CONTINUOUS
 62
     1
100
AcDbLine
 10
267.491712
 20
483.756585
 30
0.0
 11
270.687146
 21
483.756585
 31
0.0
  0
LINE
  5
180
330
1F
100
AcDbEntity
  8
LAY-1
  6
CONTINUOUS
 62
     3
100
AcDbLine
 10
270.6279729999999
 20
464.4326110000001
 30
0.0
 11
265.991681
 21
464.4326110000001
 31
0.0
  0
ARC
  5
181
330
1F
100
AcDbEntity
  8
LAY-1
  6
CONTINUOUS
 62
     3
100
AcDbCircle
 10
265.991681
 20
469.4326110000001
 30
0.0
 40
5.0
100
AcDbArc
 50
180.0000198478429
 51
270.0000011238745
  0
ARC
  5
182
330
1F
100
AcDbEntity
  8
LAY-1
  6
CONTINUOUS
 62
     3
100
AcDbCircle
 10
258.991681
 20
486.4326110000001
 30
0.0
 40
2.0
100
AcDbArc
 50
359.9999823999061
 51
90.00002097171735
  0
LINE
  5
183
330
1F
100
AcDbEntity
  8
LAY-1
  6
CONTINUOUS
 62
     3
100
AcDbLine
 10
214.4917419999999
 20
488.4326110000001
 30
0.0
 11
258.991681
 21
488.4326110000001
 31
0.0
  0
LINE
  5
184
330
1F
100
AcDbEntity
  8
LAY-1
  6
CONTINUOUS
 62
     3
100
AcDbLine
 10
214.4917419999999
 20
512.766473
 30
0.0
 11
219.0172239999999
 21
508.24096
 31
0.0
  0
LINE
  5
185
330
1F
100
AcDbEntity
  8
LAY-1
  6
CONTINUOUS
 62
     3
100
AcDbLine
 10
214.4917419999999
 20
512.766473
 30
0.0
 11
209.9662289999999
 21
508.24096
 31
0.0
  0
ARC
  5
186
330
1F
100
AcDbEntity
  8
LAY-1
  6
CONTINUOUS
 62
     3
100
AcDbCircle
 10
162.9918029999999
 20
469.4326110000001
 30
0.0
 40
5.0
100
AcDbArc
 50
269.9999988761256
 51
359.9999801521575
  0
ARC
  5
187
330
1F
100
AcDbEntity
  8
LAY-1
  6
CONTINUOUS
 62
     3
100
AcDbCircle
 10
162.9918029999999
 20
469.4326110000001
 30
0.0
 40
5.0
100
AcDbArc
 50
269.9999988761256
 51
359.9999801521575
  0
ARC
  5
188
330
1F
100
AcDbEntity
  8
LAY-1
  6
CONTINUOUS
 62
     3
100
AcDbCircle
 10
162.9918029999999
 20
469.4326110000001
 30
0.0
 40
5.0
100
AcDbArc
 50
269.9999988761256
 51
359.9999801521575
  0
ARC
  5
189
330
1F
100
AcDbEntity
  8
LAY-1
  6
CONTINUOUS
 62
     3
100
AcDbCircle
 10
304.491681
 20
447.9325499999999
 30
0.0
 40
37.500011
100
AcDbArc
 50
105.4660029273366
 51
179.4772122877423
  0
LINE
  5
18A
330
1F
100
AcDbEntity
  8
LAY-1
  6
CONTINUOUS
 62
     3
100
AcDbLine
 10
212.795856
 20
508.24096
 30
0.0
 11
209.9662289999999
 21
508.24096
 31
0.0
  0
LINE
  5
18B
330
1F
100
AcDbEntity
  8
LAY-1
  6
CONTINUOUS
 62
     3
100
AcDbLine
 10
216.1876279999999
 20
508.24096
 30
0.0
 11
219.0172239999999
 21
508.24096
 31
0.0
  0
CIRCLE
  5
18C
330
1F
100
AcDbEntity
  8
LAY-1
  6
CONTINUOUS
 62
     3
100
AcDbCircle
 10
214.4917419999999
 20
435.6231489232403
 30
0.0
 40
11.0
  0
LINE
  5
18D
330
1F
100
AcDbEntity
  8
LAY-1
  6
CONTINUOUS
 62
     3
100
AcDbLine
 10
216.3835670756789
 20
446.4592459089188
 30
0.0
 11
225.3278389856786
 21
437.5149739989192
 31
0.0
  0
LINE
  5
18E
330
1F
100
AcDbEntity
  8
LAY-1
  6
CONTINUOUS
 62
     3
100
AcDbLine
 10
203.6556450143211
 20
433.7313238475608
 30
0.0
 11
212.5999169243207
 21
424.7870519375613
 31
0.0
  0
LINE
  5
18F
330
1F
100
AcDbEntity
  8
LAY-1
  6
CONTINUOUS
 62
     3
100
AcDbLine
 10
203.6556450143214
 20
437.5149739989192
 30
0.0
 11
212.599916924321
 21
446.4592459089188
 31
0.0
  0
LINE
  5
190
330
1F
100
AcDbEntity
  8
LAY-1
  6
CONTINUOUS
 62
     3
100
AcDbLine
 10
225.3278389856787
 20
433.7313238475613
 30
0.0
 11
216.383567075679
 21
424.7870519375616
 31
0.0
  0
LINE
  5
191
330
1F
100
AcDbEntity
  8
LAY-1
  6
CONTINUOUS
 62
     3
100
AcDbLine
 10
221.0968196343746
 20
441.7459933502232
 30
0.0
 11
212.4917419999999
 21
436.7778494616193
 31
0.0
  0
LINE
  5
192
330
1F
100
AcDbEntity
  8
LAY-1
  6
CONTINUOUS
 62
     3
100
AcDbLine
 10
224.0250228646501
 20
438.8177901199476
 30
0.0
 11
216.4917419999997
 21
434.4684483848607
 31
0.0
  0
LINE
  5
193
330
1F
100
AcDbEntity
  8
LAY-1
  6
CONTINUOUS
 62
     3
100
AcDbLine
 10
216.4917419999999
 20
434.4684483848603
 30
0.0
 11
216.4917419999999
 21
424.7870519375601
 31
0.0
  0
LINE
  5
194
330
1F
100
AcDbEntity
  8
LAY-1
  6
CONTINUOUS
 62
     3
100
AcDbLine
 10
212.4917419999999
 20
436.7778494616202
 30
0.0
 11
212.4917419999999
 21
424.7870519375601
 31
0.0
  0
LINE
  5
195
330
1F
100
AcDbEntity
  8
LAY-1
  6
EXLTYPE5
 62
     1
100
AcDbLine
 10
214.4917419999999
 20
387.93255
 30
0.0
 11
214.4917419999999
 21
488.93255
 31
0.0
  0
ARC
  5
196
330
1F
100
AcDbEntity
  8
LAY-1
  6
CONTINUOUS
 62
     3
100
AcDbCircle
 10
233.7532558854598
 20
400.0479346153846
 30
0.0
 40
10.0
100
AcDbArc
 50
116.949955927645
 51
164.3815017243516
  0
ARC
  5
197
330
1F
100
AcDbEntity
  8
LAY-1
  6
CONTINUOUS
 62
     3
100
AcDbCircle
 10
195.2302281145398
 20
475.8171653846154
 30
0.0
 40
10.0
100
AcDbArc
 50
296.949955927645
 51
344.3815017243516
  0
ARC
  5
198
330
1F
100
AcDbEntity
  8
LAY-1
  6
CONTINUOUS
 62
     3
100
AcDbCircle
 10
214.4917419999999
 20
405.43255
 30
0.0
 40
10.0
100
AcDbArc
 50
195.6184982756485
 51
344.3815017243513
  0
ARC
  5
199
330
1F
100
AcDbEntity
  8
LAY-1
  6
CONTINUOUS
 62
     3
100
AcDbCircle
 10
214.4917419999999
 20
470.4325500000001
 30
0.0
 40
10.0
100
AcDbArc
 50
15.61849827564843
 51
164.3815017243514
  0
CIRCLE
  5
19A
330
1F
100
AcDbEntity
  8
LAY-1
  6
CONTINUOUS
 62
     3
100
AcDbCircle
 10
214.4917419999999
 20
470.43255
 30
0.0
 40
8.0
  0
LINE
  5
19B
330
1F
100
AcDbEntity
  8
LAY-1
  6
CONTINUOUS
 62
     3
100
AcDbLine
 10
214.4917419999999
 20
475.051352153517
 30
0.0
 11
218.4917419999998
 21
472.7419510767586
 31
0.0
  0
LINE
  5
19C
330
1F
100
AcDbEntity
  8
LAY-1
  6
CONTINUOUS
 62
     3
100
AcDbLine
 10
218.4917419999998
 20
468.1231489232414
 30
0.0
 11
218.4917419999998
 21
472.7419510767586
 31
0.0
  0
LINE
  5
19D
330
1F
100
AcDbEntity
  8
LAY-1
  6
CONTINUOUS
 62
     3
100
AcDbLine
 10
214.4917419999999
 20
465.813747846483
 30
0.0
 11
218.4917419999998
 21
468.1231489232414
 31
0.0
  0
LINE
  5
19E
330
1F
100
AcDbEntity
  8
LAY-1
  6
CONTINUOUS
 62
     3
100
AcDbLine
 10
214.4917419999999
 20
465.813747846483
 30
0.0
 11
210.4917419999999
 21
468.1231489232414
 31
0.0
  0
LINE
  5
19F
330
1F
100
AcDbEntity
  8
LAY-1
  6
CONTINUOUS
 62
     3
100
AcDbLine
 10
214.4917419999999
 20
475.0513521535171
 30
0.0
 11
210.4917419999999
 21
472.7419510767586
 31
0.0
  0
LINE
  5
1A0
330
1F
100
AcDbEntity
  8
LAY-1
  6
CONTINUOUS
 62
     3
100
AcDbLine
 10
210.4917419999999
 20
468.1231489232414
 30
0.0
 11
210.4917419999999
 21
472.7419510767586
 31
0.0
  0
CIRCLE
  5
1A1
330
1F
100
AcDbEntity
  8
LAY-1
  6
CONTINUOUS
 62
     3
100
AcDbCircle
 10
214.4917419999999
 20
405.43255
 30
0.0
 40
8.0
  0
LINE
  5
1A2
330
1F
100
AcDbEntity
  8
LAY-1
  6
CONTINUOUS
 62
     3
100
AcDbLine
 10
214.4917419999999
 20
400.813747846483
 30
0.0
 11
218.4917419999998
 21
403.1231489232414
 31
0.0
  0
LINE
  5
1A3
330
1F
100
AcDbEntity
  8
LAY-1
  6
CONTINUOUS
 62
     3
100
AcDbLine
 10
218.4917419999998
 20
407.7419510767586
 30
0.0
 11
218.4917419999998
 21
403.1231489232414
 31
0.0
  0
LINE
  5
1A4
330
1F
100
AcDbEntity
  8
LAY-1
  6
CONTINUOUS
 62
     3
100
AcDbLine
 10
214.4917419999999
 20
410.051352153517
 30
0.0
 11
218.4917419999998
 21
407.7419510767586
 31
0.0
  0
LINE
  5
1A5
330
1F
100
AcDbEntity
  8
LAY-1
  6
CONTINUOUS
 62
     3
100
AcDbLine
 10
214.4917419999999
 20
410.051352153517
 30
0.0
 11
210.4917419999999
 21
407.7419510767586
 31
0.0
  0
LINE
  5
1A6
330
1F
100
AcDbEntity
  8
LAY-1
  6
CONTINUOUS
 62
     3
100
AcDbLine
 10
214.4917419999999
 20
400.8137478464829
 30
0.0
 11
210.4917419999999
 21
403.1231489232414
 31
0.0
  0
LINE
  5
1A7
330
1F
100
AcDbEntity
  8
LAY-1
  6
CONTINUOUS
 62
     3
100
AcDbLine
 10
210.4917419999999
 20
407.7419510767586
 30
0.0
 11
210.4917419999999
 21
403.1231489232414
 31
0.0
  0
LINE
  5
1A8
330
1F
100
AcDbEntity
  8
LAY-1
  6
CONTINUOUS
 62
     3
100
AcDbLine
 10
229.4917075267335
 20
469.686867922243
 30
0.0
 11
234.4917256648866
 21
466.7999843559359
 31
0.0
  0
LINE
  5
1A9
330
1F
100
AcDbEntity
  8
LAY-1
  6
CONTINUOUS
 62
     3
100
AcDbLine
 10
229.4917075267335
 20
469.686867922243
 30
0.0
 11
204.4917083392336
 21
455.253129829248
 31
0.0
  0
LINE
  5
1AA
330
1F
100
AcDbEntity
  8
LAY-1
  6
CONTINUOUS
 62
     3
100
AcDbLine
 10
234.4917256648866
 20
466.7999843559359
 30
0.0
 11
234.4917256648866
 21
437.9325500000099
 31
0.0
  0
LINE
  5
1AB
330
1F
100
AcDbEntity
  8
LAY-1
  6
CONTINUOUS
 62
     3
100
AcDbLine
 10
194.4916772916858
 20
409.065115644084
 30
0.0
 11
194.4916772916858
 21
437.9325500000099
 31
0.0
  0
LINE
  5
1AC
330
1F
100
AcDbEntity
  8
LAY-1
  6
CONTINUOUS
 62
     3
100
AcDbLine
 10
194.4916772916858
 20
409.065115644084
 30
0.0
 11
199.4916928154596
 21
406.178313123526
 31
0.0
  0
LINE
  5
1AD
330
1F
100
AcDbEntity
  8
LAY-1
  6
CONTINUOUS
 62
     3
100
AcDbLine
 10
199.4916928154596
 20
406.178313123526
 30
0.0
 11
224.49169200296
 21
420.612009386457
 31
0.0
  0
ARC
  5
1AE
330
1F
100
AcDbEntity
  8
LAY-1
  6
CONTINUOUS
 62
     3
100
AcDbCircle
 10
214.4917420011611
 20
437.9325500000099
 30
0.0
 40
19.99999935
100
AcDbArc
 50
119.9999687721015
 51
180.0
  0
ARC
  5
1AF
330
1F
100
AcDbEntity
  8
LAY-1
  6
CONTINUOUS
 62
     3
100
AcDbCircle
 10
214.4917419988392
 20
437.9325500000098
 30
0.0
 40
19.99999935
100
AcDbArc
 50
299.9999687721015
 51
0.0
  0
CIRCLE
  5
1B0
330
1F
100
AcDbEntity
  8
LAY-1
  6
CONTINUOUS
 62
     3
100
AcDbCircle
 10
214.4917419999999
 20
437.93255
 30
0.0
 40
20.0
  0
LINE
  5
1B1
330
1F
100
AcDbEntity
  8
LAY-1
  6
EXLTYPE5
 62
     1
100
AcDbLine
 10
421.4474132448375
 20
318.4466702278934
 30
0.0
 11
214.4917419999999
 21
437.9325499999999
 31
0.0
  0
LINE
  5
1B2
330
1F
100
AcDbEntity
  8
LAY-1
  6
CONTINUOUS
 62
     3
100
AcDbLine
 10
416.1775761509767
 20
327.2627135562102
 30
0.0
 11
411.1775252382912
 21
318.6024889122692
 31
0.0
  0
LINE
  5
1B3
330
1F
100
AcDbEntity
  8
LAY-1
  6
EXLTYPE5
 62
     1
100
AcDbLine
 10
229.0958559999999
 20
470.43255
 30
0.0
 11
196.4917419999997
 21
470.43255
 31
0.0
  0
LINE
  5
1B4
330
1F
100
AcDbEntity
  8
LAY-1
  6
EXLTYPE5
 62
     1
100
AcDbLine
 10
228.6958559999999
 20
405.43255
 30
0.0
 11
196.0917419999998
 21
405.43255
 31
0.0
  0
LINE
  5
1B5
330
1F
100
AcDbEntity
  8
LAY-1
  6
CONTINUOUS
 62
     3
100
AcDbLine
 10
167.991773
 20
407.9269349999998
 30
0.0
 11
167.991773
 21
422.9380429999998
 31
0.0
  0
LINE
  5
1B6
330
1F
100
AcDbEntity
  8
LAY-1
  6
CONTINUOUS
 62
     3
100
AcDbLine
 10
162.2166869999999
 20
407.9269349999998
 30
0.0
 11
167.991773
 21
407.9269349999998
 31
0.0
  0
LINE
  5
1B7
330
1F
100
AcDbEntity
  8
LAY-1
  6
CONTINUOUS
 62
     3
100
AcDbLine
 10
162.2166869999999
 20
411.6798039999998
 30
0.0
 11
167.9917419999999
 21
411.6798039999998
 31
0.0
  0
LINE
  5
1B8
330
1F
100
AcDbEntity
  8
LAY-1
  6
CONTINUOUS
 62
     3
100
AcDbLine
 10
162.2166869999999
 20
419.1852969999999
 30
0.0
 11
167.9917419999999
 21
419.1852969999999
 31
0.0
  0
LINE
  5
1B9
330
1F
100
AcDbEntity
  8
LAY-1
  6
CONTINUOUS
 62
     3
100
AcDbLine
 10
161.491773
 20
421.6825499999999
 30
0.0
 11
161.491773
 21
409.1825499999999
 31
0.0
  0
LINE
  5
1BA
330
1F
100
AcDbEntity
  8
LAY-1
  6
CONTINUOUS
 62
     3
100
AcDbLine
 10
161.491773
 20
409.1825499999999
 30
0.0
 11
162.2166869999999
 21
407.9269349999998
 31
0.0
  0
ARC
  5
1BB
330
1F
100
AcDbEntity
  8
LAY-1
  6
CONTINUOUS
 62
     3
100
AcDbCircle
 10
171.5711789999998
 20
415.4316349999998
 30
0.0
 40
10.07909
100
AcDbArc
 50
158.1362544646419
 51
201.8544239233915
  0
ARC
  5
1BC
330
1F
100
AcDbEntity
  8
LAY-1
  6
CONTINUOUS
 62
     3
100
AcDbCircle
 10
166.3006109999999
 20
409.1410459999998
 30
0.0
 40
4.809198
100
AcDbArc
 50
148.132812432114
 51
179.505517574959
  0
LINE
  5
1BD
330
1F
100
AcDbEntity
  8
LAY-1
  6
CONTINUOUS
 62
     3
100
AcDbLine
 10
162.2166869999999
 20
422.9381659999998
 30
0.0
 11
167.991773
 21
422.9381659999998
 31
0.0
  0
LINE
  5
1BE
330
1F
100
AcDbEntity
  8
LAY-1
  6
CONTINUOUS
 62
     3
100
AcDbLine
 10
161.491773
 20
421.6825499999999
 30
0.0
 11
162.2167179999999
 21
422.9381659999998
 31
0.0
  0
ARC
  5
1BF
330
1F
100
AcDbEntity
  8
LAY-1
  6
CONTINUOUS
 62
     3
100
AcDbCircle
 10
166.3006109999999
 20
421.7240539999997
 30
0.0
 40
4.809198
100
AcDbArc
 50
180.4944427293551
 51
211.8671478722003
  0
LINE
  5
1C0
330
1F
100
AcDbEntity
  8
LAY-1
  6
CONTINUOUS
 62
     3
100
AcDbLine
 10
158.6918459999999
 20
411.4324889999997
 30
0.0
 11
158.6918459999999
 21
419.4324889999997
 31
0.0
  0
ARC
  5
1C1
330
1F
100
AcDbEntity
  8
LAY-1
  6
CONTINUOUS
 62
     3
100
AcDbCircle
 10
164.7596559999999
 20
415.4327329999998
 30
0.0
 40
7.267864
100
AcDbArc
 50
146.6080571477122
 51
213.3949971286956
  0
LINE
  5
1C2
330
1F
100
AcDbEntity
  8
LAY-1
  6
CONTINUOUS
 62
     1
100
AcDbLine
 10
161.491773
 20
418.7564639999997
 30
0.0
 11
158.2963379999999
 21
418.7564639999997
 31
0.0
  0
LINE
  5
1C3
330
1F
100
AcDbEntity
  8
LAY-1
  6
CONTINUOUS
 62
     3
100
AcDbLine
 10
161.491773
 20
419.4324279999997
 30
0.0
 11
158.6918459999999
 21
419.4324889999997
 31
0.0
  0
LINE
  5
1C4
330
1F
100
AcDbEntity
  8
LAY-1
  6
CONTINUOUS
 62
     3
100
AcDbLine
 10
161.491773
 20
411.4325499999999
 30
0.0
 11
158.6918459999999
 21
411.4324889999997
 31
0.0
  0
LINE
  5
1C5
330
1F
100
AcDbEntity
  8
LAY-1
  6
CONTINUOUS
 62
     1
100
AcDbLine
 10
161.491773
 20
412.1085149999998
 30
0.0
 11
158.2963379999999
 21
412.1085149999998
 31
0.0
  0
LINE
  5
1C6
330
1F
100
AcDbEntity
  8
LAY-1
  6
CONTINUOUS
 62
     3
100
AcDbLine
 10
158.3555119999999
 20
431.4324889999997
 30
0.0
 11
162.9918029999999
 21
431.4324889999997
 31
0.0
  0
ARC
  5
1C7
330
1F
100
AcDbEntity
  8
LAY-1
  6
CONTINUOUS
 62
     3
100
AcDbCircle
 10
162.9918029999999
 20
426.4324889999997
 30
0.0
 40
5.0
100
AcDbArc
 50
0.0000176000937731
 51
89.9999988761255
  0
ARC
  5
1C8
330
1F
100
AcDbEntity
  8
LAY-1
  6
CONTINUOUS
 62
     3
100
AcDbCircle
 10
169.9918029999999
 20
409.4324889999997
 30
0.0
 40
2.0
100
AcDbArc
 50
179.9999801521566
 51
270.000018723968
  0
ARC
  5
1C9
330
1F
100
AcDbEntity
  8
LAY-1
  6
CONTINUOUS
 62
     3
100
AcDbCircle
 10
162.9918029999999
 20
426.4324889999997
 30
0.0
 40
5.0
100
AcDbArc
 50
0.0000198478427841
 51
90.00000112387455
  0
ARC
  5
1CA
330
1F
100
AcDbEntity
  8
LAY-1
  6
CONTINUOUS
 62
     3
100
AcDbCircle
 10
162.9918029999999
 20
426.4324889999997
 30
0.0
 40
5.0
100
AcDbArc
 50
0.0000198478427841
 51
90.00000112387455
  0
ARC
  5
1CB
330
1F
100
AcDbEntity
  8
LAY-1
  6
CONTINUOUS
 62
     3
100
AcDbCircle
 10
162.9918029999999
 20
426.4324889999997
 30
0.0
 40
5.0
100
AcDbArc
 50
0.0000198478427841
 51
90.00000112387455
  0
LINE
  5
1CC
330
1F
100
AcDbEntity
  8
LAY-1
  6
CONTINUOUS
 62
     3
100
AcDbLine
 10
266.766797
 20
419.1852969999999
 30
0.0
 11
260.9917419999999
 21
419.1852969999999
 31
0.0
  0
LINE
  5
1CD
330
1F
100
AcDbEntity
  8
LAY-1
  6
CONTINUOUS
 62
     3
100
AcDbLine
 10
266.766797
 20
422.9381659999998
 30
0.0
 11
260.991712
 21
422.9381659999998
 31
0.0
  0
LINE
  5
1CE
330
1F
100
AcDbEntity
  8
LAY-1
  6
CONTINUOUS
 62
     3
100
AcDbLine
 10
267.491712
 20
421.6825499999999
 30
0.0
 11
266.7667669999998
 21
422.9381659999998
 31
0.0
  0
ARC
  5
1CF
330
1F
100
AcDbEntity
  8
LAY-1
  6
CONTINUOUS
 62
     3
100
AcDbCircle
 10
262.6828739999999
 20
421.7240539999997
 30
0.0
 40
4.809198
100
AcDbArc
 50
328.1328322799569
 51
359.505537422802
  0
LINE
  5
1D0
330
1F
100
AcDbEntity
  8
LAY-1
  6
CONTINUOUS
 62
     3
100
AcDbLine
 10
270.2916379999999
 20
411.4324889999997
 30
0.0
 11
270.2916379999999
 21
419.4324889999997
 31
0.0
  0
ARC
  5
1D1
330
1F
100
AcDbEntity
  8
LAY-1
  6
CONTINUOUS
 62
     3
100
AcDbCircle
 10
264.2238279999999
 20
415.4327329999998
 30
0.0
 40
7.267864
100
AcDbArc
 50
326.6050006235557
 51
33.3919406045387
  0
LINE
  5
1D2
330
1F
100
AcDbEntity
  8
LAY-1
  6
CONTINUOUS
 62
     1
100
AcDbLine
 10
267.491712
 20
418.7564639999997
 30
0.0
 11
270.687146
 21
418.7564639999997
 31
0.0
  0
LINE
  5
1D3
330
1F
100
AcDbEntity
  8
LAY-1
  6
CONTINUOUS
 62
     3
100
AcDbLine
 10
267.491712
 20
419.4324279999997
 30
0.0
 11
270.2916379999999
 21
419.4324889999997
 31
0.0
  0
LINE
  5
1D4
330
1F
100
AcDbEntity
  8
LAY-1
  6
CONTINUOUS
 62
     3
100
AcDbLine
 10
270.6279729999999
 20
431.4324889999997
 30
0.0
 11
265.991681
 21
431.4324889999997
 31
0.0
  0
ARC
  5
1D5
330
1F
100
AcDbEntity
  8
LAY-1
  6
CONTINUOUS
 62
     3
100
AcDbCircle
 10
265.991681
 20
426.4324889999997
 30
0.0
 40
5.0
100
AcDbArc
 50
89.9999988761255
 51
179.9999801521572
  0
LINE
  5
1D6
330
1F
100
AcDbEntity
  8
LAY-1
  6
CONTINUOUS
 62
     3
100
AcDbLine
 10
227.0102330810594
 20
407.4324889999997
 30
0.0
 11
257.3194097027999
 21
407.4324889999997
 31
0.0
  0
LINE
  5
1D7
330
1F
100
AcDbEntity
  8
LAY-1
  6
CONTINUOUS
 62
     3
100
AcDbLine
 10
249.4916809999997
 20
407.4324889999997
 30
0.0
 11
249.4916809999997
 21
411.9518290356988
 31
0.0
  0
LINE
  5
1D8
330
1F
100
AcDbEntity
  8
LAY-1
  6
CONTINUOUS
 62
     3
100
AcDbLine
 10
249.4916809999997
 20
423.498833628708
 30
0.0
 11
249.4916809999997
 21
447.9325499999999
 31
0.0
  0
LINE
  5
1D9
330
1F
100
AcDbEntity
  8
LAY-1
  6
CONTINUOUS
 62
     3
100
AcDbLine
 10
250.9916809999997
 20
447.9325499999999
 30
0.0
 11
250.9916809999997
 21
422.6328084621586
 31
0.0
  0
LINE
  5
1DA
330
1F
100
AcDbEntity
  8
LAY-1
  6
CONTINUOUS
 62
     3
100
AcDbLine
 10
250.9916809999997
 20
411.0858038691495
 30
0.0
 11
250.9916809999997
 21
407.4324889999997
 31
0.0
  0
LINE
  5
1DB
330
1F
100
AcDbEntity
  8
LAY-1
  6
CONTINUOUS
 62
     3
100
AcDbLine
 10
260.991712
 20
416.8592894539755
 30
0.0
 11
260.991712
 21
422.9380429999998
 31
0.0
  0
ARC
  5
1DC
330
1F
100
AcDbEntity
  8
LAY-1
  6
CONTINUOUS
 62
     3
100
AcDbCircle
 10
257.4123049999998
 20
415.4316349999998
 30
0.0
 40
10.07909
100
AcDbArc
 50
338.1455165330804
 51
338.147952577457
  0
ARC
  5
1DD
330
1F
100
AcDbEntity
  8
LAY-1
  6
CONTINUOUS
 62
     3
100
AcDbCircle
 10
257.4123049999998
 20
415.4316349999998
 30
0.0
 40
10.07909
100
AcDbArc
 50
347.4716813384641
 51
21.86374328760908
  0
ARC
  5
1DE
330
1F
100
AcDbEntity
  8
LAY-1
  6
CONTINUOUS
 62
     3
100
AcDbCircle
 10
262.6828739999999
 20
409.1410459999998
 30
0.0
 40
4.809198
100
AcDbArc
 50
0.49448017729196
 51
0.7010601168091093
  0
LINE
  5
1DF
330
1F
100
AcDbEntity
  8
LAY-1
  6
CONTINUOUS
 62
     3
100
AcDbLine
 10
267.491712
 20
409.1998889516562
 30
0.0
 11
267.491712
 21
409.1825499999999
 31
0.0
  0
LINE
  5
1E0
330
1F
100
AcDbEntity
  8
LAY-1
  6
CONTINUOUS
 62
     1
100
AcDbLine
 10
269.2202969836867
 20
412.1085149999998
 30
0.0
 11
270.687146
 21
412.1085149999998
 31
0.0
  0
LINE
  5
1E1
330
1F
100
AcDbEntity
  8
LAY-1
  6
CONTINUOUS
 62
     3
100
AcDbLine
 10
267.491712
 20
421.6825499999999
 30
0.0
 11
267.491712
 21
413.1065137322613
 31
0.0
  0
ARC
  5
1E2
330
1F
100
AcDbEntity
  8
LAY-1
  6
CONTINUOUS
 62
     3
100
AcDbCircle
 10
304.491681
 20
447.9325499999999
 30
0.0
 40
37.500011
100
AcDbArc
 50
179.4772122877377
 51
254.5339794725697
  0
LINE
  5
1E3
330
1F
100
AcDbEntity
  8
LAY-1
  6
CONTINUOUS
 62
     3
100
AcDbLine
 10
260.991681
 20
447.9325499999999
 30
0.0
 11
260.991681
 21
486.4326110000001
 31
0.0
  0
LINE
  5
1E4
330
1F
100
AcDbEntity
  8
LAY-1
  6
CONTINUOUS
 62
     3
100
AcDbLine
 10
260.991681
 20
447.93255
 30
0.0
 11
260.991681
 21
416.859307351829
 31
0.0
  0
LINE
  5
1E5
330
1F
100
AcDbEntity
  8
LAY-1
  6
CONTINUOUS
 62
     3
100
AcDbLine
 10
250.9916809999997
 20
447.9325499999999
 30
0.0
 11
250.9916809999997
 21
488.4326110000001
 31
0.0
  0
LINE
  5
1E6
330
1F
100
AcDbEntity
  8
LAY-1
  6
CONTINUOUS
 62
     3
100
AcDbLine
 10
249.4916809999997
 20
488.4326110000001
 30
0.0
 11
249.4916809999997
 21
447.93255
 31
0.0
  0
LINE
  5
1E7
330
1F
100
AcDbEntity
  8
LAY-1
  6
EXLTYPE5
 62
     1
100
AcDbLine
 10
373.340314
 20
447.9325499999999
 30
0.0
 11
214.4917419999999
 21
447.9325499999999
 31
0.0
  0
LINE
  5
1E8
330
1F
100
AcDbEntity
  8
LAY-1
  6
EXLTYPE5
 62
     1
100
AcDbLine
 10
65.79585599999996
 20
447.9325499999999
 30
0.0
 11
214.4917419999999
 21
447.9325499999999
 31
0.0
  0
LINE
  5
1E9
330
1F
100
AcDbEntity
  8
LAY-1
  6
CONTINUOUS
 62
     3
100
AcDbLine
 10
179.4918029999999
 20
488.4326110000001
 30
0.0
 11
179.4918029999999
 21
447.9325499999999
 31
0.0
  0
LINE
  5
1EA
330
1F
100
AcDbEntity
  8
LAY-1
  6
CONTINUOUS
 62
     3
100
AcDbLine
 10
179.4918029999999
 20
407.4324889999997
 30
0.0
 11
179.4918029999999
 21
447.9325499999999
 31
0.0
  0
LINE
  5
1EB
330
1F
100
AcDbEntity
  8
LAY-1
  6
CONTINUOUS
 62
     3
100
AcDbLine
 10
177.9918029999999
 20
447.9325499999999
 30
0.0
 11
177.9918029999999
 21
488.4326110000001
 31
0.0
  0
LINE
  5
1EC
330
1F
100
AcDbEntity
  8
LAY-1
  6
CONTINUOUS
 62
     3
100
AcDbLine
 10
177.9918029999999
 20
447.93255
 30
0.0
 11
177.9918029999999
 21
407.4324889999997
 31
0.0
  0
LINE
  5
1ED
330
1F
100
AcDbEntity
  8
LAY-1
  6
CONTINUOUS
 62
     3
100
AcDbLine
 10
214.491803
 20
104.3929489999999
 30
0.0
 11
206.031293
 21
104.3929489999999
 31
0.0
  0
LINE
  5
1EE
330
1F
100
AcDbEntity
  8
LAY-1
  6
CONTINUOUS
 62
     3
100
AcDbLine
 10
206.986798
 20
104.3929489999999
 30
0.0
 11
206.986798
 21
96.88794399999995
 31
0.0
  0
LINE
  5
1EF
330
1F
100
AcDbEntity
  8
LAY-1
  6
CONTINUOUS
 62
     3
100
AcDbLine
 10
206.986798
 20
96.88789799999995
 30
0.0
 11
214.491803
 21
96.88789799999995
 31
0.0
  0
LINE
  5
1F0
330
1F
100
AcDbEntity
  8
LAY-1
  6
CONTINUOUS
 62
     1
100
AcDbLine
 10
206.986798
 20
96.88789799999995
 30
0.0
 11
214.491803
 21
104.3929489999999
 31
0.0
  0
LINE
  5
1F1
330
1F
100
AcDbEntity
  8
LAY-1
  6
CONTINUOUS
 62
     1
100
AcDbLine
 10
206.986798
 20
104.3929489999999
 30
0.0
 11
214.491803
 21
96.88794399999995
 31
0.0
  0
LINE
  5
1F2
330
1F
100
AcDbEntity
  8
LAY-1
  6
CONTINUOUS
 62
     3
100
AcDbLine
 10
214.491803
 20
104.3929489999999
 30
0.0
 11
222.952314
 21
104.3929489999999
 31
0.0
  0
LINE
  5
1F3
330
1F
100
AcDbEntity
  8
LAY-1
  6
CONTINUOUS
 62
     3
100
AcDbLine
 10
221.996808
 20
104.3929489999999
 30
0.0
 11
221.996808
 21
96.88794399999995
 31
0.0
  0
LINE
  5
1F4
330
1F
100
AcDbEntity
  8
LAY-1
  6
CONTINUOUS
 62
     3
100
AcDbLine
 10
221.996808
 20
96.88789799999995
 30
0.0
 11
214.491803
 21
96.88789799999995
 31
0.0
  0
LINE
  5
1F5
330
1F
100
AcDbEntity
  8
LAY-1
  6
CONTINUOUS
 62
     1
100
AcDbLine
 10
221.996808
 20
96.88789799999995
 30
0.0
 11
214.491803
 21
104.3929489999999
 31
0.0
  0
LINE
  5
1F6
330
1F
100
AcDbEntity
  8
LAY-1
  6
CONTINUOUS
 62
     1
100
AcDbLine
 10
221.996808
 20
104.3929489999999
 30
0.0
 11
214.491803
 21
96.88794399999995
 31
0.0
  0
LINE
  5
1F7
330
1F
100
AcDbEntity
  8
LAY-1
  6
CONTINUOUS
 62
     3
100
AcDbLine
 10
198.491803
 20
109.840054
 30
0.0
 11
198.491803
 21
118.1343649999999
 31
0.0
  0
LINE
  5
1F8
330
1F
100
AcDbEntity
  8
LAY-1
  6
CONTINUOUS
 62
     3
100
AcDbLine
 10
214.491681
 20
104.3929489999999
 30
0.0
 11
222.952191
 21
104.3929489999999
 31
0.0
  0
LINE
  5
1F9
330
1F
100
AcDbEntity
  8
LAY-1
  6
CONTINUOUS
 62
     3
100
AcDbLine
 10
221.996686
 20
104.3929489999999
 30
0.0
 11
221.996686
 21
96.88794399999995
 31
0.0
  0
LINE
  5
1FA
330
1F
100
AcDbEntity
  8
LAY-1
  6
CONTINUOUS
 62
     3
100
AcDbLine
 10
221.996686
 20
96.88789799999995
 30
0.0
 11
214.491681
 21
96.88789799999995
 31
0.0
  0
LINE
  5
1FB
330
1F
100
AcDbEntity
  8
LAY-1
  6
CONTINUOUS
 62
     1
100
AcDbLine
 10
221.996686
 20
96.88789799999995
 30
0.0
 11
214.491681
 21
104.3929489999999
 31
0.0
  0
LINE
  5
1FC
330
1F
100
AcDbEntity
  8
LAY-1
  6
CONTINUOUS
 62
     1
100
AcDbLine
 10
221.996686
 20
104.3929489999999
 30
0.0
 11
214.491681
 21
96.88794399999995
 31
0.0
  0
LINE
  5
1FD
330
1F
100
AcDbEntity
  8
LAY-1
  6
CONTINUOUS
 62
     3
100
AcDbLine
 10
214.491681
 20
104.3929489999999
 30
0.0
 11
206.031171
 21
104.3929489999999
 31
0.0
  0
LINE
  5
1FE
330
1F
100
AcDbEntity
  8
LAY-1
  6
CONTINUOUS
 62
     3
100
AcDbLine
 10
206.986676
 20
104.3929489999999
 30
0.0
 11
206.986676
 21
96.88794399999995
 31
0.0
  0
LINE
  5
1FF
330
1F
100
AcDbEntity
  8
LAY-1
  6
CONTINUOUS
 62
     3
100
AcDbLine
 10
206.986676
 20
96.88789799999995
 30
0.0
 11
214.491681
 21
96.88789799999995
 31
0.0
  0
LINE
  5
200
330
1F
100
AcDbEntity
  8
LAY-1
  6
CONTINUOUS
 62
     1
100
AcDbLine
 10
206.986676
 20
96.88789799999995
 30
0.0
 11
214.491681
 21
104.3929489999999
 31
0.0
  0
LINE
  5
201
330
1F
100
AcDbEntity
  8
LAY-1
  6
CONTINUOUS
 62
     1
100
AcDbLine
 10
206.986676
 20
104.3929489999999
 30
0.0
 11
214.491681
 21
96.88794399999995
 31
0.0
  0
ARC
  5
202
330
1F
100
AcDbEntity
  8
LAY-1
  6
CONTINUOUS
 62
     3
100
AcDbCircle
 10
193.491803
 20
118.1343649999999
 30
0.0
 40
5.0
100
AcDbArc
 50
0.0
 51
36.21677682177837
  0
LINE
  5
203
330
1F
100
AcDbEntity
  8
LAY-1
  6
CONTINUOUS
 62
     3
100
AcDbLine
 10
199.198896
 20
109.1329459999999
 30
0.0
 11
198.491803
 21
109.840054
 31
0.0
  0
ARC
  5
204
330
1F
100
AcDbEntity
  8
LAY-1
  6
CONTINUOUS
 62
     3
100
AcDbCircle
 10
211.2386290000001
 20
131.1317409999999
 30
0.0
 40
16.997299
100
AcDbArc
 50
179.996009143277
 51
216.2186301345658
  0
ARC
  5
205
330
1F
100
AcDbEntity
  8
LAY-1
  6
CONTINUOUS
 62
     3
100
AcDbCircle
 10
189.2408879999999
 20
133.132931
 30
0.0
 40
5.0
100
AcDbArc
 50
0.0
 51
89.99998127603166
  0
LINE
  5
206
330
1F
100
AcDbEntity
  8
LAY-1
  6
CONTINUOUS
 62
     1
100
AcDbLine
 10
179.491803
 20
139.6329619999999
 30
0.0
 11
177.991773
 21
138.132931
 31
0.0
  0
LINE
  5
207
330
1F
100
AcDbEntity
  8
LAY-1
  6
CONTINUOUS
 62
     1
100
AcDbLine
 10
179.491834
 20
141.1329919999999
 30
0.0
 11
177.991803
 21
139.6329619999999
 31
0.0
  0
LINE
  5
208
330
1F
100
AcDbEntity
  8
LAY-1
  6
CONTINUOUS
 62
     1
100
AcDbLine
 10
179.491864
 20
142.633023
 30
0.0
 11
177.991834
 21
141.1329919999999
 31
0.0
  0
LINE
  5
209
330
1F
100
AcDbEntity
  8
LAY-1
  6
CONTINUOUS
 62
     1
100
AcDbLine
 10
179.491895
 20
144.133053
 30
0.0
 11
177.991864
 21
142.633023
 31
0.0
  0
LINE
  5
20A
330
1F
100
AcDbEntity
  8
LAY-1
  6
CONTINUOUS
 62
     1
100
AcDbLine
 10
179.4919249999999
 20
145.6330839999999
 30
0.0
 11
177.991895
 21
144.133053
 31
0.0
  0
LINE
  5
20B
330
1F
100
AcDbEntity
  8
LAY-1
  6
CONTINUOUS
 62
     3
100
AcDbLine
 10
179.491773
 20
138.132931
 30
0.0
 11
168.813733
 21
138.132931
 31
0.0
  0
LINE
  5
20C
330
1F
100
AcDbEntity
  8
LAY-1
  6
CONTINUOUS
 62
     1
100
AcDbLine
 10
249.491681
 20
139.6329619999999
 30
0.0
 11
250.991712
 21
138.132931
 31
0.0
  0
LINE
  5
20D
330
1F
100
AcDbEntity
  8
LAY-1
  6
CONTINUOUS
 62
     1
100
AcDbLine
 10
249.4916509999999
 20
141.1329919999999
 30
0.0
 11
250.991681
 21
139.6329619999999
 31
0.0
  0
LINE
  5
20E
330
1F
100
AcDbEntity
  8
LAY-1
  6
CONTINUOUS
 62
     1
100
AcDbLine
 10
249.4916199999999
 20
142.633023
 30
0.0
 11
250.9916509999999
 21
141.1329919999999
 31
0.0
  0
LINE
  5
20F
330
1F
100
AcDbEntity
  8
LAY-1
  6
CONTINUOUS
 62
     1
100
AcDbLine
 10
249.49159
 20
144.133053
 30
0.0
 11
250.9916199999999
 21
142.633023
 31
0.0
  0
LINE
  5
210
330
1F
100
AcDbEntity
  8
LAY-1
  6
CONTINUOUS
 62
     1
100
AcDbLine
 10
249.4915589999999
 20
145.6330839999999
 30
0.0
 11
250.99159
 21
144.133053
 31
0.0
  0
LINE
  5
211
330
1F
100
AcDbEntity
  8
LAY-1
  6
CONTINUOUS
 62
     3
100
AcDbLine
 10
349.231671
 20
93.13291600000002
 30
0.0
 11
349.231671
 21
101.5934259999999
 31
0.0
  0
LINE
  5
212
330
1F
100
AcDbEntity
  8
LAY-1
  6
CONTINUOUS
 62
     3
100
AcDbLine
 10
349.231671
 20
100.637921
 30
0.0
 11
356.736676
 21
100.637921
 31
0.0
  0
LINE
  5
213
330
1F
100
AcDbEntity
  8
LAY-1
  6
CONTINUOUS
 62
     3
100
AcDbLine
 10
356.7367369999999
 20
100.637921
 30
0.0
 11
356.7367369999999
 21
93.13291600000002
 31
0.0
  0
LINE
  5
214
330
1F
100
AcDbEntity
  8
LAY-1
  6
CONTINUOUS
 62
     1
100
AcDbLine
 10
356.7367369999999
 20
100.637921
 30
0.0
 11
349.231671
 21
93.13291600000002
 31
0.0
  0
LINE
  5
215
330
1F
100
AcDbEntity
  8
LAY-1
  6
CONTINUOUS
 62
     1
100
AcDbLine
 10
349.231671
 20
100.637921
 30
0.0
 11
356.736676
 21
93.13291600000002
 31
0.0
  0
LINE
  5
216
330
1F
100
AcDbEntity
  8
LAY-1
  6
CONTINUOUS
 62
     3
100
AcDbLine
 10
349.231671
 20
93.13291600000002
 30
0.0
 11
349.231671
 21
84.67240599999991
 31
0.0
  0
LINE
  5
217
330
1F
100
AcDbEntity
  8
LAY-1
  6
CONTINUOUS
 62
     3
100
AcDbLine
 10
349.231671
 20
85.62791099999993
 30
0.0
 11
356.736676
 21
85.62791099999993
 31
0.0
  0
LINE
  5
218
330
1F
100
AcDbEntity
  8
LAY-1
  6
CONTINUOUS
 62
     3
100
AcDbLine
 10
356.7367369999999
 20
85.62791099999993
 30
0.0
 11
356.7367369999999
 21
93.13291600000002
 31
0.0
  0
LINE
  5
219
330
1F
100
AcDbEntity
  8
LAY-1
  6
CONTINUOUS
 62
     1
100
AcDbLine
 10
356.7367369999999
 20
85.62791099999993
 30
0.0
 11
349.231671
 21
93.13291600000002
 31
0.0
  0
LINE
  5
21A
330
1F
100
AcDbEntity
  8
LAY-1
  6
CONTINUOUS
 62
     1
100
AcDbLine
 10
349.231671
 20
85.62791099999993
 30
0.0
 11
356.736676
 21
93.13291600000002
 31
0.0
  0
LINE
  5
21B
330
1F
100
AcDbEntity
  8
LAY-1
  6
CONTINUOUS
 62
     3
100
AcDbLine
 10
344.491681
 20
93.13293099999999
 30
0.0
 11
344.491681
 21
108.4258239999999
 31
0.0
  0
LINE
  5
21C
330
1F
100
AcDbEntity
  8
LAY-1
  6
CONTINUOUS
 62
     3
100
AcDbLine
 10
330.665876
 20
109.1329159999999
 30
0.0
 11
343.784589
 21
109.1329159999999
 31
0.0
  0
LINE
  5
21D
330
1F
100
AcDbEntity
  8
LAY-1
  6
CONTINUOUS
 62
     3
100
AcDbLine
 10
349.231671
 20
93.13303799999994
 30
0.0
 11
349.231671
 21
84.67252799999994
 31
0.0
  0
LINE
  5
21E
330
1F
100
AcDbEntity
  8
LAY-1
  6
CONTINUOUS
 62
     3
100
AcDbLine
 10
349.231671
 20
85.62803299999996
 30
0.0
 11
356.736676
 21
85.62803299999996
 31
0.0
  0
LINE
  5
21F
330
1F
100
AcDbEntity
  8
LAY-1
  6
CONTINUOUS
 62
     3
100
AcDbLine
 10
356.7367369999999
 20
85.62803299999996
 30
0.0
 11
356.7367369999999
 21
93.13303799999994
 31
0.0
  0
LINE
  5
220
330
1F
100
AcDbEntity
  8
LAY-1
  6
CONTINUOUS
 62
     1
100
AcDbLine
 10
356.7367369999999
 20
85.62803299999996
 30
0.0
 11
349.231671
 21
93.13303799999994
 31
0.0
  0
LINE
  5
221
330
1F
100
AcDbEntity
  8
LAY-1
  6
CONTINUOUS
 62
     1
100
AcDbLine
 10
349.231671
 20
85.62803299999996
 30
0.0
 11
356.736676
 21
93.13303799999994
 31
0.0
  0
LINE
  5
222
330
1F
100
AcDbEntity
  8
LAY-1
  6
CONTINUOUS
 62
     3
100
AcDbLine
 10
349.231671
 20
93.13303799999994
 30
0.0
 11
349.231671
 21
101.5935479999999
 31
0.0
  0
LINE
  5
223
330
1F
100
AcDbEntity
  8
LAY-1
  6
CONTINUOUS
 62
     3
100
AcDbLine
 10
344.4917419999999
 20
101.428036
 30
0.0
 11
349.231671
 21
101.5935479999999
 31
0.0
  0
LINE
  5
224
330
1F
100
AcDbEntity
  8
LAY-1
  6
CONTINUOUS
 62
     1
100
AcDbLine
 10
344.519269
 20
100.6390039999999
 30
0.0
 11
349.231671
 21
100.8035699999999
 31
0.0
  0
LINE
  5
225
330
1F
100
AcDbEntity
  8
LAY-1
  6
CONTINUOUS
 62
     3
100
AcDbLine
 10
349.231671
 20
100.6380429999999
 30
0.0
 11
356.736676
 21
100.6380429999999
 31
0.0
  0
LINE
  5
226
330
1F
100
AcDbEntity
  8
LAY-1
  6
CONTINUOUS
 62
     3
100
AcDbLine
 10
356.7367369999999
 20
100.6380429999999
 30
0.0
 11
356.7367369999999
 21
93.13303799999994
 31
0.0
  0
LINE
  5
227
330
1F
100
AcDbEntity
  8
LAY-1
  6
CONTINUOUS
 62
     1
100
AcDbLine
 10
356.7367369999999
 20
100.6380429999999
 30
0.0
 11
349.231671
 21
93.13303799999994
 31
0.0
  0
LINE
  5
228
330
1F
100
AcDbEntity
  8
LAY-1
  6
CONTINUOUS
 62
     1
100
AcDbLine
 10
349.231671
 20
100.6380429999999
 30
0.0
 11
356.736676
 21
93.13303799999994
 31
0.0
  0
LINE
  5
229
330
1F
100
AcDbEntity
  8
LAY-1
  6
CONTINUOUS
 62
     3
100
AcDbLine
 10
344.491681
 20
93.13293899999996
 30
0.0
 11
344.491681
 21
77.84012999999993
 31
0.0
  0
LINE
  5
22A
330
1F
100
AcDbEntity
  8
LAY-1
  6
CONTINUOUS
 62
     3
100
AcDbLine
 10
344.491681
 20
108.4258239999999
 30
0.0
 11
343.784589
 21
109.1329159999999
 31
0.0
  0
LINE
  5
22B
330
1F
100
AcDbEntity
  8
LAY-1
  6
CONTINUOUS
 62
     3
100
AcDbLine
 10
344.491681
 20
77.84012999999993
 30
0.0
 11
343.784589
 21
77.13303799999994
 31
0.0
  0
LINE
  5
22C
330
1F
100
AcDbEntity
  8
LAY-1
  6
CONTINUOUS
 62
     3
100
AcDbLine
 10
337.491681
 20
198.1329459999999
 30
0.0
 11
337.491681
 21
114.1329159999999
 31
0.0
  0
LINE
  5
22D
330
1F
100
AcDbEntity
  8
LAY-1
  6
CONTINUOUS
 62
     3
100
AcDbLine
 10
343.784589
 20
77.13293099999999
 30
0.0
 11
304.491712
 21
77.13293099999999
 31
0.0
  0
ARC
  5
22E
330
1F
100
AcDbEntity
  8
LAY-1
  6
CONTINUOUS
 62
     3
100
AcDbCircle
 10
342.491681
 20
114.1329159999999
 30
0.0
 40
5.0
100
AcDbArc
 50
180.0000198478429
 51
270.0000011238745
  0
LINE
  5
22F
330
1F
100
AcDbEntity
  8
LAY-1
  6
CONTINUOUS
 62
     3
100
AcDbLine
 10
341.991681
 20
218.1329459999999
 30
0.0
 11
341.991681
 21
200.1329459999999
 31
0.0
  0
LINE
  5
230
330
1F
100
AcDbEntity
  8
LAY-1
  6
CONTINUOUS
 62
     3
100
AcDbLine
 10
315.491773
 20
199.1329459999999
 30
0.0
 11
340.991681
 21
199.1329459999999
 31
0.0
  0
LINE
  5
231
330
1F
100
AcDbEntity
  8
LAY-1
  6
CONTINUOUS
 62
     3
100
AcDbLine
 10
314.491681
 20
219.1329459999999
 30
0.0
 11
340.991681
 21
219.1329459999999
 31
0.0
  0
ARC
  5
232
330
1F
100
AcDbEntity
  8
LAY-1
  6
CONTINUOUS
 62
     3
100
AcDbCircle
 10
340.991681
 20
200.1329459999999
 30
0.0
 40
1.0
100
AcDbArc
 50
270.0000011238745
 51
359.9999823999061
  0
ARC
  5
233
330
1F
100
AcDbEntity
  8
LAY-1
  6
CONTINUOUS
 62
     3
100
AcDbCircle
 10
338.491681
 20
198.1329459999999
 30
0.0
 40
1.0
100
AcDbArc
 50
89.99998127603166
 51
180.0000198478429
  0
ARC
  5
234
330
1F
100
AcDbEntity
  8
LAY-1
  6
CONTINUOUS
 62
     3
100
AcDbCircle
 10
340.991681
 20
218.1329459999999
 30
0.0
 40
1.0
100
AcDbArc
 50
359.9999823999061
 51
90.00002097171735
  0
LINE
  5
235
330
1F
100
AcDbEntity
  8
LAY-1
  6
CONTINUOUS
 62
     3
100
AcDbLine
 10
271.491712
 20
126.810986
 30
0.0
 11
271.491712
 21
90.13293099999999
 31
0.0
  0
LINE
  5
236
330
1F
100
AcDbEntity
  8
LAY-1
  6
CONTINUOUS
 62
     3
100
AcDbLine
 10
284.491712
 20
77.13293099999999
 30
0.0
 11
304.491712
 21
77.13293099999999
 31
0.0
  0
LINE
  5
237
330
1F
100
AcDbEntity
  8
LAY-1
  6
CONTINUOUS
 62
     3
100
AcDbLine
 10
266.991712
 20
200.1329459999999
 30
0.0
 11
266.991712
 21
218.1329459999999
 31
0.0
  0
LINE
  5
238
330
1F
100
AcDbEntity
  8
LAY-1
  6
CONTINUOUS
 62
     3
100
AcDbLine
 10
294.491712
 20
219.1329459999999
 30
0.0
 11
267.991712
 21
219.1329459999999
 31
0.0
  0
ARC
  5
239
330
1F
100
AcDbEntity
  8
LAY-1
  6
CONTINUOUS
 62
     3
100
AcDbCircle
 10
267.991712
 20
218.1329459999999
 30
0.0
 40
1.0
100
AcDbArc
 50
89.99998127603166
 51
180.0000198478429
  0
ARC
  5
23A
330
1F
100
AcDbEntity
  8
LAY-1
  6
CONTINUOUS
 62
     3
100
AcDbCircle
 10
284.491712
 20
90.13293099999999
 30
0.0
 40
13.00000000000001
100
AcDbArc
 50
180.0000198478429
 51
270.0000011238745
  0
LINE
  5
23B
330
1F
100
AcDbEntity
  8
LAY-1
  6
CONTINUOUS
 62
     3
100
AcDbLine
 10
270.027234
 20
130.346508
 30
0.0
 11
263.705304
 21
136.668469
 31
0.0
  0
ARC
  5
23C
330
1F
100
AcDbEntity
  8
LAY-1
  6
CONTINUOUS
 62
     3
100
AcDbCircle
 10
260.169751
 20
133.132931
 30
0.0
 40
5.0
100
AcDbArc
 50
44.99999063801583
 51
89.99998127603166
  0
ARC
  5
23D
330
1F
100
AcDbEntity
  8
LAY-1
  6
CONTINUOUS
 62
     3
100
AcDbCircle
 10
266.491712
 20
126.810986
 30
0.0
 40
5.0
100
AcDbArc
 50
359.9999823999061
 51
44.999973037922
  0
ARC
  5
23E
330
1F
100
AcDbEntity
  8
LAY-1
  6
CONTINUOUS
 62
     3
100
AcDbCircle
 10
261.991712
 20
203.1329159999999
 30
0.0
 40
5.0
100
AcDbArc
 50
270.0000011238745
 51
359.9999823999061
  0
LINE
  5
23F
330
1F
100
AcDbEntity
  8
LAY-1
  6
CONTINUOUS
 62
     3
100
AcDbLine
 10
221.996686
 20
109.1329459999999
 30
0.0
 11
229.784589
 21
109.1329459999999
 31
0.0
  0
LINE
  5
240
330
1F
100
AcDbEntity
  8
LAY-1
  6
CONTINUOUS
 62
     3
100
AcDbLine
 10
230.491681
 20
109.840054
 30
0.0
 11
230.491681
 21
118.1343649999999
 31
0.0
  0
ARC
  5
241
330
1F
100
AcDbEntity
  8
LAY-1
  6
CONTINUOUS
 62
     3
100
AcDbCircle
 10
235.491681
 20
118.1343649999999
 30
0.0
 40
5.0
100
AcDbArc
 50
143.783185730285
 51
180.0000198478429
  0
LINE
  5
242
330
1F
100
AcDbEntity
  8
LAY-1
  6
CONTINUOUS
 62
     3
100
AcDbLine
 10
229.784589
 20
109.1329459999999
 30
0.0
 11
230.491681
 21
109.840054
 31
0.0
  0
ARC
  5
243
330
1F
100
AcDbEntity
  8
LAY-1
  6
CONTINUOUS
 62
     3
100
AcDbCircle
 10
217.744855
 20
131.1317409999999
 30
0.0
 40
16.997299
100
AcDbArc
 50
323.7813721131835
 51
0.0040504002515412
  0
LINE
  5
244
330
1F
100
AcDbEntity
  8
LAY-1
  6
CONTINUOUS
 62
     3
100
AcDbLine
 10
234.742597
 20
133.132931
 30
0.0
 11
234.742597
 21
131.132931
 31
0.0
  0
ARC
  5
245
330
1F
100
AcDbEntity
  8
LAY-1
  6
CONTINUOUS
 62
     3
100
AcDbCircle
 10
239.742597
 20
133.132931
 30
0.0
 40
5.0
100
AcDbArc
 50
89.99998127603166
 51
180.0000198478429
  0
LINE
  5
246
330
1F
100
AcDbEntity
  8
LAY-1
  6
CONTINUOUS
 62
     3
100
AcDbLine
 10
267.491742
 20
196.382977
 30
0.0
 11
267.491742
 21
183.8829619999999
 31
0.0
  0
LINE
  5
247
330
1F
100
AcDbEntity
  8
LAY-1
  6
CONTINUOUS
 62
     3
100
AcDbLine
 10
267.491742
 20
183.8829619999999
 30
0.0
 11
266.7668279999999
 21
182.627346
 31
0.0
  0
ARC
  5
248
330
1F
100
AcDbEntity
  8
LAY-1
  6
CONTINUOUS
 62
     3
100
AcDbCircle
 10
257.412336
 20
190.132077
 30
0.0
 40
10.07909
100
AcDbArc
 50
338.1455959244517
 51
21.86376538320082
  0
ARC
  5
249
330
1F
100
AcDbEntity
  8
LAY-1
  6
CONTINUOUS
 62
     3
100
AcDbCircle
 10
262.682904
 20
183.841458
 30
0.0
 40
4.809198
100
AcDbArc
 50
0.4944625771979004
 51
31.86716772004272
  0
LINE
  5
24A
330
1F
100
AcDbEntity
  8
LAY-1
  6
CONTINUOUS
 62
     3
100
AcDbLine
 10
267.491742
 20
196.382962
 30
0.0
 11
266.766797
 21
197.6385769999999
 31
0.0
  0
ARC
  5
24B
330
1F
100
AcDbEntity
  8
LAY-1
  6
CONTINUOUS
 62
     3
100
AcDbCircle
 10
262.682904
 20
196.4244659999999
 30
0.0
 40
4.809198
100
AcDbArc
 50
328.132871975643
 51
359.5055198227083
  0
LINE
  5
24C
330
1F
100
AcDbEntity
  8
LAY-1
  6
EXLTYPE2
 62
     1
100
AcDbLine
 10
257.699414
 20
190.1329159999999
 30
0.0
 11
274.067365
 21
190.1329159999999
 31
0.0
  0
LINE
  5
24D
330
1F
100
AcDbEntity
  8
LAY-1
  6
CONTINUOUS
 62
     3
100
AcDbLine
 10
270.291669
 20
186.1329009999999
 30
0.0
 11
270.291669
 21
194.1329009999999
 31
0.0
  0
ARC
  5
24E
330
1F
100
AcDbEntity
  8
LAY-1
  6
CONTINUOUS
 62
     3
100
AcDbCircle
 10
264.2238590000001
 20
190.133145
 30
0.0
 40
7.267864
100
AcDbArc
 50
326.6050227191472
 51
33.39196270013055
  0
LINE
  5
24F
330
1F
100
AcDbEntity
  8
LAY-1
  6
CONTINUOUS
 62
     1
100
AcDbLine
 10
267.491742
 20
193.456875
 30
0.0
 11
270.6871769999999
 21
193.456875
 31
0.0
  0
LINE
  5
250
330
1F
100
AcDbEntity
  8
LAY-1
  6
CONTINUOUS
 62
     3
100
AcDbLine
 10
267.491742
 20
194.1328699999999
 30
0.0
 11
270.291669
 21
194.1329009999999
 31
0.0
  0
LINE
  5
251
330
1F
100
AcDbEntity
  8
LAY-1
  6
CONTINUOUS
 62
     3
100
AcDbLine
 10
267.491742
 20
186.1329619999999
 30
0.0
 11
270.291669
 21
186.132931
 31
0.0
  0
LINE
  5
252
330
1F
100
AcDbEntity
  8
LAY-1
  6
CONTINUOUS
 62
     1
100
AcDbLine
 10
267.491742
 20
186.808957
 30
0.0
 11
270.6871769999999
 21
186.808957
 31
0.0
  0
LINE
  5
253
330
1F
100
AcDbEntity
  8
LAY-1
  6
CONTINUOUS
 62
     3
100
AcDbLine
 10
266.7668279999999
 20
161.6273619999999
 30
0.0
 11
260.991742
 21
161.6273619999999
 31
0.0
  0
LINE
  5
254
330
1F
100
AcDbEntity
  8
LAY-1
  6
CONTINUOUS
 62
     3
100
AcDbLine
 10
267.491742
 20
175.3829919999999
 30
0.0
 11
267.491742
 21
162.882977
 31
0.0
  0
LINE
  5
255
330
1F
100
AcDbEntity
  8
LAY-1
  6
CONTINUOUS
 62
     3
100
AcDbLine
 10
267.491742
 20
162.882977
 30
0.0
 11
266.7668279999999
 21
161.6273619999999
 31
0.0
  0
ARC
  5
256
330
1F
100
AcDbEntity
  8
LAY-1
  6
CONTINUOUS
 62
     3
100
AcDbCircle
 10
257.412336
 20
169.1320919999999
 30
0.0
 40
10.07909
100
AcDbArc
 50
338.1455959244517
 51
21.86376538320082
  0
ARC
  5
257
330
1F
100
AcDbEntity
  8
LAY-1
  6
CONTINUOUS
 62
     3
100
AcDbCircle
 10
262.682904
 20
162.841473
 30
0.0
 40
4.809198
100
AcDbArc
 50
0.4944625771979004
 51
31.86716772004272
  0
LINE
  5
258
330
1F
100
AcDbEntity
  8
LAY-1
  6
CONTINUOUS
 62
     3
100
AcDbLine
 10
267.491742
 20
175.382977
 30
0.0
 11
266.766797
 21
176.638592
 31
0.0
  0
ARC
  5
259
330
1F
100
AcDbEntity
  8
LAY-1
  6
CONTINUOUS
 62
     3
100
AcDbCircle
 10
262.682904
 20
175.424481
 30
0.0
 40
4.809198
100
AcDbArc
 50
328.132871975643
 51
359.5055198227083
  0
LINE
  5
25A
330
1F
100
AcDbEntity
  8
LAY-1
  6
EXLTYPE2
 62
     1
100
AcDbLine
 10
257.699414
 20
169.132931
 30
0.0
 11
274.067365
 21
169.132931
 31
0.0
  0
LINE
  5
25B
330
1F
100
AcDbEntity
  8
LAY-1
  6
CONTINUOUS
 62
     3
100
AcDbLine
 10
270.291669
 20
165.1329159999999
 30
0.0
 11
270.291669
 21
173.1329159999999
 31
0.0
  0
ARC
  5
25C
330
1F
100
AcDbEntity
  8
LAY-1
  6
CONTINUOUS
 62
     3
100
AcDbCircle
 10
264.2238590000001
 20
169.13316
 30
0.0
 40
7.267864
100
AcDbArc
 50
326.6050227191472
 51
33.39196270013055
  0
LINE
  5
25D
330
1F
100
AcDbEntity
  8
LAY-1
  6
CONTINUOUS
 62
     1
100
AcDbLine
 10
267.491742
 20
172.4568899999999
 30
0.0
 11
270.6871769999999
 21
172.4568899999999
 31
0.0
  0
LINE
  5
25E
330
1F
100
AcDbEntity
  8
LAY-1
  6
CONTINUOUS
 62
     3
100
AcDbLine
 10
267.491742
 20
173.132885
 30
0.0
 11
270.291669
 21
173.1329159999999
 31
0.0
  0
LINE
  5
25F
330
1F
100
AcDbEntity
  8
LAY-1
  6
CONTINUOUS
 62
     3
100
AcDbLine
 10
267.491742
 20
165.132977
 30
0.0
 11
270.291669
 21
165.1329459999999
 31
0.0
  0
LINE
  5
260
330
1F
100
AcDbEntity
  8
LAY-1
  6
CONTINUOUS
 62
     1
100
AcDbLine
 10
267.491742
 20
165.8089719999999
 30
0.0
 11
270.6871769999999
 21
165.8089719999999
 31
0.0
  0
LINE
  5
261
330
1F
100
AcDbEntity
  8
LAY-1
  6
CONTINUOUS
 62
     3
100
AcDbLine
 10
266.766797
 20
138.6273619999999
 30
0.0
 11
260.991712
 21
138.6273619999999
 31
0.0
  0
LINE
  5
262
330
1F
100
AcDbEntity
  8
LAY-1
  6
CONTINUOUS
 62
     3
100
AcDbLine
 10
266.766797
 20
142.3802459999999
 30
0.0
 11
260.991742
 21
142.3802459999999
 31
0.0
  0
LINE
  5
263
330
1F
100
AcDbEntity
  8
LAY-1
  6
CONTINUOUS
 62
     3
100
AcDbLine
 10
266.766797
 20
149.8857079999999
 30
0.0
 11
260.991742
 21
149.8857079999999
 31
0.0
  0
LINE
  5
264
330
1F
100
AcDbEntity
  8
LAY-1
  6
CONTINUOUS
 62
     3
100
AcDbLine
 10
267.491712
 20
152.3829919999999
 30
0.0
 11
267.491712
 21
139.882977
 31
0.0
  0
LINE
  5
265
330
1F
100
AcDbEntity
  8
LAY-1
  6
CONTINUOUS
 62
     3
100
AcDbLine
 10
267.491712
 20
139.882977
 30
0.0
 11
266.766797
 21
138.6273619999999
 31
0.0
  0
ARC
  5
266
330
1F
100
AcDbEntity
  8
LAY-1
  6
CONTINUOUS
 62
     3
100
AcDbCircle
 10
257.4123049999999
 20
146.1320919999999
 30
0.0
 40
10.07909
100
AcDbArc
 50
338.1455959244517
 51
21.86376538320082
  0
ARC
  5
267
330
1F
100
AcDbEntity
  8
LAY-1
  6
CONTINUOUS
 62
     3
100
AcDbCircle
 10
262.682874
 20
139.841473
 30
0.0
 40
4.809198
100
AcDbArc
 50
0.4944625771979004
 51
31.86716772004272
  0
LINE
  5
268
330
1F
100
AcDbEntity
  8
LAY-1
  6
CONTINUOUS
 62
     3
100
AcDbLine
 10
266.766797
 20
153.638592
 30
0.0
 11
260.991712
 21
153.638592
 31
0.0
  0
LINE
  5
269
330
1F
100
AcDbEntity
  8
LAY-1
  6
CONTINUOUS
 62
     3
100
AcDbLine
 10
267.491712
 20
152.382977
 30
0.0
 11
266.766767
 21
153.638592
 31
0.0
  0
ARC
  5
26A
330
1F
100
AcDbEntity
  8
LAY-1
  6
CONTINUOUS
 62
     3
100
AcDbCircle
 10
262.682874
 20
152.424481
 30
0.0
 40
4.809198
100
AcDbArc
 50
328.132871975643
 51
359.5055198227083
  0
LINE
  5
26B
330
1F
100
AcDbEntity
  8
LAY-1
  6
EXLTYPE2
 62
     1
100
AcDbLine
 10
257.699384
 20
146.132931
 30
0.0
 11
274.067334
 21
146.132931
 31
0.0
  0
LINE
  5
26C
330
1F
100
AcDbEntity
  8
LAY-1
  6
CONTINUOUS
 62
     3
100
AcDbLine
 10
270.291638
 20
142.1329159999999
 30
0.0
 11
270.291638
 21
150.1329159999999
 31
0.0
  0
ARC
  5
26D
330
1F
100
AcDbEntity
  8
LAY-1
  6
CONTINUOUS
 62
     3
100
AcDbCircle
 10
264.223828
 20
146.13316
 30
0.0
 40
7.267864
100
AcDbArc
 50
326.6050227191472
 51
33.39196270013055
  0
LINE
  5
26E
330
1F
100
AcDbEntity
  8
LAY-1
  6
CONTINUOUS
 62
     1
100
AcDbLine
 10
267.491712
 20
149.4568899999999
 30
0.0
 11
270.687146
 21
149.4568899999999
 31
0.0
  0
LINE
  5
26F
330
1F
100
AcDbEntity
  8
LAY-1
  6
CONTINUOUS
 62
     3
100
AcDbLine
 10
267.491712
 20
150.132885
 30
0.0
 11
270.291638
 21
150.1329159999999
 31
0.0
  0
LINE
  5
270
330
1F
100
AcDbEntity
  8
LAY-1
  6
CONTINUOUS
 62
     3
100
AcDbLine
 10
267.491712
 20
142.132977
 30
0.0
 11
270.291638
 21
142.1329459999999
 31
0.0
  0
LINE
  5
271
330
1F
100
AcDbEntity
  8
LAY-1
  6
CONTINUOUS
 62
     1
100
AcDbLine
 10
267.491712
 20
142.8089719999999
 30
0.0
 11
270.687146
 21
142.8089719999999
 31
0.0
  0
LINE
  5
272
330
1F
100
AcDbEntity
  8
LAY-1
  6
CONTINUOUS
 62
     3
100
AcDbLine
 10
314.491712
 20
243.8269159999999
 30
0.0
 11
314.491712
 21
192.132977
 31
0.0
  0
LINE
  5
273
330
1F
100
AcDbEntity
  8
LAY-1
  6
CONTINUOUS
 62
     3
100
AcDbLine
 10
294.491712
 20
243.8269159999999
 30
0.0
 11
294.491712
 21
192.132977
 31
0.0
  0
LINE
  5
274
330
1F
100
AcDbEntity
  8
LAY-1
  6
CONTINUOUS
 62
     1
100
AcDbLine
 10
298.62843
 20
248.1329459999999
 30
0.0
 11
298.62843
 21
254.69859
 31
0.0
  0
LINE
  5
275
330
1F
100
AcDbEntity
  8
LAY-1
  6
CONTINUOUS
 62
     3
100
AcDbLine
 10
289.491742
 20
246.1329769999999
 30
0.0
 11
289.491742
 21
230.132962
 31
0.0
  0
LINE
  5
276
330
1F
100
AcDbEntity
  8
LAY-1
  6
CONTINUOUS
 62
     3
100
AcDbLine
 10
304.491712
 20
248.1329769999999
 30
0.0
 11
291.491742
 21
248.1329769999999
 31
0.0
  0
LINE
  5
277
330
1F
100
AcDbEntity
  8
LAY-1
  6
CONTINUOUS
 62
     3
100
AcDbLine
 10
294.491712
 20
228.132962
 30
0.0
 11
291.491742
 21
228.132962
 31
0.0
  0
ARC
  5
278
330
1F
100
AcDbEntity
  8
LAY-1
  6
CONTINUOUS
 62
     3
100
AcDbCircle
 10
291.491742
 20
246.1329769999999
 30
0.0
 40
2.0
100
AcDbArc
 50
89.99998127603166
 51
180.0000198478429
  0
ARC
  5
279
330
1F
100
AcDbEntity
  8
LAY-1
  6
CONTINUOUS
 62
     3
100
AcDbCircle
 10
291.491742
 20
230.132962
 30
0.0
 40
2.0
100
AcDbArc
 50
180.0000198478429
 51
270.0000011238745
  0
LINE
  5
27A
330
1F
100
AcDbEntity
  8
LAY-1
  6
CONTINUOUS
 62
     3
100
AcDbLine
 10
304.491712
 20
248.1329769999999
 30
0.0
 11
317.491742
 21
248.1329769999999
 31
0.0
  0
ARC
  5
27B
330
1F
100
AcDbEntity
  8
LAY-1
  6
CONTINUOUS
 62
     3
100
AcDbCircle
 10
317.491742
 20
246.1329769999999
 30
0.0
 40
2.0
100
AcDbArc
 50
359.9999823999061
 51
90.00002097171735
  0
LINE
  5
27C
330
1F
100
AcDbEntity
  8
LAY-1
  6
CONTINUOUS
 62
     3
100
AcDbLine
 10
314.491712
 20
228.132962
 30
0.0
 11
317.491742
 21
228.132962
 31
0.0
  0
LINE
  5
27D
330
1F
100
AcDbEntity
  8
LAY-1
  6
CONTINUOUS
 62
     3
100
AcDbLine
 10
319.491742
 20
246.1329769999999
 30
0.0
 11
319.491742
 21
230.132962
 31
0.0
  0
ARC
  5
27E
330
1F
100
AcDbEntity
  8
LAY-1
  6
CONTINUOUS
 62
     3
100
AcDbCircle
 10
317.491742
 20
230.132962
 30
0.0
 40
2.0
100
AcDbArc
 50
270.0000011238745
 51
359.9999823999061
  0
LINE
  5
27F
330
1F
100
AcDbEntity
  8
LAY-1
  6
CONTINUOUS
 62
     3
100
AcDbLine
 10
318.232709
 20
258.1329769999999
 30
0.0
 11
290.7507139999999
 21
258.1329769999999
 31
0.0
  0
ARC
  5
280
330
1F
100
AcDbEntity
  8
LAY-1
  6
CONTINUOUS
 62
     3
100
AcDbCircle
 10
312.051648
 20
257.572979
 30
0.0
 40
0.56
100
AcDbArc
 50
89.99998127603166
 51
180.0000198478429
  0
ARC
  5
281
330
1F
100
AcDbEntity
  8
LAY-1
  6
CONTINUOUS
 62
     3
100
AcDbCircle
 10
296.931592
 20
257.572979
 30
0.0
 40
0.56
100
AcDbArc
 50
0.0
 51
90.00003857181116
  0
LINE
  5
282
330
1F
100
AcDbEntity
  8
LAY-1
  6
CONTINUOUS
 62
     3
100
AcDbLine
 10
292.9416319999999
 20
267.932965
 30
0.0
 11
316.041638
 21
267.932965
 31
0.0
  0
LINE
  5
283
330
1F
100
AcDbEntity
  8
LAY-1
  6
CONTINUOUS
 62
     3
100
AcDbLine
 10
316.041638
 20
267.932965
 30
0.0
 11
318.232709
 21
266.66795
 31
0.0
  0
ARC
  5
284
330
1F
100
AcDbEntity
  8
LAY-1
  6
CONTINUOUS
 62
     3
100
AcDbCircle
 10
304.492169
 20
248.643292
 30
0.0
 40
19.289963
100
AcDbArc
 50
69.13641071569688
 51
110.8667604000192
  0
ARC
  5
285
330
1F
100
AcDbEntity
  8
LAY-1
  6
CONTINUOUS
 62
     3
100
AcDbCircle
 10
316.105085
 20
258.4028739999999
 30
0.0
 40
9.530660000000003
100
AcDbArc
 50
90.38145657602976
 51
119.8500510783163
  0
LINE
  5
286
330
1F
100
AcDbEntity
  8
LAY-1
  6
CONTINUOUS
 62
     3
100
AcDbLine
 10
292.9416319999999
 20
267.932965
 30
0.0
 11
290.750531
 21
266.66795
 31
0.0
  0
ARC
  5
287
330
1F
100
AcDbEntity
  8
LAY-1
  6
CONTINUOUS
 62
     3
100
AcDbCircle
 10
292.878186
 20
258.4028739999999
 30
0.0
 40
9.530660000000003
100
AcDbArc
 50
60.14996876952651
 51
89.61856327181307
  0
LINE
  5
288
330
1F
100
AcDbEntity
  8
LAY-1
  6
CONTINUOUS
 62
     3
100
AcDbLine
 10
318.232709
 20
258.1329769999999
 30
0.0
 11
318.23277
 21
266.6678889999999
 31
0.0
  0
LINE
  5
289
330
1F
100
AcDbEntity
  8
LAY-1
  6
CONTINUOUS
 62
     3
100
AcDbLine
 10
311.3620119999999
 20
258.1330379999999
 30
0.0
 11
311.3620119999999
 21
266.66795
 31
0.0
  0
LINE
  5
28A
330
1F
100
AcDbEntity
  8
LAY-1
  6
CONTINUOUS
 62
     3
100
AcDbLine
 10
297.6211979999999
 20
258.1330379999999
 30
0.0
 11
297.6211979999999
 21
266.66795
 31
0.0
  0
LINE
  5
28B
330
1F
100
AcDbEntity
  8
LAY-1
  6
CONTINUOUS
 62
     3
100
AcDbLine
 10
290.750531
 20
258.1329769999999
 30
0.0
 11
290.750501
 21
266.6678889999999
 31
0.0
  0
LINE
  5
28C
330
1F
100
AcDbEntity
  8
LAY-1
  6
CONTINUOUS
 62
     3
100
AcDbLine
 10
297.49159
 20
248.1329769999999
 30
0.0
 11
297.49159
 21
257.572979
 31
0.0
  0
LINE
  5
28D
330
1F
100
AcDbEntity
  8
LAY-1
  6
CONTINUOUS
 62
     3
100
AcDbLine
 10
297.49159
 20
254.69859
 30
0.0
 11
311.491681
 21
254.69859
 31
0.0
  0
LINE
  5
28E
330
1F
100
AcDbEntity
  8
LAY-1
  6
CONTINUOUS
 62
     1
100
AcDbLine
 10
311.491681
 20
257.8486139999999
 30
0.0
 11
310.35484
 21
254.69859
 31
0.0
  0
LINE
  5
28F
330
1F
100
AcDbEntity
  8
LAY-1
  6
CONTINUOUS
 62
     1
100
AcDbLine
 10
297.49159
 20
257.8486139999999
 30
0.0
 11
298.6283999999999
 21
254.69859
 31
0.0
  0
LINE
  5
290
330
1F
100
AcDbEntity
  8
LAY-1
  6
CONTINUOUS
 62
     3
100
AcDbLine
 10
296.491712
 20
190.132977
 30
0.0
 11
312.491712
 21
190.132977
 31
0.0
  0
LINE
  5
291
330
1F
100
AcDbEntity
  8
LAY-1
  6
CONTINUOUS
 62
     1
100
AcDbLine
 10
310.354993
 20
248.1329459999999
 30
0.0
 11
310.354993
 21
254.69859
 31
0.0
  0
LINE
  5
292
330
1F
100
AcDbEntity
  8
LAY-1
  6
CONTINUOUS
 62
     3
100
AcDbLine
 10
311.491834
 20
248.1329769999999
 30
0.0
 11
311.491834
 21
257.572979
 31
0.0
  0
LINE
  5
293
330
1F
100
AcDbEntity
  8
LAY-1
  6
CONTINUOUS
 62
     3
100
AcDbLine
 10
314.491712
 20
216.132962
 30
0.0
 11
314.491681
 21
216.132962
 31
0.0
  0
LINE
  5
294
330
1F
100
AcDbEntity
  8
LAY-1
  6
CONTINUOUS
 62
     3
100
AcDbLine
 10
314.491712
 20
208.1329459999999
 30
0.0
 11
314.491681
 21
208.1329459999999
 31
0.0
  0
ARC
  5
295
330
1F
100
AcDbEntity
  8
LAY-1
  6
CONTINUOUS
 62
     3
100
AcDbCircle
 10
296.491712
 20
192.132977
 30
0.0
 40
2.0
100
AcDbArc
 50
180.0000198478429
 51
270.0000011238745
  0
ARC
  5
296
330
1F
100
AcDbEntity
  8
LAY-1
  6
CONTINUOUS
 62
     3
100
AcDbCircle
 10
312.491712
 20
192.132977
 30
0.0
 40
2.0
100
AcDbArc
 50
270.0000011238745
 51
0.0
  0
ARC
  5
297
330
1F
100
AcDbEntity
  8
LAY-1
  6
CONTINUOUS
 62
     3
100
AcDbCircle
 10
292.096265
 20
243.7602659999999
 30
0.0
 40
2.396373
100
AcDbArc
 50
1.593739402935898
 51
70.818614802201
  0
ARC
  5
298
330
1F
100
AcDbEntity
  8
LAY-1
  6
CONTINUOUS
 62
     3
100
AcDbCircle
 10
316.887159
 20
243.7602659999999
 30
0.0
 40
2.396373
100
AcDbArc
 50
109.1814050456419
 51
178.4063377406866
  0
LINE
  5
299
330
1F
100
AcDbEntity
  8
LAY-1
  6
CONTINUOUS
 62
     3
100
AcDbLine
 10
299.7874880000001
 20
218.3296469999999
 30
0.0
 11
299.7874880000001
 21
242.022503
 31
0.0
  0
LINE
  5
29A
330
1F
100
AcDbEntity
  8
LAY-1
  6
CONTINUOUS
 62
     3
100
AcDbLine
 10
309.195935
 20
218.3296469999999
 30
0.0
 11
309.195935
 21
242.022503
 31
0.0
  0
LINE
  5
29B
330
1F
100
AcDbEntity
  8
LAY-1
  6
CONTINUOUS
 62
     3
100
AcDbLine
 10
344.491681
 20
93.13293099999999
 30
0.0
 11
344.491681
 21
77.84003899999993
 31
0.0
  0
LINE
  5
29C
330
1F
100
AcDbEntity
  8
LAY-1
  6
CONTINUOUS
 62
     3
100
AcDbLine
 10
344.4917419999999
 20
84.83782599999995
 30
0.0
 11
349.231671
 21
84.67231399999991
 31
0.0
  0
LINE
  5
29D
330
1F
100
AcDbEntity
  8
LAY-1
  6
CONTINUOUS
 62
     1
100
AcDbLine
 10
344.519269
 20
85.62685799999997
 30
0.0
 11
349.231671
 21
85.46229199999993
 31
0.0
  0
LINE
  5
29E
330
1F
100
AcDbEntity
  8
LAY-1
  6
CONTINUOUS
 62
     3
100
AcDbLine
 10
295.491712
 20
87.13293099999999
 30
0.0
 11
304.491712
 21
87.13293099999999
 31
0.0
  0
LINE
  5
29F
330
1F
100
AcDbEntity
  8
LAY-1
  6
CONTINUOUS
 62
     3
100
AcDbLine
 10
294.491712
 20
86.13293099999999
 30
0.0
 11
294.491712
 21
78.13293099999999
 31
0.0
  0
ARC
  5
2A0
330
1F
100
AcDbEntity
  8
LAY-1
  6
CONTINUOUS
 62
     3
100
AcDbCircle
 10
295.491712
 20
86.13293099999999
 30
0.0
 40
1.0
100
AcDbArc
 50
89.99998127603166
 51
180.0000198478429
  0
ARC
  5
2A1
330
1F
100
AcDbEntity
  8
LAY-1
  6
CONTINUOUS
 62
     3
100
AcDbCircle
 10
295.491712
 20
78.13293099999999
 30
0.0
 40
1.0
100
AcDbArc
 50
180.0000198478429
 51
270.0000011238745
  0
LINE
  5
2A2
330
1F
100
AcDbEntity
  8
LAY-1
  6
CONTINUOUS
 62
     3
100
AcDbLine
 10
313.491712
 20
87.13293099999999
 30
0.0
 11
304.491712
 21
87.13293099999999
 31
0.0
  0
ARC
  5
2A3
330
1F
100
AcDbEntity
  8
LAY-1
  6
CONTINUOUS
 62
     3
100
AcDbCircle
 10
313.491712
 20
86.13293099999999
 30
0.0
 40
1.0
100
AcDbArc
 50
359.9999823999061
 51
90.00002097171735
  0
LINE
  5
2A4
330
1F
100
AcDbEntity
  8
LAY-1
  6
CONTINUOUS
 62
     3
100
AcDbLine
 10
313.491712
 20
77.13293099999999
 30
0.0
 11
304.491712
 21
77.13293099999999
 31
0.0
  0
LINE
  5
2A5
330
1F
100
AcDbEntity
  8
LAY-1
  6
CONTINUOUS
 62
     3
100
AcDbLine
 10
314.491712
 20
86.13293099999999
 30
0.0
 11
314.491712
 21
78.13293099999999
 31
0.0
  0
ARC
  5
2A6
330
1F
100
AcDbEntity
  8
LAY-1
  6
CONTINUOUS
 62
     3
100
AcDbCircle
 10
313.491712
 20
78.13293099999999
 30
0.0
 40
1.0
100
AcDbArc
 50
270.0000011238745
 51
359.9999823999061
  0
ARC
  5
2A7
330
1F
100
AcDbEntity
  8
LAY-1
  6
CONTINUOUS
 62
     3
100
AcDbCircle
 10
324.491712
 20
90.13293099999999
 30
0.0
 40
13.00000000000001
100
AcDbArc
 50
270.0000011238745
 51
359.9999823999061
  0
LINE
  5
2A8
330
1F
100
AcDbEntity
  8
LAY-1
  6
CONTINUOUS
 62
     3
100
AcDbLine
 10
289.491712
 20
199.1329459999999
 30
0.0
 11
267.991742
 21
199.1329459999999
 31
0.0
  0
ARC
  5
2A9
330
1F
100
AcDbEntity
  8
LAY-1
  6
CONTINUOUS
 62
     3
100
AcDbCircle
 10
267.991742
 20
200.1329459999999
 30
0.0
 40
1.0
100
AcDbArc
 50
180.0000198478429
 51
270.0000011238745
  0
LINE
  5
2AA
330
1F
100
AcDbEntity
  8
LAY-1
  6
CONTINUOUS
 62
     3
100
AcDbLine
 10
294.491712
 20
209.1329459999999
 30
0.0
 11
266.991712
 21
209.1329459999999
 31
0.0
  0
LINE
  5
2AB
330
1F
100
AcDbEntity
  8
LAY-1
  6
CONTINUOUS
 62
     3
100
AcDbLine
 10
314.491712
 20
209.1329459999999
 30
0.0
 11
341.991681
 21
209.1329459999999
 31
0.0
  0
LINE
  5
2AC
330
1F
100
AcDbEntity
  8
LAY-1
  6
CONTINUOUS
 62
     3
100
AcDbLine
 10
315.491773
 20
205.1329459999999
 30
0.0
 11
315.491773
 21
199.132931
 31
0.0
  0
ARC
  5
2AD
330
1F
100
AcDbEntity
  8
LAY-1
  6
CONTINUOUS
 62
     3
100
AcDbCircle
 10
314.491773
 20
205.1329459999999
 30
0.0
 40
1.0
100
AcDbArc
 50
0.0
 51
89.99998127603166
  0
ARC
  5
2AE
330
1F
100
AcDbEntity
  8
LAY-1
  6
CONTINUOUS
 62
     3
100
AcDbCircle
 10
314.491773
 20
199.132931
 30
0.0
 40
1.0
100
AcDbArc
 50
270.0000011238745
 51
359.9999823999061
  0
LINE
  5
2AF
330
1F
100
AcDbEntity
  8
LAY-1
  6
CONTINUOUS
 62
     3
100
AcDbLine
 10
290.491742
 20
206.1329459999999
 30
0.0
 11
294.491742
 21
206.1329459999999
 31
0.0
  0
LINE
  5
2B0
330
1F
100
AcDbEntity
  8
LAY-1
  6
CONTINUOUS
 62
     3
100
AcDbLine
 10
289.491742
 20
188.1329459999999
 30
0.0
 11
293.491773
 21
188.1329459999999
 31
0.0
  0
LINE
  5
2B1
330
1F
100
AcDbEntity
  8
LAY-1
  6
CONTINUOUS
 62
     3
100
AcDbLine
 10
289.491742
 20
188.1329459999999
 30
0.0
 11
289.491742
 21
205.1329459999999
 31
0.0
  0
LINE
  5
2B2
330
1F
100
AcDbEntity
  8
LAY-1
  6
CONTINUOUS
 62
     3
100
AcDbLine
 10
293.491773
 20
188.1329459999999
 30
0.0
 11
293.491773
 21
197.1329459999999
 31
0.0
  0
ARC
  5
2B3
330
1F
100
AcDbEntity
  8
LAY-1
  6
CONTINUOUS
 62
     3
100
AcDbCircle
 10
286.2423829999999
 20
189.2637749999999
 30
0.0
 40
3.440512000000002
100
AcDbArc
 50
263.8601853912526
 51
340.8112820662978
  0
ARC
  5
2B4
330
1F
100
AcDbEntity
  8
LAY-1
  6
CONTINUOUS
 62
     3
100
AcDbCircle
 10
296.741101
 20
189.2637749999999
 30
0.0
 40
3.440512000000002
100
AcDbArc
 50
199.1887201814513
 51
266.102971384513
  0
ARC
  5
2B5
330
1F
100
AcDbEntity
  8
LAY-1
  6
CONTINUOUS
 62
     3
100
AcDbCircle
 10
290.491742
 20
205.1329459999999
 30
0.0
 40
1.0
100
AcDbArc
 50
89.99998127603166
 51
180.0000198478429
  0
ARC
  5
2B6
330
1F
100
AcDbEntity
  8
LAY-1
  6
CONTINUOUS
 62
     3
100
AcDbCircle
 10
294.491773
 20
197.1329459999999
 30
0.0
 40
1.0
100
AcDbArc
 50
89.99998127603166
 51
180.0000198478429
  0
LINE
  5
2B7
330
1F
100
AcDbEntity
  8
LAY-1
  6
CONTINUOUS
 62
     3
100
AcDbLine
 10
494.3391909999999
 20
200.075879
 30
0.0
 11
502.9967839999999
 21
198.632931
 31
0.0
  0
LINE
  5
2B8
330
1F
100
AcDbEntity
  8
LAY-1
  6
CONTINUOUS
 62
     3
100
AcDbLine
 10
494.3391909999999
 20
164.189984
 30
0.0
 11
502.9967839999999
 21
165.632931
 31
0.0
  0
LINE
  5
2B9
330
1F
100
AcDbEntity
  8
LAY-1
  6
CONTINUOUS
 62
     3
100
AcDbLine
 10
629.6543770000001
 20
200.075879
 30
0.0
 11
620.9967839999999
 21
198.632931
 31
0.0
  0
LINE
  5
2BA
330
1F
100
AcDbEntity
  8
LAY-1
  6
CONTINUOUS
 62
     3
100
AcDbLine
 10
629.6543770000001
 20
164.189984
 30
0.0
 11
620.9967839999999
 21
165.632931
 31
0.0
  0
LINE
  5
2BB
330
1F
100
AcDbEntity
  8
LAY-1
  6
CONTINUOUS
 62
     3
100
AcDbLine
 10
607.9236639999999
 20
165.632931
 30
0.0
 11
620.9967839999999
 21
165.632931
 31
0.0
  0
ARC
  5
2BC
330
1F
100
AcDbEntity
  8
LAY-1
  6
CONTINUOUS
 62
     3
100
AcDbCircle
 10
607.9236639999999
 20
155.632931
 30
0.0
 40
10.0
100
AcDbArc
 50
89.99998127603166
 51
174.9999317612953
  0
LINE
  5
2BD
330
1F
100
AcDbEntity
  8
LAY-1
  6
CONTINUOUS
 62
     3
100
AcDbLine
 10
620.9968450000001
 20
77.13293099999999
 30
0.0
 11
561.9968450000001
 21
77.13293099999999
 31
0.0
  0
LINE
  5
2BE
330
1F
100
AcDbEntity
  8
LAY-1
  6
CONTINUOUS
 62
     3
100
AcDbLine
 10
594.9967839999999
 20
87.13293099999999
 30
0.0
 11
620.9968450000001
 21
87.13293099999999
 31
0.0
  0
LINE
  5
2BF
330
1F
100
AcDbEntity
  8
LAY-1
  6
CONTINUOUS
 62
     3
100
AcDbLine
 10
621.9968450000001
 20
78.13293099999999
 30
0.0
 11
621.9968450000001
 21
86.13293099999999
 31
0.0
  0
LINE
  5
2C0
330
1F
100
AcDbEntity
  8
LAY-1
  6
EXLTYPE2
 62
     1
100
AcDbLine
 10
611.9968450000001
 20
69.12863599999991
 30
0.0
 11
611.9968450000001
 21
96.958889
 31
0.0
  0
ARC
  5
2C1
330
1F
100
AcDbEntity
  8
LAY-1
  6
CONTINUOUS
 62
     3
100
AcDbCircle
 10
581.9968450000001
 20
90.13293099999999
 30
0.0
 40
13.00000000000001
100
AcDbArc
 50
270.0000011238745
 51
359.9999823999061
  0
ARC
  5
2C2
330
1F
100
AcDbEntity
  8
LAY-1
  6
CONTINUOUS
 62
     3
100
AcDbCircle
 10
620.9968450000001
 20
86.13293099999999
 30
0.0
 40
1.0
100
AcDbArc
 50
359.9999823999061
 51
90.00002097171735
  0
ARC
  5
2C3
330
1F
100
AcDbEntity
  8
LAY-1
  6
CONTINUOUS
 62
     3
100
AcDbCircle
 10
620.9968450000001
 20
78.13293099999999
 30
0.0
 40
1.0
100
AcDbArc
 50
270.0000011238745
 51
359.9999823999061
  0
LINE
  5
2C4
330
1F
100
AcDbEntity
  8
LAY-1
  6
CONTINUOUS
 62
     3
100
AcDbLine
 10
502.9968450000001
 20
77.13293099999999
 30
0.0
 11
561.9968450000001
 21
77.13293099999999
 31
0.0
  0
LINE
  5
2C5
330
1F
100
AcDbEntity
  8
LAY-1
  6
CONTINUOUS
 62
     3
100
AcDbLine
 10
528.9969060000001
 20
87.13293099999999
 30
0.0
 11
502.9968450000001
 21
87.13293099999999
 31
0.0
  0
LINE
  5
2C6
330
1F
100
AcDbEntity
  8
LAY-1
  6
CONTINUOUS
 62
     3
100
AcDbLine
 10
501.9968450000001
 20
78.13293099999999
 30
0.0
 11
501.9968450000001
 21
86.13293099999999
 31
0.0
  0
LINE
  5
2C7
330
1F
100
AcDbEntity
  8
LAY-1
  6
EXLTYPE2
 62
     1
100
AcDbLine
 10
511.9968450000001
 20
69.12863599999991
 30
0.0
 11
511.9968450000001
 21
96.958889
 31
0.0
  0
ARC
  5
2C8
330
1F
100
AcDbEntity
  8
LAY-1
  6
CONTINUOUS
 62
     3
100
AcDbCircle
 10
541.9968450000001
 20
90.13293099999999
 30
0.0
 40
13.00000000000001
100
AcDbArc
 50
180.0000198478429
 51
270.0000011238745
  0
ARC
  5
2C9
330
1F
100
AcDbEntity
  8
LAY-1
  6
CONTINUOUS
 62
     3
100
AcDbCircle
 10
502.9968450000001
 20
86.13293099999999
 30
0.0
 40
1.0
100
AcDbArc
 50
89.99998127603166
 51
180.0000198478429
  0
ARC
  5
2CA
330
1F
100
AcDbEntity
  8
LAY-1
  6
CONTINUOUS
 62
     3
100
AcDbCircle
 10
502.9968450000001
 20
78.13293099999999
 30
0.0
 40
1.0
100
AcDbArc
 50
180.0000198478429
 51
270.0000011238745
  0
LINE
  5
2CB
330
1F
100
AcDbEntity
  8
LAY-1
  6
CONTINUOUS
 62
     3
100
AcDbLine
 10
214.491742
 20
266.132931
 30
0.0
 11
216.4917420000002
 21
268.132931
 31
0.0
  0
LINE
  5
2CC
330
1F
100
AcDbEntity
  8
LAY-1
  6
CONTINUOUS
 62
     3
100
AcDbLine
 10
214.4917419999999
 20
266.132931
 30
0.0
 11
212.4917419999999
 21
268.132931
 31
0.0
  0
LINE
  5
2CD
330
1F
100
AcDbEntity
  8
LAY-1
  6
CONTINUOUS
 62
     3
100
AcDbLine
 10
203.4917419999999
 20
268.132931
 30
0.0
 11
212.4917419999999
 21
268.132931
 31
0.0
  0
LINE
  5
2CE
330
1F
100
AcDbEntity
  8
LAY-1
  6
CONTINUOUS
 62
     3
100
AcDbLine
 10
216.4917419999999
 20
268.132931
 30
0.0
 11
225.4917419999999
 21
268.132931
 31
0.0
  0
LINE
  5
2CF
330
1F
100
AcDbEntity
  8
LAY-1
  6
CONTINUOUS
 62
     3
100
AcDbLine
 10
203.4917419999999
 20
268.132931
 30
0.0
 11
203.4917419999999
 21
263.1329309999999
 31
0.0
  0
LINE
  5
2D0
330
1F
100
AcDbEntity
  8
LAY-1
  6
CONTINUOUS
 62
     3
100
AcDbLine
 10
225.4917419999999
 20
268.132931
 30
0.0
 11
225.4917419999999
 21
263.1329309999999
 31
0.0
  0
LINE
  5
2D1
330
1F
100
AcDbEntity
  8
LAY-1
  6
CONTINUOUS
 62
     3
100
AcDbLine
 10
194.24133004123
 20
131.13292492289
 30
0.0
 11
194.24133004123
 21
133.132931
 31
0.0
  0
LINE
  5
2D2
330
1F
100
AcDbEntity
  8
LAY-1
  6
CONTINUOUS
 62
     3
100
AcDbLine
 10
508.9967618680732
 20
284.1329138512282
 30
0.0
 11
531.996800336258
 21
244.2957073028002
 31
0.0
  0
LINE
  5
2D3
330
1F
100
AcDbEntity
  8
LAY-1
  6
CONTINUOUS
 62
     3
100
AcDbLine
 10
525.5721521790463
 20
255.4236128234961
 30
0.0
 11
534.2324447080441
 21
260.423586517206
 31
0.0
  0
ARC
  5
2D4
330
1F
100
AcDbEntity
  8
LAY-1
  6
CONTINUOUS
 62
     3
100
AcDbCircle
 10
491.6762604702051
 20
274.1329220193651
 30
0.0
 40
19.99999935
100
AcDbArc
 50
29.99999300942715
 51
90.00001872396828
  0
ARC
  5
2D5
330
1F
100
AcDbEntity
  8
LAY-1
  6
CONTINUOUS
 62
     3
100
AcDbCircle
 10
491.6762604702051
 20
274.13296123505
 30
0.0
 40
29.99999902500001
100
AcDbArc
 50
30.00005030520712
 51
90.00001872396828
  0
LINE
  5
2D6
330
1F
100
AcDbEntity
  8
LAY-1
  6
CONTINUOUS
 62
     3
100
AcDbLine
 10
214.4917420000002
 20
266.132931
 30
0.0
 11
216.4917420000002
 21
268.132931
 31
0.0
  0
LINE
  5
2D7
330
1F
100
AcDbEntity
  8
LAY-1
  6
CONTINUOUS
 62
     3
100
AcDbLine
 10
216.4917419999999
 20
268.132931
 30
0.0
 11
225.4917419999999
 21
268.132931
 31
0.0
  0
LINE
  5
2D8
330
1F
100
AcDbEntity
  8
LAY-1
  6
CONTINUOUS
 62
     3
100
AcDbLine
 10
225.4917419999999
 20
268.132931
 30
0.0
 11
225.4917419999999
 21
263.1329309999999
 31
0.0
  0
LINE
  5
2D9
330
1F
100
AcDbEntity
  8
LAY-1
  6
CONTINUOUS
 62
     3
100
AcDbLine
 10
234.4918067094591
 20
239.1329310000022
 30
0.0
 11
234.4918067094591
 21
259.1329146637282
 31
0.0
  0
LINE
  5
2DA
330
1F
100
AcDbEntity
  8
LAY-1
  6
CONTINUOUS
 62
     3
100
AcDbLine
 10
226.3908140000001
 20
261.782931
 30
0.0
 11
226.3908140000001
 21
263.132931
 31
0.0
  0
LINE
  5
2DB
330
1F
100
AcDbEntity
  8
LAY-1
  6
CONTINUOUS
 62
     1
100
AcDbLine
 10
216.4917419999999
 20
268.132931
 30
0.0
 11
217.6759525263158
 21
263.132931
 31
0.0
  0
LINE
  5
2DC
330
1F
100
AcDbEntity
  8
LAY-1
  6
CONTINUOUS
 62
     1
100
AcDbLine
 10
224.3075314736841
 20
263.132931
 30
0.0
 11
225.4917419999999
 21
268.132931
 31
0.0
  0
LINE
  5
2DD
330
1F
100
AcDbEntity
  8
LAY-1
  6
CONTINUOUS
 62
     3
100
AcDbLine
 10
246.9917420000002
 20
239.1329309999999
 30
0.0
 11
246.9917420000002
 21
225.1329309999999
 31
0.0
  0
LINE
  5
2DE
330
1F
100
AcDbEntity
  8
LAY-1
  6
CONTINUOUS
 62
     3
100
AcDbLine
 10
194.4916772905409
 20
239.1329310000022
 30
0.0
 11
194.4916772905409
 21
259.1329146637282
 31
0.0
  0
LINE
  5
2DF
330
1F
100
AcDbEntity
  8
LAY-1
  6
CONTINUOUS
 62
     3
100
AcDbLine
 10
202.59267
 20
261.782931
 30
0.0
 11
202.59267
 21
263.132931
 31
0.0
  0
LINE
  5
2E0
330
1F
100
AcDbEntity
  8
LAY-1
  6
CONTINUOUS
 62
     3
100
AcDbLine
 10
181.9917419999999
 20
239.1329309999999
 30
0.0
 11
181.9917419999999
 21
225.1329309999999
 31
0.0
  0
LINE
  5
2E1
330
1F
100
AcDbEntity
  8
LAY-1
  6
CONTINUOUS
 62
     3
100
AcDbLine
 10
202.59267
 20
263.132931
 30
0.0
 11
226.3908140000001
 21
263.132931
 31
0.0
  0
LINE
  5
2E2
330
1F
100
AcDbEntity
  8
LAY-1
  6
CONTINUOUS
 62
     3
100
AcDbLine
 10
202.59267
 20
261.782931
 30
0.0
 11
226.390814
 21
261.782931
 31
0.0
  0
LINE
  5
2E3
330
1F
100
AcDbEntity
  8
LAY-1
  6
CONTINUOUS
 62
     1
100
AcDbLine
 10
216.4917419999999
 20
268.132931
 30
0.0
 11
217.6759525263158
 21
263.132931
 31
0.0
  0
LINE
  5
2E4
330
1F
100
AcDbEntity
  8
LAY-1
  6
CONTINUOUS
 62
     1
100
AcDbLine
 10
211.3075314736842
 20
263.132931
 30
0.0
 11
212.4917419999999
 21
268.132931
 31
0.0
  0
LINE
  5
2E5
330
1F
100
AcDbEntity
  8
LAY-1
  6
CONTINUOUS
 62
     1
100
AcDbLine
 10
203.4917419999999
 20
268.132931
 30
0.0
 11
204.6759525263158
 21
263.132931
 31
0.0
  0
LINE
  5
2E6
330
1F
100
AcDbEntity
  8
LAY-1
  6
CONTINUOUS
 62
     3
100
AcDbLine
 10
534.9775505661812
 20
259.1329146637282
 30
0.0
 11
517.657037356819
 21
289.1329543613729
 31
0.0
  0
LINE
  5
2E7
330
1F
100
AcDbEntity
  8
LAY-1
  6
CONTINUOUS
 62
     3
100
AcDbLine
 10
308.4917419999999
 20
244.632916
 30
0.0
 11
297.4917419999999
 21
244.632916
 31
0.0
  0
ARC
  5
2E8
330
1F
100
AcDbEntity
  8
LAY-1
  6
CONTINUOUS
 62
     3
100
AcDbCircle
 10
274.8122655297948
 20
274.1329220193651
 30
0.0
 40
19.99999935
100
AcDbArc
 50
89.99998127603179
 51
150.0000069905729
  0
ARC
  5
2E9
330
1F
100
AcDbEntity
  8
LAY-1
  6
CONTINUOUS
 62
     3
100
AcDbCircle
 10
274.8122655297948
 20
274.13296123505
 30
0.0
 40
29.99999902500001
100
AcDbArc
 50
89.99998127603179
 51
149.9999496947929
  0
LINE
  5
2EA
330
1F
100
AcDbEntity
  8
LAY-1
  6
CONTINUOUS
 62
     3
100
AcDbLine
 10
257.4917641319266
 20
284.1329138512282
 30
0.0
 11
234.4917256637418
 21
244.2957073028002
 31
0.0
  0
LINE
  5
2EB
330
1F
100
AcDbEntity
  8
LAY-1
  6
CONTINUOUS
 62
     3
100
AcDbLine
 10
231.5109754338187
 20
259.1329146637282
 30
0.0
 11
248.8314886431808
 21
289.1329543613729
 31
0.0
  0
LINE
  5
2EC
330
1F
100
AcDbEntity
  8
LAY-1
  6
CONTINUOUS
 62
     3
100
AcDbLine
 10
416.1775761507399
 20
304.1328536940487
 30
0.0
 11
274.81228315148
 21
304.1329367306288
 31
0.0
  0
LINE
  5
2ED
330
1F
100
AcDbEntity
  8
LAY-1
  6
CONTINUOUS
 62
     3
100
AcDbLine
 10
416.1775761507399
 20
294.1328638530271
 30
0.0
 11
274.8122655297948
 21
294.1328638530271
 31
0.0
  0
LINE
  5
2EE
330
1F
100
AcDbEntity
  8
LAY-1
  6
CONTINUOUS
 62
     3
100
AcDbLine
 10
416.1775761507399
 20
304.13285369406
 30
0.0
 11
416.1775761507399
 21
294.1328638530271
 31
0.0
  0
LINE
  5
2EF
330
1F
100
AcDbEntity
  8
LAY-1
  6
CONTINUOUS
 62
     3
100
AcDbLine
 10
212.795856
 20
492.746412
 30
0.0
 11
214.4917419999999
 21
492.746412
 31
0.0
  0
LINE
  5
2F0
330
1F
100
AcDbEntity
  8
LAY-1
  6
CONTINUOUS
 62
     3
100
AcDbLine
 10
216.1876279999999
 20
492.746412
 30
0.0
 11
214.4917419999999
 21
492.746412
 31
0.0
  0
LINE
  5
2F1
330
1F
100
AcDbEntity
  8
LAY-1
  6
CONTINUOUS
 62
     3
100
AcDbLine
 10
212.795856
 20
492.746412
 30
0.0
 11
212.795856
 21
508.24096
 31
0.0
  0
LINE
  5
2F2
330
1F
100
AcDbEntity
  8
LAY-1
  6
CONTINUOUS
 62
     3
100
AcDbLine
 10
216.1876279999999
 20
492.746412
 30
0.0
 11
216.1876279999999
 21
508.24096
 31
0.0
  0
LINE
  5
2F3
330
1F
100
AcDbEntity
  8
LAY-1
  6
CONTINUOUS
 62
     3
100
AcDbLine
 10
194.295856
 20
407.4324889999997
 30
0.0
 11
169.9918029999999
 21
407.4324889999997
 31
0.0
  0
LINE
  5
2F4
330
1F
100
AcDbEntity
  8
LAY-1
  6
EXLTYPE5
 62
     1
100
AcDbLine
 10
231.295856
 20
437.93255
 30
0.0
 11
199.695856
 21
437.93255
 31
0.0
  0
LINE
  5
2F5
330
1F
100
AcDbEntity
  8
LAY-1
  6
CONTINUOUS
 62
     3
100
AcDbLine
 10
494.3391909999996
 20
164.189984
 30
0.0
 11
502.9967839999997
 21
165.632931
 31
0.0
  0
ARC
  5
2F6
330
1F
100
AcDbEntity
  8
LAY-1
  6
CONTINUOUS
 62
     3
100
AcDbCircle
 10
233.7532558854598
 20
475.8171653846154
 30
0.0
 40
10.0
100
AcDbArc
 50
195.6184982756485
 51
228.5312456199892
  0
ARC
  5
2F7
330
1F
100
AcDbEntity
  8
LAY-1
  6
CONTINUOUS
 62
     3
100
AcDbCircle
 10
214.4917419999999
 20
437.93255
 30
0.0
 40
32.5
100
AcDbArc
 50
116.949955927645
 51
232.0199828285054
  0
ARC
  5
2F8
330
1F
100
AcDbEntity
  8
LAY-1
  6
CONTINUOUS
 62
     3
100
AcDbCircle
 10
195.2302281145398
 20
400.0479346153846
 30
0.0
 40
10.0
100
AcDbArc
 50
15.61849827564843
 51
48.53190185629421
  0
ARC
  5
2F9
330
1F
100
AcDbEntity
  8
LAY-1
  6
CONTINUOUS
 62
     3
100
AcDbCircle
 10
214.4917419999999
 20
437.93255
 30
0.0
 40
32.5
100
AcDbArc
 50
338.8498898947116
 51
52.02016409022421
  0
ARC
  5
2FA
330
1F
100
AcDbEntity
  8
LAY-1
  6
CONTINUOUS
 62
     3
100
AcDbCircle
 10
214.4917419999999
 20
437.93255
 30
0.0
 40
32.5
100
AcDbArc
 50
296.9499559276449
 51
321.1501236978538
  0
LINE
  5
2FB
330
1F
100
AcDbEntity
  8
LAY-1
  6
CONTINUOUS
 62
     3
100
AcDbLine
 10
416.1775761507403
 20
327.2627135558005
 30
0.0
 11
233.7622524661284
 21
432.5802209392235
 31
0.0
  0
LINE
  5
2FC
330
1F
100
AcDbEntity
  8
LAY-1
  6
CONTINUOUS
 62
     3
100
AcDbLine
 10
411.1775252382889
 20
318.6024889122655
 30
0.0
 11
228.7622534933863
 21
423.9199663082918
 31
0.0
  0
LINE
  5
2FD
330
1F
100
AcDbEntity
  8
LAY-1
  6
CONTINUOUS
 62
     3
100
AcDbLine
 10
196.548794
 20
515.590143
 30
0.0
 11
197.991742
 21
506.9325499999999
 31
0.0
  0
LINE
  5
2FE
330
1F
100
AcDbEntity
  8
LAY-1
  6
CONTINUOUS
 62
     3
100
AcDbLine
 10
232.434689
 20
515.590143
 30
0.0
 11
230.991742
 21
506.9325499999999
 31
0.0
  0
ARC
  5
2FF
330
1F
100
AcDbEntity
  8
LAY-1
  6
CONTINUOUS
 62
     3
100
AcDbCircle
 10
192.6032230000001
 20
514.9325499999999
 30
0.0
 40
4.0
100
AcDbArc
 50
9.462399110460193
 51
89.99998239990613
  0
ARC
  5
300
330
1F
100
AcDbEntity
  8
LAY-1
  6
CONTINUOUS
 62
     3
100
AcDbCircle
 10
236.380261
 20
514.9325499999999
 30
0.0
 40
4.0
100
AcDbArc
 50
89.99998239990613
 51
170.5376229851318
  0
LINE
  5
301
330
1F
100
AcDbEntity
  8
LAY-1
  6
CONTINUOUS
 62
     3
100
AcDbLine
 10
230.9917419999999
 20
488.4326110000001
 30
0.0
 11
230.9917419999999
 21
506.93255
 31
0.0
  0
LINE
  5
302
330
1F
100
AcDbEntity
  8
LAY-1
  6
CONTINUOUS
 62
     3
100
AcDbLine
 10
197.9917419999999
 20
406.17831312353
 30
0.0
 11
197.9917419999999
 21
388.93255
 31
0.0
  0
LINE
  5
303
330
1F
100
AcDbEntity
  8
LAY-1
  6
CONTINUOUS
 62
     3
100
AcDbLine
 10
230.9917419999999
 20
407.4324889999997
 30
0.0
 11
230.9917419999999
 21
388.93255
 31
0.0
  0
LINE
  5
304
330
1F
100
AcDbEntity
  8
LAY-1
  6
CONTINUOUS
 62
     3
100
AcDbLine
 10
422.9967839999999
 20
294.13286385303
 30
0.0
 11
422.9967839999999
 21
304.1328963889916
 31
0.0
  0
LINE
  5
305
330
1F
100
AcDbEntity
  8
LAY-1
  6
CONTINUOUS
 62
     3
100
AcDbLine
 10
422.9967839999999
 20
304.1328963889916
 30
0.0
 11
491.6762428485199
 21
304.1329367306288
 31
0.0
  0
LINE
  5
306
330
1F
100
AcDbEntity
  8
LAY-1
  6
CONTINUOUS
 62
     3
100
AcDbLine
 10
422.9967839999999
 20
294.1328638530271
 30
0.0
 11
491.6762604702051
 21
294.1328638530271
 31
0.0
  0
LINE
  5
307
330
1F
100
AcDbEntity
  8
LAY-1
  6
CONTINUOUS
 62
     3
100
AcDbLine
 10
136.391797
 20
454.803033
 30
0.0
 11
136.391797
 21
441.0620660000001
 31
0.0
  0
LINE
  5
308
330
1F
100
AcDbEntity
  8
LAY-1
  6
CONTINUOUS
 62
     3
100
AcDbLine
 10
112.591809
 20
441.062249
 30
0.0
 11
112.591809
 21
454.803033
 31
0.0
  0
LINE
  5
309
330
1F
100
AcDbEntity
  8
LAY-1
  6
CONTINUOUS
 62
     3
100
AcDbLine
 10
124.491894
 20
461.6736999999999
 30
0.0
 11
112.591809
 21
454.803033
 31
0.0
  0
LINE
  5
30A
330
1F
100
AcDbEntity
  8
LAY-1
  6
CONTINUOUS
 62
     3
100
AcDbLine
 10
124.491894
 20
461.6736999999999
 30
0.0
 11
136.3918879999999
 21
454.803033
 31
0.0
  0
LINE
  5
30B
330
1F
100
AcDbEntity
  8
LAY-1
  6
CONTINUOUS
 62
     3
100
AcDbLine
 10
136.3918879999999
 20
441.0620660000001
 30
0.0
 11
124.4918029999999
 21
434.191522
 31
0.0
  0
LINE
  5
30C
330
1F
100
AcDbEntity
  8
LAY-1
  6
CONTINUOUS
 62
     3
100
AcDbLine
 10
124.4918029999999
 20
434.1917050000001
 30
0.0
 11
112.591809
 21
441.062249
 31
0.0
  0
CIRCLE
  5
30D
330
1F
100
AcDbEntity
  8
LAY-1
  6
CONTINUOUS
 62
     3
100
AcDbCircle
 10
124.4918029999999
 20
447.9326110000001
 30
0.0
 40
11.55
  0
LINE
  5
30E
330
1F
100
AcDbEntity
  8
LAY-1
  6
CONTINUOUS
 62
     3
100
AcDbLine
 10
132.4918029999999
 20
505.9325499999999
 30
0.0
 11
124.491833
 21
505.9325499999999
 31
0.0
  0
ARC
  5
30F
330
1F
100
AcDbEntity
  8
LAY-1
  6
CONTINUOUS
 62
     3
100
AcDbCircle
 10
132.4918029999999
 20
503.9325499999999
 30
0.0
 40
2.0
100
AcDbArc
 50
359.9999801521533
 51
90.00001872396794
  0
LINE
  5
310
330
1F
100
AcDbEntity
  8
LAY-1
  6
CONTINUOUS
 62
     3
100
AcDbLine
 10
116.4918029999999
 20
505.9325499999999
 30
0.0
 11
124.4917719999999
 21
505.9325499999999
 31
0.0
  0
ARC
  5
311
330
1F
100
AcDbEntity
  8
LAY-1
  6
CONTINUOUS
 62
     3
100
AcDbCircle
 10
116.4918029999999
 20
503.9325499999999
 30
0.0
 40
2.0
100
AcDbArc
 50
89.99997902828265
 51
180.0000176000924
  0
LINE
  5
312
330
1F
100
AcDbEntity
  8
LAY-1
  6
CONTINUOUS
 62
     3
100
AcDbLine
 10
114.4918029999999
 20
435.8909849999999
 30
0.0
 11
114.491803
 21
391.9325499999998
 31
0.0
  0
ARC
  5
313
330
1F
100
AcDbEntity
  8
LAY-1
  6
CONTINUOUS
 62
     3
100
AcDbCircle
 10
116.491803
 20
391.9325499999998
 30
0.0
 40
2.0
100
AcDbArc
 50
180.0000176000941
 51
269.9999988761269
  0
ARC
  5
314
330
1F
100
AcDbEntity
  8
LAY-1
  6
CONTINUOUS
 62
     3
100
AcDbCircle
 10
124.4918029999999
 20
447.9325499999999
 30
0.0
 40
15.00000000000001
100
AcDbArc
 50
179.4851974210749
 51
359.9999801521572
  0
ARC
  5
315
330
1F
100
AcDbEntity
  8
LAY-1
  6
CONTINUOUS
 62
     3
100
AcDbCircle
 10
112.4918029999999
 20
435.8909849999999
 30
0.0
 40
2.0
100
AcDbArc
 50
359.9999801521533
 51
45.09829034781555
  0
ARC
  5
316
330
1F
100
AcDbEntity
  8
LAY-1
  6
CONTINUOUS
 62
     3
100
AcDbCircle
 10
116.4918029999999
 20
432.9325499999999
 30
0.0
 40
2.0
100
AcDbArc
 50
359.9999801521533
 51
61.92795155153376
  0
ARC
  5
317
330
1F
100
AcDbEntity
  8
LAY-1
  6
CONTINUOUS
 62
     3
100
AcDbCircle
 10
136.4918029999999
 20
435.8909849999999
 30
0.0
 40
2.0
100
AcDbArc
 50
134.9017074044341
 51
180.0000176000924
  0
ARC
  5
318
330
1F
100
AcDbEntity
  8
LAY-1
  6
CONTINUOUS
 62
     3
100
AcDbCircle
 10
132.4918029999999
 20
432.9325499999999
 30
0.0
 40
2.0
100
AcDbArc
 50
118.0720462007186
 51
180.0000176000924
  0
LINE
  5
319
330
1F
100
AcDbEntity
  8
LAY-1
  6
CONTINUOUS
 62
     3
100
AcDbLine
 10
118.4918029999999
 20
462.9325499999999
 30
0.0
 11
118.4918029999999
 21
505.9325499999999
 31
0.0
  0
LINE
  5
31A
330
1F
100
AcDbEntity
  8
LAY-1
  6
CONTINUOUS
 62
     3
100
AcDbLine
 10
114.4918029999999
 20
459.9741149999999
 30
0.0
 11
114.4918029999999
 21
503.9325499999999
 31
0.0
  0
ARC
  5
31B
330
1F
100
AcDbEntity
  8
LAY-1
  6
CONTINUOUS
 62
     3
100
AcDbCircle
 10
124.4918029999999
 20
447.9325499999999
 30
0.0
 40
15.00000000000001
100
AcDbArc
 50
359.9999977522506
 51
180.5147628832397
  0
ARC
  5
31C
330
1F
100
AcDbEntity
  8
LAY-1
  6
CONTINUOUS
 62
     3
100
AcDbCircle
 10
112.4918029999999
 20
459.9741149999999
 30
0.0
 40
2.0
100
AcDbArc
 50
314.9016699564955
 51
359.9999801521533
  0
ARC
  5
31D
330
1F
100
AcDbEntity
  8
LAY-1
  6
CONTINUOUS
 62
     3
100
AcDbCircle
 10
116.4918029999999
 20
462.9325499999999
 30
0.0
 40
2.0
100
AcDbArc
 50
298.0720660485596
 51
359.9999801521533
  0
LINE
  5
31E
330
1F
100
AcDbEntity
  8
LAY-1
  6
CONTINUOUS
 62
     3
100
AcDbLine
 10
134.4918029999999
 20
459.9741149999999
 30
0.0
 11
134.4918029999999
 21
503.9325499999999
 31
0.0
  0
ARC
  5
31F
330
1F
100
AcDbEntity
  8
LAY-1
  6
CONTINUOUS
 62
     3
100
AcDbCircle
 10
136.4918029999999
 20
459.9741149999999
 30
0.0
 40
2.0
100
AcDbArc
 50
180.0000176000924
 51
225.0982704999734
  0
LINE
  5
320
330
1F
100
AcDbEntity
  8
LAY-1
  6
CONTINUOUS
 62
     3
100
AcDbLine
 10
130.4918029999999
 20
462.9325499999999
 30
0.0
 11
130.4918029999999
 21
505.9325499999999
 31
0.0
  0
ARC
  5
321
330
1F
100
AcDbEntity
  8
LAY-1
  6
CONTINUOUS
 62
     3
100
AcDbCircle
 10
132.4918029999999
 20
462.9325499999999
 30
0.0
 40
2.0
100
AcDbArc
 50
180.0000176000924
 51
241.9279317036898
  0
ARC
  5
322
330
1F
100
AcDbEntity
  8
LAY-1
  6
CONTINUOUS
 62
     3
100
AcDbCircle
 10
124.4918029999999
 20
447.9325499999999
 30
0.0
 40
37.500011
100
AcDbArc
 50
105.4660006795876
 51
254.5339772248205
  0
LINE
  5
323
330
1F
100
AcDbEntity
  8
LAY-1
  6
CONTINUOUS
 62
     3
100
AcDbLine
 10
135.4918029999999
 20
494.4326110000001
 30
0.0
 11
135.4918029999999
 21
483.782953
 31
0.0
  0
LINE
  5
324
330
1F
100
AcDbEntity
  8
LAY-1
  6
CONTINUOUS
 62
     3
100
AcDbLine
 10
109.4918029999999
 20
494.4325499999999
 30
0.0
 11
109.4918029999999
 21
482.301873
 31
0.0
  0
LINE
  5
325
330
1F
100
AcDbEntity
  8
LAY-1
  6
CONTINUOUS
 62
     3
100
AcDbLine
 10
110.4918029999999
 20
495.4325499999999
 30
0.0
 11
114.4917719999999
 21
495.4325499999999
 31
0.0
  0
LINE
  5
326
330
1F
100
AcDbEntity
  8
LAY-1
  6
CONTINUOUS
 62
     3
100
AcDbLine
 10
134.4917419999999
 20
495.4326110000001
 30
0.0
 11
134.4918029999999
 21
495.4326110000001
 31
0.0
  0
ARC
  5
327
330
1F
100
AcDbEntity
  8
LAY-1
  6
CONTINUOUS
 62
     3
100
AcDbCircle
 10
110.4918029999999
 20
494.4325499999999
 30
0.0
 40
1.0
100
AcDbArc
 50
90.00001872396959
 51
180.0
  0
ARC
  5
328
330
1F
100
AcDbEntity
  8
LAY-1
  6
CONTINUOUS
 62
     3
100
AcDbCircle
 10
134.4918029999999
 20
494.4326110000001
 30
0.0
 40
1.0
100
AcDbArc
 50
359.9999801521598
 51
90.00001872396959
  0
LINE
  5
329
330
1F
100
AcDbEntity
  8
LAY-1
  6
CONTINUOUS
 62
     3
100
AcDbLine
 10
113.491803
 20
401.4324889999999
 30
0.0
 11
113.491803
 21
412.082147
 31
0.0
  0
ARC
  5
32A
330
1F
100
AcDbEntity
  8
LAY-1
  6
CONTINUOUS
 62
     3
100
AcDbCircle
 10
114.491803
 20
401.4324889999999
 30
0.0
 40
1.0
100
AcDbArc
 50
180.0000176000924
 51
269.9999988761261
  0
ARC
  5
32B
330
1F
100
AcDbEntity
  8
LAY-1
  6
CONTINUOUS
 62
     3
100
AcDbCircle
 10
124.4918029999999
 20
447.9325499999999
 30
0.0
 40
37.500011
100
AcDbArc
 50
0.5227877122577812
 51
74.53399707266342
  0
ARC
  5
32C
330
1F
100
AcDbEntity
  8
LAY-1
  6
CONTINUOUS
 62
     3
100
AcDbCircle
 10
124.4918029999999
 20
447.9325499999999
 30
0.0
 40
37.500011
100
AcDbArc
 50
285.4660205274303
 51
0.5227877122623076
  0
LINE
  5
32D
330
1F
100
AcDbEntity
  8
LAY-1
  6
CONTINUOUS
 62
     3
100
AcDbLine
 10
90.57645507313771
 20
431.9325499999999
 30
0.0
 11
85.19889599999988
 21
431.9325499999999
 31
0.0
  0
LINE
  5
32E
330
1F
100
AcDbEntity
  8
LAY-1
  6
CONTINUOUS
 62
     3
100
AcDbLine
 10
90.57645507313771
 20
463.9325499999999
 30
0.0
 11
85.19889599999988
 21
463.9325499999999
 31
0.0
  0
LINE
  5
32F
330
1F
100
AcDbEntity
  8
LAY-1
  6
CONTINUOUS
 62
     3
100
AcDbLine
 10
132.4918029999999
 20
389.9325499999999
 30
0.0
 11
124.491833
 21
389.9325499999999
 31
0.0
  0
ARC
  5
330
330
1F
100
AcDbEntity
  8
LAY-1
  6
CONTINUOUS
 62
     3
100
AcDbCircle
 10
132.4918029999999
 20
391.9325499999999
 30
0.0
 40
2.0
100
AcDbArc
 50
269.9999812760321
 51
0.0000198478467375
  0
LINE
  5
331
330
1F
100
AcDbEntity
  8
LAY-1
  6
CONTINUOUS
 62
     3
100
AcDbLine
 10
116.4918029999999
 20
389.9325499999999
 30
0.0
 11
124.4917719999999
 21
389.9325499999999
 31
0.0
  0
ARC
  5
332
330
1F
100
AcDbEntity
  8
LAY-1
  6
CONTINUOUS
 62
     3
100
AcDbCircle
 10
116.4918029999999
 20
391.9325499999999
 30
0.0
 40
2.0
100
AcDbArc
 50
179.9999823999076
 51
270.0000209717174
  0
LINE
  5
333
330
1F
100
AcDbEntity
  8
LAY-1
  6
CONTINUOUS
 62
     3
100
AcDbLine
 10
138.4918030000001
 20
400.4325500000001
 30
0.0
 11
134.4918340000002
 21
400.4325500000001
 31
0.0
  0
ARC
  5
334
330
1F
100
AcDbEntity
  8
LAY-1
  6
CONTINUOUS
 62
     3
100
AcDbCircle
 10
138.4918030000001
 20
401.4325500000001
 30
0.0
 40
1.0
100
AcDbArc
 50
270.0000187239696
 51
0.0
  0
LINE
  5
335
330
1F
100
AcDbEntity
  8
LAY-1
  6
CONTINUOUS
 62
     3
100
AcDbLine
 10
139.491803
 20
401.43255
 30
0.0
 11
139.491803
 21
413.5632259999999
 31
0.0
  0
LINE
  5
336
330
1F
100
AcDbEntity
  8
LAY-1
  6
CONTINUOUS
 62
     3
100
AcDbLine
 10
134.491803
 20
391.93255069282
 30
0.0
 11
134.4918029999999
 21
435.8909849999999
 31
0.0
  0
LINE
  5
337
330
1F
100
AcDbEntity
  8
LAY-1
  6
CONTINUOUS
 62
     3
100
AcDbLine
 10
118.491803
 20
389.9325499999999
 30
0.0
 11
118.4918029999999
 21
432.9325499999999
 31
0.0
  0
LINE
  5
338
330
1F
100
AcDbEntity
  8
LAY-1
  6
CONTINUOUS
 62
     3
100
AcDbLine
 10
130.491803
 20
389.93255
 30
0.0
 11
130.4918029999999
 21
432.9325499999999
 31
0.0
  0
LINE
  5
339
330
1F
100
AcDbEntity
  8
LAY-1
  6
EXLTYPE5
 62
     1
100
AcDbLine
 10
124.491803
 20
519.666473
 30
0.0
 11
124.491803
 21
378.266473
 31
0.0
  0
LINE
  5
33A
330
1F
100
AcDbEntity
  8
LAY-1
  6
EXLTYPE5
 62
     1
100
AcDbLine
 10
214.491742
 20
87.666473
 30
0.0
 11
214.491742
 21
276.666473
 31
0.0
  0
LINE
  5
33B
330
1F
100
AcDbEntity
  8
LAY-1
  6
EXLTYPE5
 62
     1
100
AcDbLine
 10
214.4917419999999
 20
358.066473
 30
0.0
 11
214.4917419999999
 21
544.666473
 31
0.0
  0
LINE
  5
33C
330
1F
100
AcDbEntity
  8
LAY-1
  6
EXLTYPE5
 62
     1
100
AcDbLine
 10
304.491681
 20
514.066473
 30
0.0
 11
304.491681
 21
391.7445775219
 31
0.0
  0
LINE
  5
33D
330
1F
100
AcDbEntity
  8
LAY-1
  6
EXLTYPE5
 62
     1
100
AcDbLine
 10
655.095856
 20
182.1329310000015
 30
0.0
 11
470.895856
 21
182.1329310000014
 31
0.0
  0
LINE
  5
33E
330
1F
100
AcDbEntity
  8
LAY-1
  6
EXLTYPE5
 62
     1
100
AcDbLine
 10
344.495856
 20
182.1329310000015
 30
0.0
 11
75.69585600000005
 21
182.1329309999999
 31
0.0
  0
LINE
  5
33F
330
1F
100
AcDbEntity
  8
LAY-1
  6
CONTINUOUS
 62
     3
100
AcDbLine
 10
79.75181300000008
 20
93.13291600000002
 30
0.0
 11
79.75181300000008
 21
101.5934259999999
 31
0.0
  0
LINE
  5
340
330
1F
100
AcDbEntity
  8
LAY-1
  6
CONTINUOUS
 62
     3
100
AcDbLine
 10
79.75181300000008
 20
100.637921
 30
0.0
 11
72.2468080000001
 21
100.637921
 31
0.0
  0
LINE
  5
341
330
1F
100
AcDbEntity
  8
LAY-1
  6
CONTINUOUS
 62
     3
100
AcDbLine
 10
72.24674700000014
 20
100.637921
 30
0.0
 11
72.24674700000014
 21
93.13291600000002
 31
0.0
  0
LINE
  5
342
330
1F
100
AcDbEntity
  8
LAY-1
  6
CONTINUOUS
 62
     1
100
AcDbLine
 10
72.24674700000014
 20
100.637921
 30
0.0
 11
79.75181300000008
 21
93.13291600000002
 31
0.0
  0
LINE
  5
343
330
1F
100
AcDbEntity
  8
LAY-1
  6
CONTINUOUS
 62
     1
100
AcDbLine
 10
79.75181300000008
 20
100.637921
 30
0.0
 11
72.2468080000001
 21
93.13291600000002
 31
0.0
  0
LINE
  5
344
330
1F
100
AcDbEntity
  8
LAY-1
  6
CONTINUOUS
 62
     3
100
AcDbLine
 10
79.75181300000008
 20
93.13291600000002
 30
0.0
 11
79.75181300000008
 21
84.67240599999991
 31
0.0
  0
LINE
  5
345
330
1F
100
AcDbEntity
  8
LAY-1
  6
CONTINUOUS
 62
     3
100
AcDbLine
 10
79.75181300000008
 20
85.62791099999993
 30
0.0
 11
72.2468080000001
 21
85.62791099999993
 31
0.0
  0
LINE
  5
346
330
1F
100
AcDbEntity
  8
LAY-1
  6
CONTINUOUS
 62
     3
100
AcDbLine
 10
72.24674700000014
 20
85.62791099999993
 30
0.0
 11
72.24674700000014
 21
93.13291600000002
 31
0.0
  0
LINE
  5
347
330
1F
100
AcDbEntity
  8
LAY-1
  6
CONTINUOUS
 62
     1
100
AcDbLine
 10
72.24674700000014
 20
85.62791099999993
 30
0.0
 11
79.75181300000008
 21
93.13291600000002
 31
0.0
  0
LINE
  5
348
330
1F
100
AcDbEntity
  8
LAY-1
  6
CONTINUOUS
 62
     1
100
AcDbLine
 10
79.75181300000008
 20
85.62791099999993
 30
0.0
 11
72.2468080000001
 21
93.13291600000002
 31
0.0
  0
LINE
  5
349
330
1F
100
AcDbEntity
  8
LAY-1
  6
CONTINUOUS
 62
     3
100
AcDbLine
 10
84.49180300000012
 20
93.13293099999999
 30
0.0
 11
84.49180300000012
 21
108.4258239999999
 31
0.0
  0
LINE
  5
34A
330
1F
100
AcDbEntity
  8
LAY-1
  6
CONTINUOUS
 62
     3
100
AcDbLine
 10
98.31760800000006
 20
109.1329159999999
 30
0.0
 11
85.1988950000001
 21
109.1329159999999
 31
0.0
  0
LINE
  5
34B
330
1F
100
AcDbEntity
  8
LAY-1
  6
CONTINUOUS
 62
     3
100
AcDbLine
 10
79.75181300000008
 20
93.13303799999994
 30
0.0
 11
79.75181300000008
 21
84.67252799999994
 31
0.0
  0
LINE
  5
34C
330
1F
100
AcDbEntity
  8
LAY-1
  6
CONTINUOUS
 62
     3
100
AcDbLine
 10
79.75181300000008
 20
85.62803299999996
 30
0.0
 11
72.2468080000001
 21
85.62803299999996
 31
0.0
  0
LINE
  5
34D
330
1F
100
AcDbEntity
  8
LAY-1
  6
CONTINUOUS
 62
     3
100
AcDbLine
 10
72.24674700000014
 20
85.62803299999996
 30
0.0
 11
72.24674700000014
 21
93.13303799999994
 31
0.0
  0
LINE
  5
34E
330
1F
100
AcDbEntity
  8
LAY-1
  6
CONTINUOUS
 62
     1
100
AcDbLine
 10
72.24674700000014
 20
85.62803299999996
 30
0.0
 11
79.75181300000008
 21
93.13303799999994
 31
0.0
  0
LINE
  5
34F
330
1F
100
AcDbEntity
  8
LAY-1
  6
CONTINUOUS
 62
     1
100
AcDbLine
 10
79.75181300000008
 20
85.62803299999996
 30
0.0
 11
72.2468080000001
 21
93.13303799999994
 31
0.0
  0
LINE
  5
350
330
1F
100
AcDbEntity
  8
LAY-1
  6
CONTINUOUS
 62
     3
100
AcDbLine
 10
79.75181300000008
 20
93.13303799999994
 30
0.0
 11
79.75181300000008
 21
101.5935479999999
 31
0.0
  0
LINE
  5
351
330
1F
100
AcDbEntity
  8
LAY-1
  6
CONTINUOUS
 62
     3
100
AcDbLine
 10
84.49174200000016
 20
101.428036
 30
0.0
 11
79.75181300000008
 21
101.5935479999999
 31
0.0
  0
LINE
  5
352
330
1F
100
AcDbEntity
  8
LAY-1
  6
CONTINUOUS
 62
     1
100
AcDbLine
 10
84.46421500000008
 20
100.6390039999999
 30
0.0
 11
79.75181300000008
 21
100.8035699999999
 31
0.0
  0
LINE
  5
353
330
1F
100
AcDbEntity
  8
LAY-1
  6
CONTINUOUS
 62
     3
100
AcDbLine
 10
79.75181300000008
 20
100.6380429999999
 30
0.0
 11
72.2468080000001
 21
100.6380429999999
 31
0.0
  0
LINE
  5
354
330
1F
100
AcDbEntity
  8
LAY-1
  6
CONTINUOUS
 62
     3
100
AcDbLine
 10
72.24674700000014
 20
100.6380429999999
 30
0.0
 11
72.24674700000014
 21
93.13303799999994
 31
0.0
  0
LINE
  5
355
330
1F
100
AcDbEntity
  8
LAY-1
  6
CONTINUOUS
 62
     1
100
AcDbLine
 10
72.24674700000014
 20
100.6380429999999
 30
0.0
 11
79.75181300000008
 21
93.13303799999994
 31
0.0
  0
LINE
  5
356
330
1F
100
AcDbEntity
  8
LAY-1
  6
CONTINUOUS
 62
     1
100
AcDbLine
 10
79.75181300000008
 20
100.6380429999999
 30
0.0
 11
72.2468080000001
 21
93.13303799999994
 31
0.0
  0
LINE
  5
357
330
1F
100
AcDbEntity
  8
LAY-1
  6
CONTINUOUS
 62
     3
100
AcDbLine
 10
84.49180300000012
 20
93.13293899999996
 30
0.0
 11
84.49180300000012
 21
77.84012999999993
 31
0.0
  0
LINE
  5
358
330
1F
100
AcDbEntity
  8
LAY-1
  6
CONTINUOUS
 62
     3
100
AcDbLine
 10
84.49180300000012
 20
108.4258239999999
 30
0.0
 11
85.1988950000001
 21
109.1329159999999
 31
0.0
  0
LINE
  5
359
330
1F
100
AcDbEntity
  8
LAY-1
  6
CONTINUOUS
 62
     3
100
AcDbLine
 10
84.49180300000012
 20
77.84012999999993
 30
0.0
 11
85.1988950000001
 21
77.13303799999994
 31
0.0
  0
LINE
  5
35A
330
1F
100
AcDbEntity
  8
LAY-1
  6
CONTINUOUS
 62
     3
100
AcDbLine
 10
91.49180300000012
 20
198.1329459999999
 30
0.0
 11
91.49180300000012
 21
114.1329159999999
 31
0.0
  0
LINE
  5
35B
330
1F
100
AcDbEntity
  8
LAY-1
  6
CONTINUOUS
 62
     3
100
AcDbLine
 10
85.1988950000001
 20
77.13293099999999
 30
0.0
 11
124.4917720000001
 21
77.13293099999999
 31
0.0
  0
LINE
  5
35C
330
1F
100
AcDbEntity
  8
LAY-1
  6
EXLTYPE2
 62
     1
100
AcDbLine
 10
91.78245200000015
 20
93.13293099999999
 30
0.0
 11
68.17844800000012
 21
93.13293099999999
 31
0.0
  0
ARC
  5
35D
330
1F
100
AcDbEntity
  8
LAY-1
  6
CONTINUOUS
 62
     3
100
AcDbCircle
 10
86.49180300000012
 20
114.1329159999999
 30
0.0
 40
5.0
100
AcDbArc
 50
269.9999988761256
 51
359.9999801521572
  0
LINE
  5
35E
330
1F
100
AcDbEntity
  8
LAY-1
  6
CONTINUOUS
 62
     3
100
AcDbLine
 10
86.99180300000012
 20
218.1329459999999
 30
0.0
 11
86.99180300000012
 21
200.1329459999999
 31
0.0
  0
LINE
  5
35F
330
1F
100
AcDbEntity
  8
LAY-1
  6
CONTINUOUS
 62
     3
100
AcDbLine
 10
114.4918030000001
 20
219.1329459999999
 30
0.0
 11
87.99180300000012
 21
219.1329459999999
 31
0.0
  0
ARC
  5
360
330
1F
100
AcDbEntity
  8
LAY-1
  6
CONTINUOUS
 62
     3
100
AcDbCircle
 10
87.99180300000012
 20
200.1329459999999
 30
0.0
 40
1.0
100
AcDbArc
 50
180.0000176000924
 51
269.9999988761261
  0
ARC
  5
361
330
1F
100
AcDbEntity
  8
LAY-1
  6
CONTINUOUS
 62
     3
100
AcDbCircle
 10
90.49180300000012
 20
198.1329459999999
 30
0.0
 40
1.0
100
AcDbArc
 50
359.9999801521565
 51
90.00001872396959
  0
ARC
  5
362
330
1F
100
AcDbEntity
  8
LAY-1
  6
CONTINUOUS
 62
     3
100
AcDbCircle
 10
87.99180300000012
 20
218.1329459999999
 30
0.0
 40
1.0
100
AcDbArc
 50
89.99997902828265
 51
180.0000176000924
  0
LINE
  5
363
330
1F
100
AcDbEntity
  8
LAY-1
  6
CONTINUOUS
 62
     3
100
AcDbLine
 10
157.4917720000001
 20
126.810986
 30
0.0
 11
157.4917720000001
 21
90.13293099999999
 31
0.0
  0
LINE
  5
364
330
1F
100
AcDbEntity
  8
LAY-1
  6
CONTINUOUS
 62
     3
100
AcDbLine
 10
144.4917720000001
 20
77.13293099999999
 30
0.0
 11
124.4917720000001
 21
77.13293099999999
 31
0.0
  0
LINE
  5
365
330
1F
100
AcDbEntity
  8
LAY-1
  6
CONTINUOUS
 62
     3
100
AcDbLine
 10
161.9917720000001
 20
200.1329459999999
 30
0.0
 11
161.9917720000001
 21
218.1329459999999
 31
0.0
  0
LINE
  5
366
330
1F
100
AcDbEntity
  8
LAY-1
  6
CONTINUOUS
 62
     3
100
AcDbLine
 10
134.4917720000001
 20
219.1329459999999
 30
0.0
 11
160.9917720000001
 21
219.1329459999999
 31
0.0
  0
ARC
  5
367
330
1F
100
AcDbEntity
  8
LAY-1
  6
CONTINUOUS
 62
     3
100
AcDbCircle
 10
160.9917720000001
 20
218.1329459999999
 30
0.0
 40
1.0
100
AcDbArc
 50
359.9999801521565
 51
90.00001872396959
  0
ARC
  5
368
330
1F
100
AcDbEntity
  8
LAY-1
  6
CONTINUOUS
 62
     3
100
AcDbCircle
 10
144.4917720000001
 20
90.13293099999999
 30
0.0
 40
13.00000000000001
100
AcDbArc
 50
269.9999988761256
 51
359.9999801521572
  0
LINE
  5
369
330
1F
100
AcDbEntity
  8
LAY-1
  6
CONTINUOUS
 62
     3
100
AcDbLine
 10
158.9562500000001
 20
130.346508
 30
0.0
 11
165.2781800000001
 21
136.668469
 31
0.0
  0
ARC
  5
36A
330
1F
100
AcDbEntity
  8
LAY-1
  6
CONTINUOUS
 62
     3
100
AcDbCircle
 10
168.8137330000001
 20
133.132931
 30
0.0
 40
5.0
100
AcDbArc
 50
90.00001872396828
 51
135.0000093619842
  0
ARC
  5
36B
330
1F
100
AcDbEntity
  8
LAY-1
  6
CONTINUOUS
 62
     3
100
AcDbCircle
 10
162.4917720000001
 20
126.810986
 30
0.0
 40
5.0
100
AcDbArc
 50
135.000026962078
 51
180.0000176000938
  0
ARC
  5
36C
330
1F
100
AcDbEntity
  8
LAY-1
  6
CONTINUOUS
 62
     3
100
AcDbCircle
 10
166.9917720000001
 20
203.1329159999999
 30
0.0
 40
5.0
100
AcDbArc
 50
180.0000176000938
 51
269.9999988761256
  0
LINE
  5
36D
330
1F
100
AcDbEntity
  8
LAY-1
  6
CONTINUOUS
 62
     3
100
AcDbLine
 10
161.491742
 20
196.382977
 30
0.0
 11
161.491742
 21
183.8829619999999
 31
0.0
  0
LINE
  5
36E
330
1F
100
AcDbEntity
  8
LAY-1
  6
CONTINUOUS
 62
     3
100
AcDbLine
 10
161.491742
 20
183.8829619999999
 30
0.0
 11
162.2166560000002
 21
182.627346
 31
0.0
  0
ARC
  5
36F
330
1F
100
AcDbEntity
  8
LAY-1
  6
CONTINUOUS
 62
     3
100
AcDbCircle
 10
171.5711480000001
 20
190.132077
 30
0.0
 40
10.07909
100
AcDbArc
 50
158.1362346167992
 51
201.8544040755485
  0
ARC
  5
370
330
1F
100
AcDbEntity
  8
LAY-1
  6
CONTINUOUS
 62
     3
100
AcDbCircle
 10
166.3005800000001
 20
183.841458
 30
0.0
 40
4.809198
100
AcDbArc
 50
148.1328322799575
 51
179.505537422802
  0
LINE
  5
371
330
1F
100
AcDbEntity
  8
LAY-1
  6
CONTINUOUS
 62
     3
100
AcDbLine
 10
161.491742
 20
196.382962
 30
0.0
 11
162.2166870000001
 21
197.6385769999999
 31
0.0
  0
ARC
  5
372
330
1F
100
AcDbEntity
  8
LAY-1
  6
CONTINUOUS
 62
     3
100
AcDbCircle
 10
166.3005800000001
 20
196.4244659999999
 30
0.0
 40
4.809198
100
AcDbArc
 50
180.494480177292
 51
211.8671280243575
  0
LINE
  5
373
330
1F
100
AcDbEntity
  8
LAY-1
  6
EXLTYPE2
 62
     1
100
AcDbLine
 10
171.28407
 20
190.1329159999999
 30
0.0
 11
154.9161190000001
 21
190.1329159999999
 31
0.0
  0
LINE
  5
374
330
1F
100
AcDbEntity
  8
LAY-1
  6
CONTINUOUS
 62
     3
100
AcDbLine
 10
158.6918150000001
 20
186.1329009999999
 30
0.0
 11
158.6918150000001
 21
194.1329009999999
 31
0.0
  0
ARC
  5
375
330
1F
100
AcDbEntity
  8
LAY-1
  6
CONTINUOUS
 62
     3
100
AcDbCircle
 10
164.759625
 20
190.133145
 30
0.0
 40
7.267864
100
AcDbArc
 50
146.6080372998696
 51
213.394977280853
  0
LINE
  5
376
330
1F
100
AcDbEntity
  8
LAY-1
  6
CONTINUOUS
 62
     1
100
AcDbLine
 10
161.491742
 20
193.456875
 30
0.0
 11
158.2963070000002
 21
193.456875
 31
0.0
  0
LINE
  5
377
330
1F
100
AcDbEntity
  8
LAY-1
  6
CONTINUOUS
 62
     3
100
AcDbLine
 10
161.491742
 20
194.1328699999999
 30
0.0
 11
158.6918150000001
 21
194.1329009999999
 31
0.0
  0
LINE
  5
378
330
1F
100
AcDbEntity
  8
LAY-1
  6
CONTINUOUS
 62
     3
100
AcDbLine
 10
161.491742
 20
186.1329619999999
 30
0.0
 11
158.6918150000001
 21
186.132931
 31
0.0
  0
LINE
  5
379
330
1F
100
AcDbEntity
  8
LAY-1
  6
CONTINUOUS
 62
     1
100
AcDbLine
 10
161.491742
 20
186.808957
 30
0.0
 11
158.2963070000002
 21
186.808957
 31
0.0
  0
LINE
  5
37A
330
1F
100
AcDbEntity
  8
LAY-1
  6
CONTINUOUS
 62
     3
100
AcDbLine
 10
162.2166560000002
 20
161.6273619999999
 30
0.0
 11
167.991742
 21
161.6273619999999
 31
0.0
  0
LINE
  5
37B
330
1F
100
AcDbEntity
  8
LAY-1
  6
CONTINUOUS
 62
     3
100
AcDbLine
 10
161.491742
 20
175.3829919999999
 30
0.0
 11
161.491742
 21
162.882977
 31
0.0
  0
LINE
  5
37C
330
1F
100
AcDbEntity
  8
LAY-1
  6
CONTINUOUS
 62
     3
100
AcDbLine
 10
161.491742
 20
162.882977
 30
0.0
 11
162.2166560000002
 21
161.6273619999999
 31
0.0
  0
ARC
  5
37D
330
1F
100
AcDbEntity
  8
LAY-1
  6
CONTINUOUS
 62
     3
100
AcDbCircle
 10
171.5711480000001
 20
169.1320919999999
 30
0.0
 40
10.07909
100
AcDbArc
 50
158.1362346167992
 51
201.8544040755485
  0
ARC
  5
37E
330
1F
100
AcDbEntity
  8
LAY-1
  6
CONTINUOUS
 62
     3
100
AcDbCircle
 10
166.3005800000001
 20
162.841473
 30
0.0
 40
4.809198
100
AcDbArc
 50
148.1328322799575
 51
179.505537422802
  0
LINE
  5
37F
330
1F
100
AcDbEntity
  8
LAY-1
  6
CONTINUOUS
 62
     3
100
AcDbLine
 10
161.491742
 20
175.382977
 30
0.0
 11
162.2166870000001
 21
176.638592
 31
0.0
  0
ARC
  5
380
330
1F
100
AcDbEntity
  8
LAY-1
  6
CONTINUOUS
 62
     3
100
AcDbCircle
 10
166.3005800000001
 20
175.424481
 30
0.0
 40
4.809198
100
AcDbArc
 50
180.494480177292
 51
211.8671280243575
  0
LINE
  5
381
330
1F
100
AcDbEntity
  8
LAY-1
  6
EXLTYPE2
 62
     1
100
AcDbLine
 10
171.28407
 20
169.132931
 30
0.0
 11
154.9161190000001
 21
169.132931
 31
0.0
  0
LINE
  5
382
330
1F
100
AcDbEntity
  8
LAY-1
  6
CONTINUOUS
 62
     3
100
AcDbLine
 10
158.6918150000001
 20
165.1329159999999
 30
0.0
 11
158.6918150000001
 21
173.1329159999999
 31
0.0
  0
ARC
  5
383
330
1F
100
AcDbEntity
  8
LAY-1
  6
CONTINUOUS
 62
     3
100
AcDbCircle
 10
164.759625
 20
169.13316
 30
0.0
 40
7.267864
100
AcDbArc
 50
146.6080372998696
 51
213.394977280853
  0
LINE
  5
384
330
1F
100
AcDbEntity
  8
LAY-1
  6
CONTINUOUS
 62
     1
100
AcDbLine
 10
161.491742
 20
172.4568899999999
 30
0.0
 11
158.2963070000002
 21
172.4568899999999
 31
0.0
  0
LINE
  5
385
330
1F
100
AcDbEntity
  8
LAY-1
  6
CONTINUOUS
 62
     3
100
AcDbLine
 10
161.491742
 20
173.132885
 30
0.0
 11
158.6918150000001
 21
173.1329159999999
 31
0.0
  0
LINE
  5
386
330
1F
100
AcDbEntity
  8
LAY-1
  6
CONTINUOUS
 62
     3
100
AcDbLine
 10
161.491742
 20
165.132977
 30
0.0
 11
158.6918150000001
 21
165.1329459999999
 31
0.0
  0
LINE
  5
387
330
1F
100
AcDbEntity
  8
LAY-1
  6
CONTINUOUS
 62
     1
100
AcDbLine
 10
161.491742
 20
165.8089719999999
 30
0.0
 11
158.2963070000002
 21
165.8089719999999
 31
0.0
  0
LINE
  5
388
330
1F
100
AcDbEntity
  8
LAY-1
  6
CONTINUOUS
 62
     3
100
AcDbLine
 10
162.2166870000001
 20
138.6273619999999
 30
0.0
 11
167.9917720000001
 21
138.6273619999999
 31
0.0
  0
LINE
  5
389
330
1F
100
AcDbEntity
  8
LAY-1
  6
CONTINUOUS
 62
     3
100
AcDbLine
 10
162.2166870000001
 20
142.3802459999999
 30
0.0
 11
167.991742
 21
142.3802459999999
 31
0.0
  0
LINE
  5
38A
330
1F
100
AcDbEntity
  8
LAY-1
  6
CONTINUOUS
 62
     3
100
AcDbLine
 10
162.2166870000001
 20
149.8857079999999
 30
0.0
 11
167.991742
 21
149.8857079999999
 31
0.0
  0
LINE
  5
38B
330
1F
100
AcDbEntity
  8
LAY-1
  6
CONTINUOUS
 62
     3
100
AcDbLine
 10
161.4917720000001
 20
152.3829919999999
 30
0.0
 11
161.4917720000001
 21
139.882977
 31
0.0
  0
LINE
  5
38C
330
1F
100
AcDbEntity
  8
LAY-1
  6
CONTINUOUS
 62
     3
100
AcDbLine
 10
161.4917720000001
 20
139.882977
 30
0.0
 11
162.2166870000001
 21
138.6273619999999
 31
0.0
  0
ARC
  5
38D
330
1F
100
AcDbEntity
  8
LAY-1
  6
CONTINUOUS
 62
     3
100
AcDbCircle
 10
171.5711790000001
 20
146.1320919999999
 30
0.0
 40
10.07909
100
AcDbArc
 50
158.1362346167992
 51
201.8544040755485
  0
ARC
  5
38E
330
1F
100
AcDbEntity
  8
LAY-1
  6
CONTINUOUS
 62
     3
100
AcDbCircle
 10
166.3006100000001
 20
139.841473
 30
0.0
 40
4.809198
100
AcDbArc
 50
148.1328322799575
 51
179.505537422802
  0
LINE
  5
38F
330
1F
100
AcDbEntity
  8
LAY-1
  6
CONTINUOUS
 62
     3
100
AcDbLine
 10
162.2166870000001
 20
153.638592
 30
0.0
 11
167.9917720000001
 21
153.638592
 31
0.0
  0
LINE
  5
390
330
1F
100
AcDbEntity
  8
LAY-1
  6
CONTINUOUS
 62
     3
100
AcDbLine
 10
161.4917720000001
 20
152.382977
 30
0.0
 11
162.2167170000001
 21
153.638592
 31
0.0
  0
ARC
  5
391
330
1F
100
AcDbEntity
  8
LAY-1
  6
CONTINUOUS
 62
     3
100
AcDbCircle
 10
166.3006100000001
 20
152.424481
 30
0.0
 40
4.809198
100
AcDbArc
 50
180.494480177292
 51
211.8671280243575
  0
LINE
  5
392
330
1F
100
AcDbEntity
  8
LAY-1
  6
EXLTYPE2
 62
     1
100
AcDbLine
 10
171.2841000000001
 20
146.132931
 30
0.0
 11
154.9161500000001
 21
146.132931
 31
0.0
  0
LINE
  5
393
330
1F
100
AcDbEntity
  8
LAY-1
  6
CONTINUOUS
 62
     3
100
AcDbLine
 10
158.6918460000001
 20
142.1329159999999
 30
0.0
 11
158.6918460000001
 21
150.1329159999999
 31
0.0
  0
ARC
  5
394
330
1F
100
AcDbEntity
  8
LAY-1
  6
CONTINUOUS
 62
     3
100
AcDbCircle
 10
164.7596560000001
 20
146.13316
 30
0.0
 40
7.267864
100
AcDbArc
 50
146.6080372998696
 51
213.394977280853
  0
LINE
  5
395
330
1F
100
AcDbEntity
  8
LAY-1
  6
CONTINUOUS
 62
     1
100
AcDbLine
 10
161.4917720000001
 20
149.4568899999999
 30
0.0
 11
158.2963380000001
 21
149.4568899999999
 31
0.0
  0
LINE
  5
396
330
1F
100
AcDbEntity
  8
LAY-1
  6
CONTINUOUS
 62
     3
100
AcDbLine
 10
161.4917720000001
 20
150.132885
 30
0.0
 11
158.6918460000001
 21
150.1329159999999
 31
0.0
  0
LINE
  5
397
330
1F
100
AcDbEntity
  8
LAY-1
  6
CONTINUOUS
 62
     3
100
AcDbLine
 10
161.4917720000001
 20
142.132977
 30
0.0
 11
158.6918460000001
 21
142.1329459999999
 31
0.0
  0
LINE
  5
398
330
1F
100
AcDbEntity
  8
LAY-1
  6
CONTINUOUS
 62
     1
100
AcDbLine
 10
161.4917720000001
 20
142.8089719999999
 30
0.0
 11
158.2963380000001
 21
142.8089719999999
 31
0.0
  0
LINE
  5
399
330
1F
100
AcDbEntity
  8
LAY-1
  6
CONTINUOUS
 62
     3
100
AcDbLine
 10
114.4917720000001
 20
243.8269159999999
 30
0.0
 11
114.4917720000001
 21
192.132977
 31
0.0
  0
LINE
  5
39A
330
1F
100
AcDbEntity
  8
LAY-1
  6
CONTINUOUS
 62
     3
100
AcDbLine
 10
134.4917720000001
 20
243.8269159999999
 30
0.0
 11
134.4917720000001
 21
192.132977
 31
0.0
  0
LINE
  5
39B
330
1F
100
AcDbEntity
  8
LAY-1
  6
CONTINUOUS
 62
     1
100
AcDbLine
 10
130.3550540000001
 20
248.1329459999999
 30
0.0
 11
130.3550540000001
 21
254.69859
 31
0.0
  0
LINE
  5
39C
330
1F
100
AcDbEntity
  8
LAY-1
  6
CONTINUOUS
 62
     3
100
AcDbLine
 10
139.491742
 20
246.1329769999999
 30
0.0
 11
139.491742
 21
230.132962
 31
0.0
  0
LINE
  5
39D
330
1F
100
AcDbEntity
  8
LAY-1
  6
CONTINUOUS
 62
     3
100
AcDbLine
 10
124.4917720000001
 20
248.1329769999999
 30
0.0
 11
137.491742
 21
248.1329769999999
 31
0.0
  0
LINE
  5
39E
330
1F
100
AcDbEntity
  8
LAY-1
  6
CONTINUOUS
 62
     3
100
AcDbLine
 10
134.4917720000001
 20
228.132962
 30
0.0
 11
137.491742
 21
228.132962
 31
0.0
  0
ARC
  5
39F
330
1F
100
AcDbEntity
  8
LAY-1
  6
CONTINUOUS
 62
     3
100
AcDbCircle
 10
137.491742
 20
246.1329769999999
 30
0.0
 40
2.0
100
AcDbArc
 50
359.9999801521565
 51
90.00001872396794
  0
ARC
  5
3A0
330
1F
100
AcDbEntity
  8
LAY-1
  6
CONTINUOUS
 62
     3
100
AcDbCircle
 10
137.491742
 20
230.132962
 30
0.0
 40
2.0
100
AcDbArc
 50
269.9999988761261
 51
359.9999801521565
  0
LINE
  5
3A1
330
1F
100
AcDbEntity
  8
LAY-1
  6
CONTINUOUS
 62
     3
100
AcDbLine
 10
124.4917720000001
 20
248.1329769999999
 30
0.0
 11
111.491742
 21
248.1329769999999
 31
0.0
  0
ARC
  5
3A2
330
1F
100
AcDbEntity
  8
LAY-1
  6
CONTINUOUS
 62
     3
100
AcDbCircle
 10
111.491742
 20
246.1329769999999
 30
0.0
 40
2.0
100
AcDbArc
 50
89.99997902828265
 51
180.0000176000941
  0
LINE
  5
3A3
330
1F
100
AcDbEntity
  8
LAY-1
  6
CONTINUOUS
 62
     3
100
AcDbLine
 10
114.4917720000001
 20
228.132962
 30
0.0
 11
111.491742
 21
228.132962
 31
0.0
  0
LINE
  5
3A4
330
1F
100
AcDbEntity
  8
LAY-1
  6
CONTINUOUS
 62
     3
100
AcDbLine
 10
109.491742
 20
246.1329769999999
 30
0.0
 11
109.491742
 21
230.132962
 31
0.0
  0
ARC
  5
3A5
330
1F
100
AcDbEntity
  8
LAY-1
  6
CONTINUOUS
 62
     3
100
AcDbCircle
 10
111.491742
 20
230.132962
 30
0.0
 40
2.0
100
AcDbArc
 50
180.0000176000941
 51
269.9999988761261
  0
LINE
  5
3A6
330
1F
100
AcDbEntity
  8
LAY-1
  6
CONTINUOUS
 62
     3
100
AcDbLine
 10
110.7507750000001
 20
258.1329769999999
 30
0.0
 11
138.2327700000002
 21
258.1329769999999
 31
0.0
  0
ARC
  5
3A7
330
1F
100
AcDbEntity
  8
LAY-1
  6
CONTINUOUS
 62
     3
100
AcDbCircle
 10
116.9318360000001
 20
257.572979
 30
0.0
 40
0.56
100
AcDbArc
 50
359.9999801521582
 51
90.0000187239712
  0
ARC
  5
3A8
330
1F
100
AcDbEntity
  8
LAY-1
  6
CONTINUOUS
 62
     3
100
AcDbCircle
 10
132.0518920000001
 20
257.572979
 30
0.0
 40
0.56
100
AcDbArc
 50
89.99996142818699
 51
180.0
  0
LINE
  5
3A9
330
1F
100
AcDbEntity
  8
LAY-1
  6
CONTINUOUS
 62
     3
100
AcDbLine
 10
136.0418520000002
 20
267.932965
 30
0.0
 11
112.9418460000001
 21
267.932965
 31
0.0
  0
LINE
  5
3AA
330
1F
100
AcDbEntity
  8
LAY-1
  6
CONTINUOUS
 62
     3
100
AcDbLine
 10
112.9418460000001
 20
267.932965
 30
0.0
 11
110.7507750000001
 21
266.66795
 31
0.0
  0
ARC
  5
3AB
330
1F
100
AcDbEntity
  8
LAY-1
  6
CONTINUOUS
 62
     3
100
AcDbCircle
 10
124.4913150000001
 20
248.643292
 30
0.0
 40
19.289963
100
AcDbArc
 50
69.13323959998083
 51
110.863589284303
  0
ARC
  5
3AC
330
1F
100
AcDbEntity
  8
LAY-1
  6
CONTINUOUS
 62
     3
100
AcDbCircle
 10
112.8783990000001
 20
258.4028739999999
 30
0.0
 40
9.530660000000003
100
AcDbArc
 50
60.14994892168352
 51
89.61854342397041
  0
LINE
  5
3AD
330
1F
100
AcDbEntity
  8
LAY-1
  6
CONTINUOUS
 62
     3
100
AcDbLine
 10
136.0418520000002
 20
267.932965
 30
0.0
 11
138.2329530000001
 21
266.66795
 31
0.0
  0
ARC
  5
3AE
330
1F
100
AcDbEntity
  8
LAY-1
  6
CONTINUOUS
 62
     3
100
AcDbCircle
 10
136.1052980000001
 20
258.4028739999999
 30
0.0
 40
9.530660000000003
100
AcDbArc
 50
90.38143672818681
 51
119.8500312304734
  0
LINE
  5
3AF
330
1F
100
AcDbEntity
  8
LAY-1
  6
CONTINUOUS
 62
     3
100
AcDbLine
 10
110.7507750000001
 20
258.1329769999999
 30
0.0
 11
110.7507140000001
 21
266.6678889999999
 31
0.0
  0
LINE
  5
3B0
330
1F
100
AcDbEntity
  8
LAY-1
  6
CONTINUOUS
 62
     3
100
AcDbLine
 10
117.6214720000002
 20
258.1330379999999
 30
0.0
 11
117.6214720000002
 21
266.66795
 31
0.0
  0
LINE
  5
3B1
330
1F
100
AcDbEntity
  8
LAY-1
  6
CONTINUOUS
 62
     3
100
AcDbLine
 10
131.3622860000002
 20
258.1330379999999
 30
0.0
 11
131.3622860000002
 21
266.66795
 31
0.0
  0
LINE
  5
3B2
330
1F
100
AcDbEntity
  8
LAY-1
  6
CONTINUOUS
 62
     3
100
AcDbLine
 10
138.2329530000001
 20
258.1329769999999
 30
0.0
 11
138.2329830000001
 21
266.6678889999999
 31
0.0
  0
LINE
  5
3B3
330
1F
100
AcDbEntity
  8
LAY-1
  6
CONTINUOUS
 62
     3
100
AcDbLine
 10
131.4918940000001
 20
248.1329769999999
 30
0.0
 11
131.4918940000001
 21
257.572979
 31
0.0
  0
LINE
  5
3B4
330
1F
100
AcDbEntity
  8
LAY-1
  6
CONTINUOUS
 62
     3
100
AcDbLine
 10
131.4918940000001
 20
254.69859
 30
0.0
 11
117.4918030000001
 21
254.69859
 31
0.0
  0
LINE
  5
3B5
330
1F
100
AcDbEntity
  8
LAY-1
  6
CONTINUOUS
 62
     1
100
AcDbLine
 10
117.4918030000001
 20
257.8486139999999
 30
0.0
 11
118.6286440000001
 21
254.69859
 31
0.0
  0
LINE
  5
3B6
330
1F
100
AcDbEntity
  8
LAY-1
  6
CONTINUOUS
 62
     1
100
AcDbLine
 10
131.4918940000001
 20
257.8486139999999
 30
0.0
 11
130.3550840000001
 21
254.69859
 31
0.0
  0
LINE
  5
3B7
330
1F
100
AcDbEntity
  8
LAY-1
  6
CONTINUOUS
 62
     1
100
AcDbLine
 10
118.6284910000001
 20
248.1329459999999
 30
0.0
 11
118.6284910000001
 21
254.69859
 31
0.0
  0
LINE
  5
3B8
330
1F
100
AcDbEntity
  8
LAY-1
  6
CONTINUOUS
 62
     3
100
AcDbLine
 10
117.49165
 20
248.1329769999999
 30
0.0
 11
117.49165
 21
257.572979
 31
0.0
  0
LINE
  5
3B9
330
1F
100
AcDbEntity
  8
LAY-1
  6
CONTINUOUS
 62
     3
100
AcDbLine
 10
114.4917720000001
 20
216.132962
 30
0.0
 11
114.4918030000001
 21
216.132962
 31
0.0
  0
ARC
  5
3BA
330
1F
100
AcDbEntity
  8
LAY-1
  6
CONTINUOUS
 62
     3
100
AcDbCircle
 10
136.8872190000001
 20
243.7602659999999
 30
0.0
 40
2.396373
100
AcDbArc
 50
109.1813851977996
 51
178.4062605970643
  0
ARC
  5
3BB
330
1F
100
AcDbEntity
  8
LAY-1
  6
CONTINUOUS
 62
     3
100
AcDbCircle
 10
112.0963250000001
 20
243.7602659999999
 30
0.0
 40
2.396373
100
AcDbArc
 50
1.593662259312856
 51
70.81859495435866
  0
LINE
  5
3BC
330
1F
100
AcDbEntity
  8
LAY-1
  6
CONTINUOUS
 62
     3
100
AcDbLine
 10
129.195996
 20
218.3296469999999
 30
0.0
 11
129.195996
 21
242.022503
 31
0.0
  0
LINE
  5
3BD
330
1F
100
AcDbEntity
  8
LAY-1
  6
CONTINUOUS
 62
     3
100
AcDbLine
 10
119.7875490000001
 20
218.3296469999999
 30
0.0
 11
119.7875490000001
 21
242.022503
 31
0.0
  0
LINE
  5
3BE
330
1F
100
AcDbEntity
  8
LAY-1
  6
CONTINUOUS
 62
     3
100
AcDbLine
 10
84.49180300000012
 20
93.13293099999999
 30
0.0
 11
84.49180300000012
 21
77.84003899999993
 31
0.0
  0
LINE
  5
3BF
330
1F
100
AcDbEntity
  8
LAY-1
  6
CONTINUOUS
 62
     3
100
AcDbLine
 10
84.49174200000016
 20
84.83782599999995
 30
0.0
 11
79.75181300000008
 21
84.67231399999991
 31
0.0
  0
LINE
  5
3C0
330
1F
100
AcDbEntity
  8
LAY-1
  6
CONTINUOUS
 62
     1
100
AcDbLine
 10
84.46421500000008
 20
85.62685799999997
 30
0.0
 11
79.75181300000008
 21
85.46229199999993
 31
0.0
  0
LINE
  5
3C1
330
1F
100
AcDbEntity
  8
LAY-1
  6
CONTINUOUS
 62
     3
100
AcDbLine
 10
133.4917720000001
 20
87.13293099999999
 30
0.0
 11
124.4917720000001
 21
87.13293099999999
 31
0.0
  0
LINE
  5
3C2
330
1F
100
AcDbEntity
  8
LAY-1
  6
CONTINUOUS
 62
     3
100
AcDbLine
 10
134.4917720000001
 20
86.13293099999999
 30
0.0
 11
134.4917720000001
 21
78.13293099999999
 31
0.0
  0
ARC
  5
3C3
330
1F
100
AcDbEntity
  8
LAY-1
  6
CONTINUOUS
 62
     3
100
AcDbCircle
 10
133.4917720000001
 20
86.13293099999999
 30
0.0
 40
1.0
100
AcDbArc
 50
359.9999801521565
 51
90.00001872396959
  0
ARC
  5
3C4
330
1F
100
AcDbEntity
  8
LAY-1
  6
CONTINUOUS
 62
     3
100
AcDbCircle
 10
133.4917720000001
 20
78.13293099999999
 30
0.0
 40
1.0
100
AcDbArc
 50
269.9999988761261
 51
359.9999801521565
  0
LINE
  5
3C5
330
1F
100
AcDbEntity
  8
LAY-1
  6
CONTINUOUS
 62
     3
100
AcDbLine
 10
115.4917720000001
 20
87.13293099999999
 30
0.0
 11
124.4917720000001
 21
87.13293099999999
 31
0.0
  0
ARC
  5
3C6
330
1F
100
AcDbEntity
  8
LAY-1
  6
CONTINUOUS
 62
     3
100
AcDbCircle
 10
115.4917720000001
 20
86.13293099999999
 30
0.0
 40
1.0
100
AcDbArc
 50
89.99997902828265
 51
180.0000176000941
  0
LINE
  5
3C7
330
1F
100
AcDbEntity
  8
LAY-1
  6
CONTINUOUS
 62
     3
100
AcDbLine
 10
115.4917720000001
 20
77.13293099999999
 30
0.0
 11
124.4917720000001
 21
77.13293099999999
 31
0.0
  0
LINE
  5
3C8
330
1F
100
AcDbEntity
  8
LAY-1
  6
CONTINUOUS
 62
     3
100
AcDbLine
 10
114.4917720000001
 20
86.13293099999999
 30
0.0
 11
114.4917720000001
 21
78.13293099999999
 31
0.0
  0
ARC
  5
3C9
330
1F
100
AcDbEntity
  8
LAY-1
  6
CONTINUOUS
 62
     3
100
AcDbCircle
 10
115.4917720000001
 20
78.13293099999999
 30
0.0
 40
1.0
100
AcDbArc
 50
180.0000176000941
 51
269.9999988761261
  0
ARC
  5
3CA
330
1F
100
AcDbEntity
  8
LAY-1
  6
CONTINUOUS
 62
     3
100
AcDbCircle
 10
104.4917720000001
 20
90.13293099999999
 30
0.0
 40
13.00000000000001
100
AcDbArc
 50
180.0000176000938
 51
269.9999988761256
  0
ARC
  5
3CB
330
1F
100
AcDbEntity
  8
LAY-1
  6
CONTINUOUS
 62
     3
100
AcDbCircle
 10
160.991742
 20
200.1329459999999
 30
0.0
 40
1.0
100
AcDbArc
 50
269.9999988761261
 51
359.9999801521565
  0
LINE
  5
3CC
330
1F
100
AcDbEntity
  8
LAY-1
  6
CONTINUOUS
 62
     3
100
AcDbLine
 10
134.4917720000001
 20
209.1329459999999
 30
0.0
 11
161.9917720000001
 21
209.1329459999999
 31
0.0
  0
LINE
  5
3CD
330
1F
100
AcDbEntity
  8
LAY-1
  6
CONTINUOUS
 62
     3
100
AcDbLine
 10
114.4917720000001
 20
209.1329459999999
 30
0.0
 11
86.99180300000012
 21
209.1329459999999
 31
0.0
  0
LINE
  5
3CE
330
1F
100
AcDbEntity
  8
LAY-1
  6
CONTINUOUS
 62
     3
100
AcDbLine
 10
120.4917420000002
 20
244.632916
 30
0.0
 11
131.4917420000002
 21
244.632916
 31
0.0
  0
LINE
  5
3CF
330
1F
100
AcDbEntity
  8
LAY-1
  6
EXLTYPE5
 62
     1
100
AcDbLine
 10
248.0793141063606
 20
215.7205031063614
 30
0.0
 11
232.5229649202565
 21
200.1641539202574
 31
0.0
  0
LINE
  5
3D0
330
1F
100
AcDbEntity
  8
LAY-1
  6
CONTINUOUS
 62
     3
100
AcDbLine
 10
234.49180670946
 20
241.1329310000024
 30
0.0
 11
194.4916772905409
 21
241.1329310000024
 31
0.0
  0
LINE
  5
3D1
330
1F
100
AcDbEntity
  8
LAY-1
  6
CONTINUOUS
 62
     3
100
AcDbLine
 10
194.4916772905409
 20
259.1329146637282
 30
0.0
 11
214.491742
 21
259.1329146637282
 31
0.0
  0
LINE
  5
3D2
330
1F
100
AcDbEntity
  8
LAY-1
  6
CONTINUOUS
 62
     3
100
AcDbLine
 10
234.4918067094591
 20
259.1329146637282
 30
0.0
 11
214.4917419999999
 21
259.1329146637282
 31
0.0
  0
LINE
  5
3D3
330
1F
100
AcDbEntity
  8
LAY-1
  6
CONTINUOUS
 62
     3
100
AcDbLine
 10
203.491742
 20
261.782931000001
 30
0.0
 11
203.491742
 21
259.13291466373
 31
0.0
  0
LINE
  5
3D4
330
1F
100
AcDbEntity
  8
LAY-1
  6
CONTINUOUS
 62
     3
100
AcDbLine
 10
225.4917419999999
 20
261.782931000001
 30
0.0
 11
225.4917419999999
 21
259.13291466373
 31
0.0
  0
LINE
  5
3D5
330
1F
100
AcDbEntity
  8
LAY-1
  6
CONTINUOUS
 62
     3
100
AcDbLine
 10
212.4917419999999
 20
268.132931
 30
0.0
 11
212.4917419999999
 21
259.13291466373
 31
0.0
  0
LINE
  5
3D6
330
1F
100
AcDbEntity
  8
LAY-1
  6
CONTINUOUS
 62
     3
100
AcDbLine
 10
216.4917419999999
 20
268.132931
 30
0.0
 11
216.4917419999999
 21
259.13291466373
 31
0.0
  0
LINE
  5
3D7
330
1F
100
AcDbEntity
  8
LAY-1
  6
CONTINUOUS
 62
     3
100
AcDbLine
 10
181.9917419999999
 20
239.1329310000021
 30
0.0
 11
214.491742
 21
239.1329310000021
 31
0.0
  0
LINE
  5
3D8
330
1F
100
AcDbEntity
  8
LAY-1
  6
CONTINUOUS
 62
     3
100
AcDbLine
 10
246.9917420000002
 20
239.1329310000022
 30
0.0
 11
214.491742
 21
239.1329310000022
 31
0.0
  0
LINE
  5
3D9
330
1F
100
AcDbEntity
  8
LAY-1
  6
CONTINUOUS
 62
     3
100
AcDbLine
 10
225.4917419999999
 20
261.782931000001
 30
0.0
 11
225.4917419999999
 21
259.1329146637282
 31
0.0
  0
LINE
  5
3DA
330
1F
100
AcDbEntity
  8
LAY-1
  6
CONTINUOUS
 62
     3
100
AcDbLine
 10
203.491742
 20
261.782931000001
 30
0.0
 11
203.491742
 21
259.1329146637282
 31
0.0
  0
LINE
  5
3DB
330
1F
100
AcDbEntity
  8
LAY-1
  6
CONTINUOUS
 62
     3
100
AcDbLine
 10
216.4917419999999
 20
268.132931
 30
0.0
 11
216.4917419999999
 21
259.1329146637282
 31
0.0
  0
LINE
  5
3DC
330
1F
100
AcDbEntity
  8
LAY-1
  6
CONTINUOUS
 62
     1
100
AcDbLine
 10
210.3601591835147
 20
259.1329146637289
 30
0.0
 11
210.9877946315789
 21
261.782931
 31
0.0
  0
LINE
  5
3DD
330
1F
100
AcDbEntity
  8
LAY-1
  6
CONTINUOUS
 62
     1
100
AcDbLine
 10
204.995689368421
 20
261.782931
 30
0.0
 11
205.6233248164853
 21
259.1329146637289
 31
0.0
  0
LINE
  5
3DE
330
1F
100
AcDbEntity
  8
LAY-1
  6
CONTINUOUS
 62
     1
100
AcDbLine
 10
217.995689368421
 20
261.782931
 30
0.0
 11
218.6233248164853
 21
259.1329146637289
 31
0.0
  0
LINE
  5
3DF
330
1F
100
AcDbEntity
  8
LAY-1
  6
CONTINUOUS
 62
     1
100
AcDbLine
 10
223.3601591835147
 20
259.1329146637289
 30
0.0
 11
223.9877946315789
 21
261.782931
 31
0.0
  0
LINE
  5
3E0
330
1F
100
AcDbEntity
  8
LAY-1
  6
CONTINUOUS
 62
     1
100
AcDbLine
 10
217.9956893684212
 20
261.782931
 30
0.0
 11
218.6233248164854
 21
259.1329146637289
 31
0.0
  0
LINE
  5
3E1
330
1F
100
AcDbEntity
  8
LAY-1
  6
EXLTYPE5
 62
     1
100
AcDbLine
 10
180.9041698936395
 20
215.7205031063614
 30
0.0
 11
196.4605190797436
 21
200.1641539202574
 31
0.0
  0
LINE
  5
3E2
330
1F
100
AcDbEntity
  8
LAY-1
  6
EXLTYPE5
 62
     1
100
AcDbLine
 10
180.9041698936398
 20
148.5453588936397
 30
0.0
 11
196.4605190797438
 21
164.1017080797438
 31
0.0
  0
LINE
  5
3E3
330
1F
100
AcDbEntity
  8
LAY-1
  6
EXLTYPE5
 62
     1
100
AcDbLine
 10
248.0793141063609
 20
148.5453588936404
 30
0.0
 11
232.5229649202568
 21
164.1017080797443
 31
0.0
  0
LINE
  5
3E4
330
1F
100
AcDbEntity
  8
LAY-1
  6
CONTINUOUS
 62
     3
100
AcDbLine
 10
214.491742
 20
109.1329459999999
 30
0.0
 11
199.198896
 21
109.1329459999999
 31
0.0
  0
LINE
  5
3E5
330
1F
100
AcDbEntity
  8
LAY-1
  6
CONTINUOUS
 62
     3
100
AcDbLine
 10
214.4917419999999
 20
109.1329459999999
 30
0.0
 11
229.784589
 21
109.1329459999999
 31
0.0
  0
LINE
  5
3E6
330
1F
100
AcDbEntity
  8
LAY-1
  6
CONTINUOUS
 62
     3
100
AcDbLine
 10
206.031171
 20
104.3929489999999
 30
0.0
 11
206.1966900602787
 21
109.1329460000001
 31
0.0
  0
LINE
  5
3E7
330
1F
100
AcDbEntity
  8
LAY-1
  6
CONTINUOUS
 62
     1
100
AcDbLine
 10
206.8212709999999
 20
104.3929489999999
 30
0.0
 11
206.986798123173
 21
109.1329459999998
 31
0.0
  0
LINE
  5
3E8
330
1F
100
AcDbEntity
  8
LAY-1
  6
CONTINUOUS
 62
     3
100
AcDbLine
 10
206.031293
 20
104.3929489999999
 30
0.0
 11
206.1968120602787
 21
109.1329460000001
 31
0.0
  0
LINE
  5
3E9
330
1F
100
AcDbEntity
  8
LAY-1
  6
CONTINUOUS
 62
     1
100
AcDbLine
 10
206.821149
 20
104.3929489999999
 30
0.0
 11
206.9866761231731
 21
109.1329459999998
 31
0.0
  0
LINE
  5
3EA
330
1F
100
AcDbEntity
  8
LAY-1
  6
CONTINUOUS
 62
     1
100
AcDbLine
 10
222.162213
 20
104.3929489999999
 30
0.0
 11
221.9966858768269
 21
109.1329459999999
 31
0.0
  0
LINE
  5
3EB
330
1F
100
AcDbEntity
  8
LAY-1
  6
CONTINUOUS
 62
     1
100
AcDbLine
 10
222.162336
 20
104.3929489999999
 30
0.0
 11
221.9968084768271
 21
109.1329459999999
 31
0.0
  0
LINE
  5
3EC
330
1F
100
AcDbEntity
  8
LAY-1
  6
CONTINUOUS
 62
     3
100
AcDbLine
 10
222.952191
 20
104.3929489999999
 30
0.0
 11
222.7866723697661
 21
109.1329459999999
 31
0.0
  0
LINE
  5
3ED
330
1F
100
AcDbEntity
  8
LAY-1
  6
CONTINUOUS
 62
     3
100
AcDbLine
 10
222.952314
 20
104.3929489999999
 30
0.0
 11
222.7867949397213
 21
109.1329459999999
 31
0.0
  0
ARC
  5
3EE
330
1F
100
AcDbEntity
  8
LAY-1
  6
CONTINUOUS
 62
     3
100
AcDbCircle
 10
598.4967839999999
 20
218.1329459999999
 30
0.0
 40
1.0
100
AcDbArc
 50
359.9999823999061
 51
90.00002097171735
  0
LINE
  5
3EF
330
1F
100
AcDbEntity
  8
LAY-1
  6
CONTINUOUS
 62
     3
100
AcDbLine
 10
546.9968450000001
 20
246.1329769999999
 30
0.0
 11
546.9968450000001
 21
230.132962
 31
0.0
  0
LINE
  5
3F0
330
1F
100
AcDbEntity
  8
LAY-1
  6
CONTINUOUS
 62
     3
100
AcDbLine
 10
561.996815
 20
248.1329769999999
 30
0.0
 11
548.9968450000001
 21
248.1329769999999
 31
0.0
  0
LINE
  5
3F1
330
1F
100
AcDbEntity
  8
LAY-1
  6
CONTINUOUS
 62
     3
100
AcDbLine
 10
551.996815
 20
228.132962
 30
0.0
 11
548.9968450000001
 21
228.132962
 31
0.0
  0
LINE
  5
3F2
330
1F
100
AcDbEntity
  8
LAY-1
  6
CONTINUOUS
 62
     3
100
AcDbLine
 10
561.996815
 20
248.1329769999999
 30
0.0
 11
574.9968450000001
 21
248.1329769999999
 31
0.0
  0
LINE
  5
3F3
330
1F
100
AcDbEntity
  8
LAY-1
  6
CONTINUOUS
 62
     3
100
AcDbLine
 10
571.996815
 20
228.132962
 30
0.0
 11
574.9968450000001
 21
228.132962
 31
0.0
  0
LINE
  5
3F4
330
1F
100
AcDbEntity
  8
LAY-1
  6
CONTINUOUS
 62
     3
100
AcDbLine
 10
576.9968450000001
 20
246.1329769999999
 30
0.0
 11
576.9968450000001
 21
230.132962
 31
0.0
  0
LINE
  5
3F5
330
1F
100
AcDbEntity
  8
LAY-1
  6
CONTINUOUS
 62
     3
100
AcDbLine
 10
575.7378120000001
 20
258.1329769999999
 30
0.0
 11
548.255817
 21
258.1329769999999
 31
0.0
  0
ARC
  5
3F6
330
1F
100
AcDbEntity
  8
LAY-1
  6
CONTINUOUS
 62
     3
100
AcDbCircle
 10
569.5567510000001
 20
257.572979
 30
0.0
 40
0.56
100
AcDbArc
 50
89.99998127603166
 51
180.0000198478429
  0
ARC
  5
3F7
330
1F
100
AcDbEntity
  8
LAY-1
  6
CONTINUOUS
 62
     3
100
AcDbCircle
 10
554.4366950000001
 20
257.572979
 30
0.0
 40
0.56
100
AcDbArc
 50
0.0
 51
90.00003857181116
  0
LINE
  5
3F8
330
1F
100
AcDbEntity
  8
LAY-1
  6
CONTINUOUS
 62
     3
100
AcDbLine
 10
550.446735
 20
267.932965
 30
0.0
 11
573.5467410000001
 21
267.932965
 31
0.0
  0
LINE
  5
3F9
330
1F
100
AcDbEntity
  8
LAY-1
  6
CONTINUOUS
 62
     3
100
AcDbLine
 10
573.5467410000001
 20
267.932965
 30
0.0
 11
575.7378120000001
 21
266.66795
 31
0.0
  0
ARC
  5
3FA
330
1F
100
AcDbEntity
  8
LAY-1
  6
CONTINUOUS
 62
     3
100
AcDbCircle
 10
561.9972720000001
 20
248.643292
 30
0.0
 40
19.289963
100
AcDbArc
 50
69.13641071569688
 51
110.8667604000192
  0
ARC
  5
3FB
330
1F
100
AcDbEntity
  8
LAY-1
  6
CONTINUOUS
 62
     3
100
AcDbCircle
 10
573.6101880000001
 20
258.4028739999999
 30
0.0
 40
9.530660000000003
100
AcDbArc
 50
90.38145657602976
 51
119.8500510783163
  0
LINE
  5
3FC
330
1F
100
AcDbEntity
  8
LAY-1
  6
CONTINUOUS
 62
     3
100
AcDbLine
 10
550.446735
 20
267.932965
 30
0.0
 11
548.2556340000001
 21
266.66795
 31
0.0
  0
ARC
  5
3FD
330
1F
100
AcDbEntity
  8
LAY-1
  6
CONTINUOUS
 62
     3
100
AcDbCircle
 10
550.3832890000001
 20
258.4028739999999
 30
0.0
 40
9.530660000000003
100
AcDbArc
 50
60.14996876952651
 51
89.61856327181307
  0
LINE
  5
3FE
330
1F
100
AcDbEntity
  8
LAY-1
  6
CONTINUOUS
 62
     3
100
AcDbLine
 10
575.7378120000001
 20
258.1329769999999
 30
0.0
 11
575.737873
 21
266.6678889999999
 31
0.0
  0
LINE
  5
3FF
330
1F
100
AcDbEntity
  8
LAY-1
  6
CONTINUOUS
 62
     3
100
AcDbLine
 10
568.867115
 20
258.1330379999999
 30
0.0
 11
568.867115
 21
266.66795
 31
0.0
  0
LINE
  5
400
330
1F
100
AcDbEntity
  8
LAY-1
  6
CONTINUOUS
 62
     3
100
AcDbLine
 10
555.126301
 20
258.1330379999999
 30
0.0
 11
555.126301
 21
266.66795
 31
0.0
  0
LINE
  5
401
330
1F
100
AcDbEntity
  8
LAY-1
  6
CONTINUOUS
 62
     3
100
AcDbLine
 10
548.2556340000001
 20
258.1329769999999
 30
0.0
 11
548.255604
 21
266.6678889999999
 31
0.0
  0
LINE
  5
402
330
1F
100
AcDbEntity
  8
LAY-1
  6
CONTINUOUS
 62
     3
100
AcDbLine
 10
554.996693
 20
254.69859
 30
0.0
 11
568.9967839999999
 21
254.69859
 31
0.0
  0
LINE
  5
403
330
1F
100
AcDbEntity
  8
LAY-1
  6
CONTINUOUS
 62
     1
100
AcDbLine
 10
568.9967839999999
 20
257.8486139999999
 30
0.0
 11
567.8599429999999
 21
254.69859
 31
0.0
  0
LINE
  5
404
330
1F
100
AcDbEntity
  8
LAY-1
  6
CONTINUOUS
 62
     1
100
AcDbLine
 10
554.996693
 20
257.8486139999999
 30
0.0
 11
556.133503
 21
254.69859
 31
0.0
  0
LINE
  5
405
330
1F
100
AcDbEntity
  8
LAY-1
  6
CONTINUOUS
 62
     3
100
AcDbLine
 10
571.996815
 20
209.1329459999999
 30
0.0
 11
599.4967839999999
 21
209.1329459999999
 31
0.0
  0
ARC
  5
406
330
1F
100
AcDbEntity
  8
LAY-1
  6
CONTINUOUS
 62
     3
100
AcDbCircle
 10
520.996815
 20
197.1329770000002
 30
0.0
 40
1.0
100
AcDbArc
 50
0.0
 51
90.00000000000001
  0
LINE
  5
407
330
1F
100
AcDbEntity
  8
LAY-1
  6
CONTINUOUS
 62
     3
100
AcDbLine
 10
521.996815
 20
191.1329769999999
 30
0.0
 11
521.996815
 21
197.1329770000002
 31
0.0
  0
ARC
  5
408
330
1F
100
AcDbEntity
  8
LAY-1
  6
CONTINUOUS
 62
     3
100
AcDbCircle
 10
520.996815
 20
191.1329769999999
 30
0.0
 40
1.0
100
AcDbArc
 50
270.0
 51
0.0
  0
LINE
  5
409
330
1F
100
AcDbEntity
  8
LAY-1
  6
CONTINUOUS
 62
     3
100
AcDbLine
 10
520.996815
 20
190.1329770000002
 30
0.0
 11
505.996815
 21
190.1329770000002
 31
0.0
  0
ARC
  5
40A
330
1F
100
AcDbEntity
  8
LAY-1
  6
CONTINUOUS
 62
     3
100
AcDbCircle
 10
505.996815
 20
192.1329770000002
 30
0.0
 40
2.0
100
AcDbArc
 50
180.0
 51
270.0
  0
LINE
  5
40B
330
1F
100
AcDbEntity
  8
LAY-1
  6
CONTINUOUS
 62
     3
100
AcDbLine
 10
520.996815
 20
198.1329770000002
 30
0.0
 11
512.996815
 21
198.1329770000002
 31
0.0
  0
ARC
  5
40C
330
1F
100
AcDbEntity
  8
LAY-1
  6
CONTINUOUS
 62
     3
100
AcDbCircle
 10
512.996815
 20
199.1329770000002
 30
0.0
 40
1.0
100
AcDbArc
 50
180.0
 51
270.0
  0
ARC
  5
40D
330
1F
100
AcDbEntity
  8
LAY-1
  6
CONTINUOUS
 62
     3
100
AcDbCircle
 10
531.996815
 20
208.786437240421
 30
0.0
 40
20.0
100
AcDbArc
 50
105.0000000000004
 51
179.9999999999999
  0
ARC
  5
40E
330
1F
100
AcDbEntity
  8
LAY-1
  6
CONTINUOUS
 62
     3
100
AcDbCircle
 10
531.996815
 20
208.786437240421
 30
0.0
 40
28.0
100
AcDbArc
 50
105.0000000000004
 51
179.9999999999999
  0
LINE
  5
40F
330
1F
100
AcDbEntity
  8
LAY-1
  6
CONTINUOUS
 62
     3
100
AcDbLine
 10
547.996815
 20
248.1329770000001
 30
0.0
 11
561.996815
 21
248.132977
 31
0.0
  0
ARC
  5
410
330
1F
100
AcDbEntity
  8
LAY-1
  6
CONTINUOUS
 62
     3
100
AcDbCircle
 10
547.996815
 20
247.1329770000001
 30
0.0
 40
1.0
100
AcDbArc
 50
90.00000000000001
 51
180.0
  0
ARC
  5
411
330
1F
100
AcDbEntity
  8
LAY-1
  6
CONTINUOUS
 62
     3
100
AcDbCircle
 10
547.996815
 20
229.1329770000001
 30
0.0
 40
1.0
100
AcDbArc
 50
180.0
 51
270.0
  0
LINE
  5
412
330
1F
100
AcDbEntity
  8
LAY-1
  6
CONTINUOUS
 62
     3
100
AcDbLine
 10
524.7498817371293
 20
235.8323603765149
 30
0.0
 11
546.2556340451026
 21
241.5948093400602
 31
0.0
  0
ARC
  5
413
330
1F
100
AcDbEntity
  8
LAY-1
  6
CONTINUOUS
 62
     3
100
AcDbCircle
 10
545.996815
 20
242.5607351663493
 30
0.0
 40
1.0
100
AcDbArc
 50
285.0000000000004
 51
0.0
  0
LINE
  5
414
330
1F
100
AcDbEntity
  8
LAY-1
  6
CONTINUOUS
 62
     3
100
AcDbLine
 10
546.996815
 20
229.1329770000001
 30
0.0
 11
546.996815
 21
232.2079733622485
 31
0.0
  0
ARC
  5
415
330
1F
100
AcDbEntity
  8
LAY-1
  6
CONTINUOUS
 62
     3
100
AcDbCircle
 10
545.996815
 20
232.2079733622485
 30
0.0
 40
1.0
100
AcDbArc
 50
0.0
 51
105.0000000000004
  0
LINE
  5
416
330
1F
100
AcDbEntity
  8
LAY-1
  6
CONTINUOUS
 62
     3
100
AcDbLine
 10
546.996815
 20
247.1329770000001
 30
0.0
 11
546.996815
 21
242.5607351663501
 31
0.0
  0
LINE
  5
417
330
1F
100
AcDbEntity
  8
LAY-1
  6
CONTINUOUS
 62
     3
100
AcDbLine
 10
524.7498817371293
 20
240.9323603765149
 30
0.0
 11
546.2556340451026
 21
246.6948093400603
 31
0.0
  0
ARC
  5
418
330
1F
100
AcDbEntity
  8
LAY-1
  6
CONTINUOUS
 62
     3
100
AcDbCircle
 10
531.996815
 20
213.8864372404209
 30
0.0
 40
28.0
100
AcDbArc
 50
105.0000000000004
 51
179.9999999999999
  0
LINE
  5
419
330
1F
100
AcDbEntity
  8
LAY-1
  6
CONTINUOUS
 62
     3
100
AcDbLine
 10
503.996815
 20
213.8864372404211
 30
0.0
 11
503.996815
 21
192.1329770000002
 31
0.0
  0
LINE
  5
41A
330
1F
100
AcDbEntity
  8
LAY-1
  6
CONTINUOUS
 62
     3
100
AcDbLine
 10
511.996815
 20
209.9329770000001
 30
0.0
 11
511.996815
 21
199.1329770000002
 31
0.0
  0
LINE
  5
41B
330
1F
100
AcDbEntity
  8
LAY-1
  6
CONTINUOUS
 62
     3
100
AcDbLine
 10
545.7379959548975
 20
233.1738991885376
 30
0.0
 11
526.8204340979494
 21
228.1049537662024
 31
0.0
  0
ARC
  5
41C
330
1F
100
AcDbEntity
  8
LAY-1
  6
CONTINUOUS
 62
     3
100
AcDbCircle
 10
617.996815
 20
192.1329770000001
 30
0.0
 40
2.0
100
AcDbArc
 50
270.0
 51
0.0
  0
LINE
  5
41D
330
1F
100
AcDbEntity
  8
LAY-1
  6
CONTINUOUS
 62
     3
100
AcDbLine
 10
602.996815
 20
198.1329770000001
 30
0.0
 11
610.996815
 21
198.1329770000001
 31
0.0
  0
ARC
  5
41E
330
1F
100
AcDbEntity
  8
LAY-1
  6
CONTINUOUS
 62
     3
100
AcDbCircle
 10
591.996815
 20
208.7864372404209
 30
0.0
 40
20.0
100
AcDbArc
 50
0.0
 51
74.99999999999949
  0
ARC
  5
41F
330
1F
100
AcDbEntity
  8
LAY-1
  6
CONTINUOUS
 62
     3
100
AcDbCircle
 10
591.996815
 20
208.7864372404209
 30
0.0
 40
28.0
100
AcDbArc
 50
0.0
 51
74.99999999999953
  0
ARC
  5
420
330
1F
100
AcDbEntity
  8
LAY-1
  6
CONTINUOUS
 62
     3
100
AcDbCircle
 10
575.996815
 20
247.132977
 30
0.0
 40
1.0
100
AcDbArc
 50
0.0
 51
90.00000000000001
  0
ARC
  5
421
330
1F
100
AcDbEntity
  8
LAY-1
  6
CONTINUOUS
 62
     3
100
AcDbCircle
 10
575.996815
 20
229.1329770000001
 30
0.0
 40
1.0
100
AcDbArc
 50
270.0
 51
0.0
  0
LINE
  5
422
330
1F
100
AcDbEntity
  8
LAY-1
  6
CONTINUOUS
 62
     3
100
AcDbLine
 10
576.996815
 20
229.1329770000001
 30
0.0
 11
576.996815
 21
232.2079733622485
 31
0.0
  0
ARC
  5
423
330
1F
100
AcDbEntity
  8
LAY-1
  6
CONTINUOUS
 62
     3
100
AcDbCircle
 10
577.996815
 20
232.2079733622485
 30
0.0
 40
1.0
100
AcDbArc
 50
75.0000000000004
 51
180.0
  0
LINE
  5
424
330
1F
100
AcDbEntity
  8
LAY-1
  6
CONTINUOUS
 62
     3
100
AcDbLine
 10
576.996815
 20
247.1329770000001
 30
0.0
 11
576.996815
 21
242.56073516635
 31
0.0
  0
LINE
  5
425
330
1F
100
AcDbEntity
  8
LAY-1
  6
CONTINUOUS
 62
     3
100
AcDbLine
 10
599.2437482628709
 20
235.8323603765148
 30
0.0
 11
577.7379959548975
 21
241.5948093400602
 31
0.0
  0
ARC
  5
426
330
1F
100
AcDbEntity
  8
LAY-1
  6
CONTINUOUS
 62
     3
100
AcDbCircle
 10
577.996815
 20
242.5607351663492
 30
0.0
 40
1.0
100
AcDbArc
 50
180.0
 51
254.9999999999989
  0
LINE
  5
427
330
1F
100
AcDbEntity
  8
LAY-1
  6
CONTINUOUS
 62
     3
100
AcDbLine
 10
599.2437482628709
 20
240.9323603765148
 30
0.0
 11
577.7379959548975
 21
246.6948093400601
 31
0.0
  0
ARC
  5
428
330
1F
100
AcDbEntity
  8
LAY-1
  6
CONTINUOUS
 62
     3
100
AcDbCircle
 10
591.996815
 20
213.8864372404209
 30
0.0
 40
28.0
100
AcDbArc
 50
0.0
 51
74.99999999999949
  0
LINE
  5
429
330
1F
100
AcDbEntity
  8
LAY-1
  6
CONTINUOUS
 62
     3
100
AcDbLine
 10
619.996815
 20
213.8864372404209
 30
0.0
 11
619.996815
 21
192.1329770000001
 31
0.0
  0
LINE
  5
42A
330
1F
100
AcDbEntity
  8
LAY-1
  6
CONTINUOUS
 62
     3
100
AcDbLine
 10
611.996815
 20
209.9329769999999
 30
0.0
 11
611.996815
 21
199.1329770000001
 31
0.0
  0
LINE
  5
42B
330
1F
100
AcDbEntity
  8
LAY-1
  6
CONTINUOUS
 62
     3
100
AcDbLine
 10
578.2556340451024
 20
233.1738991885375
 30
0.0
 11
597.1731959020506
 21
228.1049537662022
 31
0.0
  0
LINE
  5
42C
330
1F
100
AcDbEntity
  8
LAY-1
  6
CONTINUOUS
 62
     3
100
AcDbLine
 10
575.996815
 20
248.132977
 30
0.0
 11
561.996815
 21
248.132977
 31
0.0
  0
LINE
  5
42D
330
1F
100
AcDbEntity
  8
LAY-1
  6
CONTINUOUS
 62
     3
100
AcDbLine
 10
597.0686117697301
 20
228.1329770000001
 30
0.0
 11
526.9250182302751
 21
228.1329770000002
 31
0.0
  0
ARC
  5
42E
330
1F
100
AcDbEntity
  8
LAY-1
  6
CONTINUOUS
 62
     3
100
AcDbCircle
 10
545.996815
 20
247.6607351663492
 30
0.0
 40
1.0
100
AcDbArc
 50
285.0000000000015
 51
343.3837327452725
  0
ARC
  5
42F
330
1F
100
AcDbEntity
  8
LAY-1
  6
CONTINUOUS
 62
     3
100
AcDbCircle
 10
577.996815
 20
247.6607351663492
 30
0.0
 40
1.0
100
AcDbArc
 50
196.9308453198353
 51
254.9999999999984
  0
LINE
  5
430
330
1F
100
AcDbEntity
  8
LAY-1
  6
CONTINUOUS
 62
     3
100
AcDbLine
 10
599.496845
 20
209.132931
 30
0.0
 11
524.496845
 21
209.132931
 31
0.0
  0
LINE
  5
431
330
1F
100
AcDbEntity
  8
LAY-1
  6
CONTINUOUS
 62
     3
100
AcDbLine
 10
599.496845
 20
207.132931
 30
0.0
 11
599.496845
 21
209.132931
 31
0.0
  0
ARC
  5
432
330
1F
100
AcDbEntity
  8
LAY-1
  6
CONTINUOUS
 62
     3
100
AcDbCircle
 10
600.496845
 20
207.132931
 30
0.0
 40
1.0
100
AcDbArc
 50
180.0
 51
270.0
  0
ARC
  5
433
330
1F
100
AcDbEntity
  8
LAY-1
  6
CONTINUOUS
 62
     3
100
AcDbCircle
 10
608.496845
 20
205.132931
 30
0.0
 40
1.0
100
AcDbArc
 50
0.0
 51
90.00000000000001
  0
LINE
  5
434
330
1F
100
AcDbEntity
  8
LAY-1
  6
CONTINUOUS
 62
     3
100
AcDbLine
 10
609.496845
 20
199.132931
 30
0.0
 11
609.496845
 21
205.132931
 31
0.0
  0
ARC
  5
435
330
1F
100
AcDbEntity
  8
LAY-1
  6
CONTINUOUS
 62
     3
100
AcDbCircle
 10
523.4968450000002
 20
207.132931
 30
0.0
 40
1.0
100
AcDbArc
 50
270.0
 51
0.0
  0
ARC
  5
436
330
1F
100
AcDbEntity
  8
LAY-1
  6
CONTINUOUS
 62
     3
100
AcDbCircle
 10
515.4968450000002
 20
205.132931
 30
0.0
 40
1.0
100
AcDbArc
 50
90.00000000000001
 51
180.0
  0
ARC
  5
437
330
1F
100
AcDbEntity
  8
LAY-1
  6
CONTINUOUS
 62
     3
100
AcDbCircle
 10
515.4968450000002
 20
205.132931
 30
0.0
 40
1.0
100
AcDbArc
 50
90.00000000000001
 51
180.0
  0
LINE
  5
438
330
1F
100
AcDbEntity
  8
LAY-1
  6
CONTINUOUS
 62
     3
100
AcDbLine
 10
514.4968450000002
 20
199.132931
 30
0.0
 11
514.4968450000002
 21
205.132931
 31
0.0
  0
ARC
  5
439
330
1F
100
AcDbEntity
  8
LAY-1
  6
CONTINUOUS
 62
     3
100
AcDbCircle
 10
515.4968450000002
 20
199.132931
 30
0.0
 40
1.0
100
AcDbArc
 50
180.0
 51
270.0
  0
LINE
  5
43A
330
1F
100
AcDbEntity
  8
LAY-1
  6
CONTINUOUS
 62
     3
100
AcDbLine
 10
524.496845
 20
206.732931
 30
0.0
 11
524.496845
 21
209.132931
 31
0.0
  0
LINE
  5
43B
330
1F
100
AcDbEntity
  8
LAY-1
  6
CONTINUOUS
 62
     3
100
AcDbLine
 10
599.4968450000002
 20
207.132931
 30
0.0
 11
599.4968450000002
 21
209.132931
 31
0.0
  0
ARC
  5
43C
330
1F
100
AcDbEntity
  8
LAY-1
  6
CONTINUOUS
 62
     3
100
AcDbCircle
 10
516.4968450000002
 20
189.6675849759609
 30
0.0
 40
2.0
100
AcDbArc
 50
180.0
 51
255.0000000000008
  0
LINE
  5
43D
330
1F
100
AcDbEntity
  8
LAY-1
  6
CONTINUOUS
 62
     3
100
AcDbLine
 10
527.5144830902051
 20
184.6448653863722
 30
0.0
 11
515.9792069097952
 21
187.7357333233828
 31
0.0
  0
ARC
  5
43E
330
1F
100
AcDbEntity
  8
LAY-1
  6
CONTINUOUS
 62
     3
100
AcDbCircle
 10
526.9968450000002
 20
182.7130137337941
 30
0.0
 40
2.0
100
AcDbArc
 50
0.0
 51
75.0000000000008
  0
LINE
  5
43F
330
1F
100
AcDbEntity
  8
LAY-1
  6
EXLTYPE5
 62
     1
100
AcDbLine
 10
519.496845
 20
182.1329310000001
 30
0.0
 11
587.0968450000001
 21
182.1329310000001
 31
0.0
  0
LINE
  5
440
330
1F
100
AcDbEntity
  8
LAY-1
  6
CONTINUOUS
 62
     3
100
AcDbLine
 10
521.9050960679389
 20
186.1478961090199
 30
0.0
 11
526.4968450000002
 21
146.132931
 31
0.0
  0
ARC
  5
441
330
1F
100
AcDbEntity
  8
LAY-1
  6
CONTINUOUS
 62
     3
100
AcDbCircle
 10
534.4968450000002
 20
146.132931
 30
0.0
 40
8.0
100
AcDbArc
 50
179.9999999999992
 51
226.5674634422035
  0
ARC
  5
442
330
1F
100
AcDbEntity
  8
LAY-1
  6
CONTINUOUS
 62
     3
100
AcDbCircle
 10
525.4967839999999
 20
218.1329459999999
 30
0.0
 40
1.0
100
AcDbArc
 50
89.99997902828592
 51
180.0000176000924
  0
LINE
  5
443
330
1F
100
AcDbEntity
  8
LAY-1
  6
CONTINUOUS
 62
     3
100
AcDbLine
 10
514.4968450000002
 20
198.132931
 30
0.0
 11
514.4968450000002
 21
198.1329770000002
 31
0.0
  0
LINE
  5
444
330
1F
100
AcDbEntity
  8
LAY-1
  6
CONTINUOUS
 62
     3
100
AcDbLine
 10
514.4968450000002
 20
190.1329770000002
 30
0.0
 11
514.4968450000002
 21
189.6675849759609
 31
0.0
  0
LINE
  5
445
330
1F
100
AcDbEntity
  8
LAY-1
  6
CONTINUOUS
 62
     3
100
AcDbLine
 10
528.9968450000001
 20
196.132931
 30
0.0
 11
528.9968450000001
 21
90.13293099999999
 31
0.0
  0
ARC
  5
446
330
1F
100
AcDbEntity
  8
LAY-1
  6
CONTINUOUS
 62
     3
100
AcDbCircle
 10
526.9968450000001
 20
196.132931
 30
0.0
 40
2.0
100
AcDbArc
 50
0.0
 51
90.00000000000001
  0
ARC
  5
447
330
1F
100
AcDbEntity
  8
LAY-1
  6
CONTINUOUS
 62
     3
100
AcDbCircle
 10
607.4967229999996
 20
189.6675849759609
 30
0.0
 40
2.0
100
AcDbArc
 50
284.999999999998
 51
0.0
  0
LINE
  5
448
330
1F
100
AcDbEntity
  8
LAY-1
  6
CONTINUOUS
 62
     3
100
AcDbLine
 10
596.4790849097948
 20
184.6448653863722
 30
0.0
 11
608.0143610902047
 21
187.7357333233828
 31
0.0
  0
ARC
  5
449
330
1F
100
AcDbEntity
  8
LAY-1
  6
CONTINUOUS
 62
     3
100
AcDbCircle
 10
596.9967229999996
 20
182.7130137337941
 30
0.0
 40
2.0
100
AcDbArc
 50
104.9999999999981
 51
180.0
  0
LINE
  5
44A
330
1F
100
AcDbEntity
  8
LAY-1
  6
CONTINUOUS
 62
     3
100
AcDbLine
 10
609.4967229999996
 20
190.1329770000002
 30
0.0
 11
609.4967229999996
 21
189.6675849759609
 31
0.0
  0
LINE
  5
44B
330
1F
100
AcDbEntity
  8
LAY-1
  6
CONTINUOUS
 62
     3
100
AcDbLine
 10
593.9769470000001
 20
156.853131
 30
0.0
 11
593.976940900152
 21
156.853126955602
 31
0.0
  0
ARC
  5
44C
330
1F
100
AcDbEntity
  8
LAY-1
  6
CONTINUOUS
 62
     3
100
AcDbCircle
 10
610.9967529999999
 20
199.1329770000002
 30
0.0
 40
1.0
100
AcDbArc
 50
270.0
 51
0.0
  0
LINE
  5
44D
330
1F
100
AcDbEntity
  8
LAY-1
  6
CONTINUOUS
 62
     3
100
AcDbLine
 10
609.4967229999996
 20
198.132931
 30
0.0
 11
609.4967229999996
 21
198.1329770000002
 31
0.0
  0
ARC
  5
44E
330
1F
100
AcDbEntity
  8
LAY-1
  6
CONTINUOUS
 62
     3
100
AcDbCircle
 10
608.4967229999996
 20
199.132931
 30
0.0
 40
1.0
100
AcDbArc
 50
270.0
 51
0.0
  0
LINE
  5
44F
330
1F
100
AcDbEntity
  8
LAY-1
  6
CONTINUOUS
 62
     3
100
AcDbLine
 10
609.4967229999996
 20
198.132931
 30
0.0
 11
609.4967229999996
 21
198.1329770000002
 31
0.0
  0
LINE
  5
450
330
1F
100
AcDbEntity
  8
LAY-1
  6
CONTINUOUS
 62
     3
100
AcDbLine
 10
619.996815
 20
198.632931
 30
0.0
 11
620.9967839999999
 21
198.632931
 31
0.0
  0
LINE
  5
451
330
1F
100
AcDbEntity
  8
LAY-1
  6
CONTINUOUS
 62
     3
100
AcDbLine
 10
609.496723
 20
190.132977
 30
0.0
 11
609.496723
 21
198.132977
 31
0.0
  0
LINE
  5
452
330
1F
100
AcDbEntity
  8
LAY-1
  6
CONTINUOUS
 62
     3
100
AcDbLine
 10
609.496723
 20
190.1329770000001
 30
0.0
 11
617.996815
 21
190.1329770000001
 31
0.0
  0
ARC
  5
453
330
1F
100
AcDbEntity
  8
LAY-1
  6
CONTINUOUS
 62
     3
100
AcDbCircle
 10
596.9967229999997
 20
196.132931
 30
0.0
 40
2.0
100
AcDbArc
 50
90.00000000000001
 51
180.0
  0
LINE
  5
454
330
1F
100
AcDbEntity
  8
LAY-1
  6
CONTINUOUS
 62
     3
100
AcDbLine
 10
594.9968450000001
 20
196.132931
 30
0.0
 11
594.9968450000001
 21
90.13293099999999
 31
0.0
  0
LINE
  5
455
330
1F
100
AcDbEntity
  8
LAY-1
  6
CONTINUOUS
 62
     3
100
AcDbLine
 10
561.9967839999999
 20
219.1329459999999
 30
0.0
 11
525.4967839999999
 21
219.1329459999999
 31
0.0
  0
LINE
  5
456
330
1F
100
AcDbEntity
  8
LAY-1
  6
CONTINUOUS
 62
     3
100
AcDbLine
 10
561.9967839999999
 20
219.1329459999999
 30
0.0
 11
598.4967839999999
 21
219.1329459999999
 31
0.0
  0
LINE
  5
457
330
1F
100
AcDbEntity
  8
LAY-1
  6
CONTINUOUS
 62
     3
100
AcDbLine
 10
554.996693
 20
219.1329459999999
 30
0.0
 11
554.996693
 21
228.1329770000001
 31
0.0
  0
LINE
  5
458
330
1F
100
AcDbEntity
  8
LAY-1
  6
CONTINUOUS
 62
     3
100
AcDbLine
 10
554.996693
 20
248.1329769999999
 30
0.0
 11
554.996693
 21
257.572979
 31
0.0
  0
LINE
  5
459
330
1F
100
AcDbEntity
  8
LAY-1
  6
CONTINUOUS
 62
     1
100
AcDbLine
 10
556.1335329999999
 20
219.1329459999999
 30
0.0
 11
556.1335329999999
 21
228.1329770000001
 31
0.0
  0
LINE
  5
45A
330
1F
100
AcDbEntity
  8
LAY-1
  6
CONTINUOUS
 62
     1
100
AcDbLine
 10
556.1335329999999
 20
248.1329769999999
 30
0.0
 11
556.1335329999999
 21
254.69859
 31
0.0
  0
LINE
  5
45B
330
1F
100
AcDbEntity
  8
LAY-1
  6
CONTINUOUS
 62
     1
100
AcDbLine
 10
567.8600960000001
 20
219.1329459999999
 30
0.0
 11
567.8600960000001
 21
228.1329770000001
 31
0.0
  0
LINE
  5
45C
330
1F
100
AcDbEntity
  8
LAY-1
  6
CONTINUOUS
 62
     1
100
AcDbLine
 10
567.8600960000001
 20
248.1329769999999
 30
0.0
 11
567.8600960000001
 21
254.69859
 31
0.0
  0
LINE
  5
45D
330
1F
100
AcDbEntity
  8
LAY-1
  6
CONTINUOUS
 62
     3
100
AcDbLine
 10
568.9969370000001
 20
219.1329459999999
 30
0.0
 11
568.9969370000001
 21
228.1329770000001
 31
0.0
  0
LINE
  5
45E
330
1F
100
AcDbEntity
  8
LAY-1
  6
CONTINUOUS
 62
     3
100
AcDbLine
 10
568.9969370000001
 20
248.1329769999999
 30
0.0
 11
568.9969370000001
 21
257.572979
 31
0.0
  0
LINE
  5
45F
330
1F
100
AcDbEntity
  8
LAY-1
  6
CONTINUOUS
 62
     3
100
AcDbLine
 10
516.069904
 20
165.632931
 30
0.0
 11
502.9967839999999
 21
165.632931
 31
0.0
  0
LINE
  5
460
330
1F
100
AcDbEntity
  8
LAY-1
  6
CONTINUOUS
 62
     3
100
AcDbLine
 10
600.518417873622
 20
185.72720139199
 30
0.0
 11
595.772113
 21
131.476956
 31
0.0
  0
ARC
  5
461
330
1F
100
AcDbEntity
  8
LAY-1
  6
CONTINUOUS
 62
     3
100
AcDbCircle
 10
516.069904
 20
155.632931
 30
0.0
 40
10.0
100
AcDbArc
 50
28.4833388556466
 51
90.00001872396828
  0
LINE
  5
462
330
1F
100
AcDbEntity
  8
LAY-1
  6
CONTINUOUS
 62
     3
100
AcDbLine
 10
531.996800336258
 20
259.1329146637282
 30
0.0
 11
548.2556304852444
 21
259.1329146637282
 31
0.0
  0
LINE
  5
463
330
1F
100
AcDbEntity
  8
LAY-1
  6
CONTINUOUS
 62
     3
100
AcDbLine
 10
531.996800336258
 20
242.87416636277
 30
0.0
 11
531.996800336258
 21
259.13291466373
 31
0.0
  0
CIRCLE
  5
464
330
1F
100
AcDbEntity
  8
LAY-1
  6
CONTINUOUS
 62
     3
100
AcDbCircle
 10
561.99699800174
 20
93.13293099999999
 30
0.0
 40
8.460617000676606
  0
CIRCLE
  5
465
330
1F
100
AcDbEntity
  8
LAY-1
  6
CONTINUOUS
 62
     1
100
AcDbCircle
 10
561.996784
 20
93.13280899999995
 30
0.0
 40
7.505111999999998
  0
CIRCLE
  5
466
330
1F
100
AcDbEntity
  8
LAY-1
  6
CONTINUOUS
 62
     3
100
AcDbCircle
 10
561.996784
 20
93.13280899999995
 30
0.0
 40
15.99987800011628
  0
LINE
  5
467
330
1F
100
AcDbEntity
  8
LAY-1
  6
CONTINUOUS
 62
     3
100
AcDbLine
 10
554.49167200099
 20
93.13293099999999
 30
0.0
 11
561.996784
 21
100.637921
 31
0.0
  0
LINE
  5
468
330
1F
100
AcDbEntity
  8
LAY-1
  6
CONTINUOUS
 62
     3
100
AcDbLine
 10
561.996784
 20
100.637921
 30
0.0
 11
569.50189599901
 21
93.13293099999999
 31
0.0
  0
LINE
  5
469
330
1F
100
AcDbEntity
  8
LAY-1
  6
CONTINUOUS
 62
     3
100
AcDbLine
 10
569.50189599901
 20
93.13293099999999
 30
0.0
 11
561.996784
 21
85.62769700000001
 31
0.0
  0
LINE
  5
46A
330
1F
100
AcDbEntity
  8
LAY-1
  6
CONTINUOUS
 62
     3
100
AcDbLine
 10
561.996784
 20
85.62769700000001
 30
0.0
 11
554.49167200099
 21
93.13293099999999
 31
0.0
  0
LINE
  5
46B
330
1F
100
AcDbEntity
  8
LAY-1
  6
EXLTYPE3
 62
     1
100
AcDbLine
 10
337.2010319999999
 20
93.13293099999999
 30
0.0
 11
361.495856
 21
93.13293099999999
 31
0.0
  0
LINE
  5
46C
330
1F
100
AcDbEntity
  8
LAY-1
  6
EXLTYPE3
 62
     1
100
AcDbLine
 10
540.895856
 20
93.13293100000021
 30
0.0
 11
583.495856
 21
93.13293099999999
 31
0.0
  0
LINE
  5
46D
330
1F
100
AcDbEntity
  8
LAY-1
  6
EXLTYPE5
 62
     1
100
AcDbLine
 10
551.9967839999999
 20
278.866473
 30
0.0
 11
551.9967839999999
 21
240.866473
 31
0.0
  0
LINE
  5
46E
330
1F
100
AcDbEntity
  8
LAY-1
  6
CONTINUOUS
 62
     3
100
AcDbLine
 10
494.3391909999996
 20
200.075879
 30
0.0
 11
502.996784
 21
198.6329309999999
 31
0.0
  0
LINE
  5
46F
330
1F
100
AcDbEntity
  8
LAY-1
  6
CONTINUOUS
 62
     3
100
AcDbLine
 10
523.496845
 20
206.132931
 30
0.0
 11
515.4968450000002
 21
206.132931
 31
0.0
  0
LINE
  5
470
330
1F
100
AcDbEntity
  8
LAY-1
  6
CONTINUOUS
 62
     3
100
AcDbLine
 10
600.496845
 20
206.132931
 30
0.0
 11
608.496845
 21
206.132931
 31
0.0
  0
LINE
  5
471
330
1F
100
AcDbEntity
  8
LAY-1
  6
CONTINUOUS
 62
     3
100
AcDbLine
 10
599.4967839999999
 20
218.1329459999999
 30
0.0
 11
599.4967839999999
 21
199.132931
 31
0.0
  0
ARC
  5
472
330
1F
100
AcDbEntity
  8
LAY-1
  6
CONTINUOUS
 62
     3
100
AcDbCircle
 10
598.4967839999999
 20
199.132931
 30
0.0
 40
1.0
100
AcDbArc
 50
270.0
 51
0.0
  0
LINE
  5
473
330
1F
100
AcDbEntity
  8
LAY-1
  6
CONTINUOUS
 62
     3
100
AcDbLine
 10
524.4967839999999
 20
218.1329459999999
 30
0.0
 11
524.4967839999999
 21
199.132931
 31
0.0
  0
ARC
  5
474
330
1F
100
AcDbEntity
  8
LAY-1
  6
CONTINUOUS
 62
     3
100
AcDbCircle
 10
525.4967839999999
 20
199.132931
 30
0.0
 40
1.0
100
AcDbArc
 50
180.0
 51
270.0
  0
LINE
  5
475
330
1F
100
AcDbEntity
  8
LAY-1
  6
CONTINUOUS
 62
     3
100
AcDbLine
 10
561.9967839999999
 20
198.132931
 30
0.0
 11
515.496845
 21
198.132931
 31
0.0
  0
LINE
  5
476
330
1F
100
AcDbEntity
  8
LAY-1
  6
CONTINUOUS
 62
     3
100
AcDbLine
 10
561.996784
 20
198.132931
 30
0.0
 11
602.996815
 21
198.132931
 31
0.0
  0
LINE
  5
477
330
1F
100
AcDbEntity
  8
LAY-1
  6
EXLTYPE3
 62
     1
100
AcDbLine
 10
561.9967839999999
 20
278.866473
 30
0.0
 11
561.9967839999999
 21
68.666473
 31
0.0
  0
LINE
  5
478
330
1F
100
AcDbEntity
  8
LAY-1
  6
EXLTYPE5
 62
     1
100
AcDbLine
 10
7.536070755162314
 20
318.4466702278935
 30
0.0
 11
214.491742
 21
437.9325499999999
 31
0.0
  0
LINE
  5
479
330
1F
100
AcDbEntity
  8
LAY-1
  6
CONTINUOUS
 62
     1
100
AcDbLine
 10
12.80590784902313
 20
327.2627135562103
 30
0.0
 11
17.80595876170867
 21
318.6024889122693
 31
0.0
  0
LINE
  5
47A
330
1F
100
AcDbEntity
  8
LAY-1
  6
EXLTYPE6
 62
     1
100
AcDbLine
 10
12.8059078492596
 20
327.2627135558006
 30
0.0
 11
195.2212315338715
 21
432.5802209392235
 31
0.0
  0
LINE
  5
47B
330
1F
100
AcDbEntity
  8
LAY-1
  6
EXLTYPE6
 62
     1
100
AcDbLine
 10
17.80595876171094
 20
318.6024889122656
 30
0.0
 11
200.2212305066136
 21
423.9199663082918
 31
0.0
  0
LINE
  5
47C
330
1F
100
AcDbEntity
  8
LAY-1
  6
CONTINUOUS
 62
     3
100
AcDbLine
 10
268.6610091582799
 20
408.389971280137
 30
0.0
 11
267.1610091582799
 21
405.7918950687837
 31
0.0
  0
LINE
  5
47D
330
1F
100
AcDbEntity
  8
LAY-1
  6
CONTINUOUS
 62
     3
100
AcDbLine
 10
277.5827368670991
 20
398.0428569631071
 30
0.0
 11
286.8769655011591
 21
396.1409331744604
 31
0.0
  0
LINE
  5
47E
330
1F
100
AcDbEntity
  8
LAY-1
  6
CONTINUOUS
 62
     3
100
AcDbLine
 10
286.8769655011591
 20
396.1409331744604
 30
0.0
 11
280.5827368670991
 21
403.2390093858136
 31
0.0
  0
LINE
  5
47F
330
1F
100
AcDbEntity
  8
LAY-1
  6
CONTINUOUS
 62
     3
100
AcDbLine
 10
280.5827368670991
 20
403.2390093858136
 30
0.0
 11
279.8327368670991
 21
401.939971280137
 31
0.0
  0
LINE
  5
480
330
1F
100
AcDbEntity
  8
LAY-1
  6
CONTINUOUS
 62
     3
100
AcDbLine
 10
278.3327368670991
 20
399.3418950687836
 30
0.0
 11
277.5827368670991
 21
398.0428569631071
 31
0.0
  0
LINE
  5
481
330
1F
100
AcDbEntity
  8
LAY-1
  6
CONTINUOUS
 62
     3
100
AcDbLine
 10
279.8327368670994
 20
401.9399712801368
 30
0.0
 11
268.6610091582799
 21
408.389971280137
 31
0.0
  0
LINE
  5
482
330
1F
100
AcDbEntity
  8
LAY-1
  6
CONTINUOUS
 62
     3
100
AcDbLine
 10
267.1610091582799
 20
405.7918950687837
 30
0.0
 11
278.3327368670994
 21
399.3418950687836
 31
0.0
  0
LINE
  5
483
330
1F
100
AcDbEntity
  8
LAY-1
  6
EXLTYPE2
 62
     1
100
AcDbLine
 10
259.495856
 20
415.4324889999997
 30
0.0
 11
274.0673339999998
 21
415.4324889999997
 31
0.0
  0
LINE
  5
484
330
1F
100
AcDbEntity
  8
LAY-1
  6
EXLTYPE2
 62
     1
100
AcDbLine
 10
170.695856
 20
415.4324889999997
 30
0.0
 11
154.9161499999998
 21
415.4324889999997
 31
0.0
  0
LINE
  5
485
330
1F
100
AcDbEntity
  8
LAY-1
  6
CONTINUOUS
 62
     3
100
AcDbLine
 10
116.491834
 20
190.132977
 30
0.0
 11
132.491834
 21
190.132977
 31
0.0
  0
LINE
  5
486
330
1F
100
AcDbEntity
  8
LAY-1
  6
CONTINUOUS
 62
     3
100
AcDbLine
 10
134.491834
 20
208.1329459999999
 30
0.0
 11
134.4918029999999
 21
208.1329459999999
 31
0.0
  0
ARC
  5
487
330
1F
100
AcDbEntity
  8
LAY-1
  6
CONTINUOUS
 62
     3
100
AcDbCircle
 10
116.491834
 20
192.132977
 30
0.0
 40
2.0
100
AcDbArc
 50
180.0000198478429
 51
270.0000011238745
  0
ARC
  5
488
330
1F
100
AcDbEntity
  8
LAY-1
  6
CONTINUOUS
 62
     3
100
AcDbCircle
 10
132.491834
 20
192.132977
 30
0.0
 40
2.0
100
AcDbArc
 50
270.0000011238745
 51
0.0
  0
LINE
  5
489
330
1F
100
AcDbEntity
  8
LAY-1
  6
CONTINUOUS
 62
     3
100
AcDbLine
 10
135.4918949999999
 20
205.1329459999999
 30
0.0
 11
135.4918949999999
 21
199.132931
 31
0.0
  0
ARC
  5
48A
330
1F
100
AcDbEntity
  8
LAY-1
  6
CONTINUOUS
 62
     3
100
AcDbCircle
 10
134.4918949999999
 20
205.1329459999999
 30
0.0
 40
1.0
100
AcDbArc
 50
0.0
 51
89.99998127603166
  0
ARC
  5
48B
330
1F
100
AcDbEntity
  8
LAY-1
  6
CONTINUOUS
 62
     3
100
AcDbCircle
 10
134.4918949999999
 20
199.132931
 30
0.0
 40
1.0
100
AcDbArc
 50
270.0000011238745
 51
359.9999823999061
  0
LINE
  5
48C
330
1F
100
AcDbEntity
  8
LAY-1
  6
CONTINUOUS
 62
     3
100
AcDbLine
 10
110.491864
 20
206.1329459999999
 30
0.0
 11
114.491864
 21
206.1329459999999
 31
0.0
  0
LINE
  5
48D
330
1F
100
AcDbEntity
  8
LAY-1
  6
CONTINUOUS
 62
     3
100
AcDbLine
 10
109.491864
 20
188.1329459999999
 30
0.0
 11
113.491895
 21
188.1329459999999
 31
0.0
  0
LINE
  5
48E
330
1F
100
AcDbEntity
  8
LAY-1
  6
CONTINUOUS
 62
     3
100
AcDbLine
 10
109.491864
 20
188.1329459999999
 30
0.0
 11
109.491864
 21
205.1329459999999
 31
0.0
  0
LINE
  5
48F
330
1F
100
AcDbEntity
  8
LAY-1
  6
CONTINUOUS
 62
     3
100
AcDbLine
 10
113.491895
 20
188.1329459999999
 30
0.0
 11
113.491895
 21
197.1329459999999
 31
0.0
  0
ARC
  5
490
330
1F
100
AcDbEntity
  8
LAY-1
  6
CONTINUOUS
 62
     3
100
AcDbCircle
 10
106.2425049999999
 20
189.2637749999999
 30
0.0
 40
3.440512000000002
100
AcDbArc
 50
263.8601853912526
 51
340.8112820662978
  0
ARC
  5
491
330
1F
100
AcDbEntity
  8
LAY-1
  6
CONTINUOUS
 62
     3
100
AcDbCircle
 10
116.7412229999999
 20
189.2637749999999
 30
0.0
 40
3.440512000000002
100
AcDbArc
 50
199.1887201814513
 51
266.102971384513
  0
ARC
  5
492
330
1F
100
AcDbEntity
  8
LAY-1
  6
CONTINUOUS
 62
     3
100
AcDbCircle
 10
110.491864
 20
205.1329459999999
 30
0.0
 40
1.0
100
AcDbArc
 50
89.99998127603166
 51
180.0000198478429
  0
ARC
  5
493
330
1F
100
AcDbEntity
  8
LAY-1
  6
CONTINUOUS
 62
     3
100
AcDbCircle
 10
114.491895
 20
197.1329459999999
 30
0.0
 40
1.0
100
AcDbArc
 50
89.99998127603166
 51
180.0000198478429
  0
LINE
  5
494
330
1F
100
AcDbEntity
  8
LAY-1
  6
CONTINUOUS
 62
     3
100
AcDbLine
 10
135.4918949999999
 20
199.1329459999999
 30
0.0
 11
160.991742
 21
199.1329459999999
 31
0.0
  0
LINE
  5
495
330
1F
100
AcDbEntity
  8
LAY-1
  6
CONTINUOUS
 62
     3
100
AcDbLine
 10
109.491864
 20
199.1329459999999
 30
0.0
 11
87.99180300000012
 21
199.1329459999999
 31
0.0
  0
LINE
  5
496
330
1F
100
AcDbEntity
  8
LAY-1
  6
EXLTYPE5
 62
     1
100
AcDbLine
 10
304.491681
 20
277.866473
 30
0.0
 11
304.491681
 21
66.0
 31
0.0
  0
LINE
  5
497
330
1F
100
AcDbEntity
  8
LAY-1
  6
EXLTYPE5
 62
     1
100
AcDbLine
 10
124.4918030000001
 20
277.866473
 30
0.0
 11
124.4918030000001
 21
66.0
 31
0.0
  0
LINE
  5
498
330
1F
100
AcDbEntity
  8
LAY-1
  6
CONTINUOUS
 62
     3
100
AcDbLine
 10
167.9918029999999
 20
447.9325499999999
 30
0.0
 11
167.9918029999999
 21
486.4326110000001
 31
0.0
  0
LINE
  5
499
330
1F
100
AcDbEntity
  8
LAY-1
  6
CONTINUOUS
 62
     3
100
AcDbLine
 10
167.9918029999999
 20
447.9325499999999
 30
0.0
 11
167.9918029999999
 21
409.4324889999997
 31
0.0
  0
TEXT
  5
49B
330
1F
100
AcDbEntity
  8
LAY-1
  6
CONTINUOUS
 62
     3
100
AcDbText
 10
571.495856
 20
456.316473
 30
0.0
 40
10.93758549931601
  1
型式：１０ＦＵＷ－１３Ａ
  7
EXCADTTF1
 72
     5
 11
763.495856
 21
456.316473
 31
0.0
100
AcDbText
  0
TEXT
  5
49C
330
1F
100
AcDbEntity
  8
LAY-1
  6
CONTINUOUS
 62
     3
100
AcDbText
 10
571.495856
 20
434.316473
 30
0.0
 40
10.93758549931601
  1
口径：２０Ａ
  7
EXCADTTF1
 72
     5
 11
667.495856
 21
434.316473
 31
0.0
100
AcDbText
  0
LINE
  5
49D
330
1F
100
AcDbEntity
  8
LAY-1
  6
CONTINUOUS
 62
     3
100
AcDbLine
 10
197.9917419999999
 20
488.4326110000001
 30
0.0
 11
197.9917419999999
 21
506.9325500000006
 31
0.0
  0
LINE
  5
49E
330
1F
100
AcDbEntity
  8
LAY-1
  6
EXLTYPE5
 62
     1
100
AcDbLine
 10
176.9917419999986
 20
535.6316220000001
 30
0.0
 11
176.9917419999986
 21
509.4316220000001
 31
0.0
  0
ARC
  5
49F
330
1F
100
AcDbEntity
  8
LAY-1
  6
CONTINUOUS
 62
     3
100
AcDbCircle
 10
165.4917419999986
 20
519.9325499999999
 30
0.0
 40
1.0
100
AcDbArc
 50
180.0
 51
270.0
  0
LINE
  5
4A0
330
1F
100
AcDbEntity
  8
LAY-1
  6
CONTINUOUS
 62
     3
100
AcDbLine
 10
186.4917419999986
 20
531.93255
 30
0.0
 11
186.4917419999986
 21
532.9325499999999
 31
0.0
  0
LINE
  5
4A1
330
1F
100
AcDbEntity
  8
LAY-1
  6
EXLTYPE5
 62
     1
100
AcDbLine
 10
251.9917419999986
 20
535.6316220000003
 30
0.0
 11
251.9917419999987
 21
509.4316220000003
 31
0.0
  0
ARC
  5
4A2
330
1F
100
AcDbEntity
  8
LAY-1
  6
CONTINUOUS
 62
     3
100
AcDbCircle
 10
263.4917419999987
 20
519.9325500000001
 30
0.0
 40
1.0
100
AcDbArc
 50
270.0
 51
0.0
  0
LINE
  5
4A3
330
1F
100
AcDbEntity
  8
LAY-1
  6
CONTINUOUS
 62
     3
100
AcDbLine
 10
242.4917419999986
 20
531.9325500000001
 30
0.0
 11
242.4917419999986
 21
532.93255
 31
0.0
  0
LINE
  5
4A4
330
1F
100
AcDbEntity
  8
LAY-1
  6
CONTINUOUS
 62
     3
100
AcDbLine
 10
164.4917419999986
 20
531.9325499999999
 30
0.0
 11
164.4917419999986
 21
519.9325499999999
 31
0.0
  0
LINE
  5
4A5
330
1F
100
AcDbEntity
  8
LAY-1
  6
CONTINUOUS
 62
     3
100
AcDbLine
 10
214.4917419999999
 20
531.9325499999999
 30
0.0
 11
164.4917419999986
 21
531.9325499999999
 31
0.0
  0
LINE
  5
4A6
330
1F
100
AcDbEntity
  8
LAY-1
  6
CONTINUOUS
 62
     3
100
AcDbLine
 10
214.4917419999986
 20
532.9325499999999
 30
0.0
 11
186.491742
 21
532.9325499999999
 31
0.0
  0
LINE
  5
4A7
330
1F
100
AcDbEntity
  8
LAY-1
  6
CONTINUOUS
 62
     3
100
AcDbLine
 10
214.4917419999999
 20
518.9325499999999
 30
0.0
 11
165.491742
 21
518.9325499999999
 31
0.0
  0
LINE
  5
4A8
330
1F
100
AcDbEntity
  8
LAY-1
  6
CONTINUOUS
 62
     3
100
AcDbLine
 10
214.4917419999986
 20
532.9325499999999
 30
0.0
 11
242.491742
 21
532.9325499999999
 31
0.0
  0
LINE
  5
4A9
330
1F
100
AcDbEntity
  8
LAY-1
  6
CONTINUOUS
 62
     3
100
AcDbLine
 10
214.4917419999999
 20
531.93255
 30
0.0
 11
264.4917419999986
 21
531.9325500000006
 31
0.0
  0
LINE
  5
4AA
330
1F
100
AcDbEntity
  8
LAY-1
  6
CONTINUOUS
 62
     3
100
AcDbLine
 10
264.4917419999986
 20
531.9325500000006
 30
0.0
 11
264.4917419999987
 21
519.9325500000001
 31
0.0
  0
LINE
  5
4AB
330
1F
100
AcDbEntity
  8
LAY-1
  6
CONTINUOUS
 62
     3
100
AcDbLine
 10
214.4917419999999
 20
518.9325499999999
 30
0.0
 11
263.7
 21
518.9325499999999
 31
0.0
  0
LINE
  5
4AC
330
1F
100
AcDbEntity
  8
LAY-1
  6
CONTINUOUS
 62
     3
100
AcDbLine
 10
196.548794
 20
380.2749569999997
 30
0.0
 11
197.991742
 21
388.9325499999999
 31
0.0
  0
LINE
  5
4AD
330
1F
100
AcDbEntity
  8
LAY-1
  6
CONTINUOUS
 62
     3
100
AcDbLine
 10
232.434689
 20
380.2749569999997
 30
0.0
 11
230.991742
 21
388.9325499999999
 31
0.0
  0
ARC
  5
4AE
330
1F
100
AcDbEntity
  8
LAY-1
  6
CONTINUOUS
 62
     3
100
AcDbCircle
 10
192.6032230000001
 20
380.9325499999999
 30
0.0
 40
4.0
100
AcDbArc
 50
270.0000176000941
 51
350.5376008895398
  0
ARC
  5
4AF
330
1F
100
AcDbEntity
  8
LAY-1
  6
CONTINUOUS
 62
     3
100
AcDbCircle
 10
236.380261
 20
380.9325499999999
 30
0.0
 40
4.0
100
AcDbArc
 50
189.4623770148688
 51
270.0000176000941
  0
LINE
  5
4B0
330
1F
100
AcDbEntity
  8
LAY-1
  6
EXLTYPE5
 62
     1
100
AcDbLine
 10
176.9917419999986
 20
360.2334779999996
 30
0.0
 11
176.9917419999986
 21
386.4334779999997
 31
0.0
  0
ARC
  5
4B1
330
1F
100
AcDbEntity
  8
LAY-1
  6
CONTINUOUS
 62
     3
100
AcDbCircle
 10
165.4917419999986
 20
375.9325499999999
 30
0.0
 40
1.0
100
AcDbArc
 50
90.00000000000001
 51
180.0
  0
LINE
  5
4B2
330
1F
100
AcDbEntity
  8
LAY-1
  6
CONTINUOUS
 62
     3
100
AcDbLine
 10
186.4917419999986
 20
363.9325499999998
 30
0.0
 11
186.4917419999986
 21
362.9325499999999
 31
0.0
  0
LINE
  5
4B3
330
1F
100
AcDbEntity
  8
LAY-1
  6
EXLTYPE5
 62
     1
100
AcDbLine
 10
251.9917419999986
 20
360.2334779999994
 30
0.0
 11
251.9917419999987
 21
386.4334779999995
 31
0.0
  0
ARC
  5
4B4
330
1F
100
AcDbEntity
  8
LAY-1
  6
CONTINUOUS
 62
     3
100
AcDbCircle
 10
263.4917419999987
 20
375.9325499999997
 30
0.0
 40
1.0
100
AcDbArc
 50
0.0
 51
90.00000000000001
  0
LINE
  5
4B5
330
1F
100
AcDbEntity
  8
LAY-1
  6
CONTINUOUS
 62
     3
100
AcDbLine
 10
242.4917419999986
 20
363.9325499999997
 30
0.0
 11
242.4917419999986
 21
362.9325499999998
 31
0.0
  0
LINE
  5
4B6
330
1F
100
AcDbEntity
  8
LAY-1
  6
CONTINUOUS
 62
     3
100
AcDbLine
 10
164.4917419999986
 20
363.9325499999999
 30
0.0
 11
164.4917419999986
 21
375.9325499999999
 31
0.0
  0
LINE
  5
4B7
330
1F
100
AcDbEntity
  8
LAY-1
  6
CONTINUOUS
 62
     3
100
AcDbLine
 10
214.4917419999999
 20
363.9325499999999
 30
0.0
 11
164.4917419999986
 21
363.9325499999999
 31
0.0
  0
LINE
  5
4B8
330
1F
100
AcDbEntity
  8
LAY-1
  6
CONTINUOUS
 62
     3
100
AcDbLine
 10
214.4917419999986
 20
362.9325499999999
 30
0.0
 11
186.491742
 21
362.9325499999999
 31
0.0
  0
LINE
  5
4B9
330
1F
100
AcDbEntity
  8
LAY-1
  6
CONTINUOUS
 62
     3
100
AcDbLine
 10
214.4917419999999
 20
376.9325499999999
 30
0.0
 11
165.491742
 21
376.9325499999999
 31
0.0
  0
LINE
  5
4BA
330
1F
100
AcDbEntity
  8
LAY-1
  6
CONTINUOUS
 62
     3
100
AcDbLine
 10
214.4917419999986
 20
362.9325499999999
 30
0.0
 11
242.491742
 21
362.9325499999999
 31
0.0
  0
LINE
  5
4BB
330
1F
100
AcDbEntity
  8
LAY-1
  6
CONTINUOUS
 62
     3
100
AcDbLine
 10
214.4917419999999
 20
363.9325499999998
 30
0.0
 11
264.4917419999986
 21
363.9325499999992
 31
0.0
  0
LINE
  5
4BC
330
1F
100
AcDbEntity
  8
LAY-1
  6
CONTINUOUS
 62
     3
100
AcDbLine
 10
264.4917419999986
 20
363.9325499999992
 30
0.0
 11
264.4917419999987
 21
375.9325499999997
 31
0.0
  0
LINE
  5
4BD
330
1F
100
AcDbEntity
  8
LAY-1
  6
CONTINUOUS
 62
     3
100
AcDbLine
 10
214.4917419999999
 20
376.9325499999999
 30
0.0
 11
263.7
 21
376.9325499999999
 31
0.0
  0
DIMENSION
  5
4BE
330
1F
100
AcDbEntity
  8
LAY-1
  6
CONTINUOUS
 62
     1
100
AcDbDimension
  2
*D17
 10
394.9
 20
532.93255
 30
0.0
 11
388.4
 21
447.93255
 31
0.0
 70
   160
  3
ISO-25
100
AcDbAlignedDimension
 13
242.491742
 23
362.93255
 33
0.0
 14
242.491742
 24
532.93255
 34
0.0
 50
90.0
100
AcDbRotatedDimension
1001
ACAD
1000
DSTYLE
1002
{
1070
   270
1070
     2
1070
     6
1000
EX_NORM
1070
     7
1000
EX_NORM
1070
    41
1040
2.5
1070
    42
1040
1.0
1070
    44
1040
1.0
1070
    73
1070
     0
1070
    74
1070
     0
1070
    75
1070
     0
1070
    76
1070
     0
1070
    77
1070
     1
1070
    78
1070
     8
1070
   140
1040
8.203189124487004
1070
   147
1040
0.0
1070
   173
1070
     1
1070
   176
1070
     1
1070
   177
1070
     1
1070
   178
1070
     3
1070
   271
1070
     3
1070
   277
1070
     2
1070
   279
1070
     2
1070
   280
1070
     0
1070
   287
1070
     5
1070
   340
1005
D8
1002
}
  0
CIRCLE
  5
4CB
330
1F
100
AcDbEntity
  8
LAY-1
  6
CONTINUOUS
 62
     3
100
AcDbCircle
 10
214.491742
 20
182.132931
 30
0.0
 40
50.0
  0
CIRCLE
  5
4CC
330
1F
100
AcDbEntity
  8
LAY-1
  6
EXLTYPE5
 62
     1
100
AcDbCircle
 10
214.491742
 20
182.132931
 30
0.0
 40
37.5
  0
CIRCLE
  5
4CD
330
1F
100
AcDbEntity
  8
LAY-1
  6
CONTINUOUS
 62
     3
100
AcDbCircle
 10
214.491742
 20
182.132931
 30
0.0
 40
28.0
  0
CIRCLE
  5
4CE
330
1F
100
AcDbEntity
  8
LAY-1
  6
CONTINUOUS
 62
     3
100
AcDbCircle
 10
214.491742
 20
182.132931
 30
0.0
 40
12.5
  0
CIRCLE
  5
4CF
330
1F
100
AcDbEntity
  8
LAY-1
  6
CONTINUOUS
 62
     3
100
AcDbCircle
 10
241.0082462945
 20
208.6494352945
 30
0.0
 40
7.5
  0
CIRCLE
  5
4D0
330
1F
100
AcDbEntity
  8
LAY-1
  6
CONTINUOUS
 62
     3
100
AcDbCircle
 10
241.0082462945003
 20
155.6164267055118
 30
0.0
 40
7.5
  0
CIRCLE
  5
4D1
330
1F
100
AcDbEntity
  8
LAY-1
  6
CONTINUOUS
 62
     3
100
AcDbCircle
 10
187.9752377055005
 20
155.6164267055012
 30
0.0
 40
7.5
  0
CIRCLE
  5
4D2
330
1F
100
AcDbEntity
  8
LAY-1
  6
CONTINUOUS
 62
     3
100
AcDbCircle
 10
187.9752377055001
 20
208.6494352945
 30
0.0
 40
7.5
  0
LINE
  5
4D3
330
1F
100
AcDbEntity
  8
LAY-1
  6
CONTINUOUS
 62
     3
100
AcDbLine
 10
181.9917419999999
 20
225.132931
 30
0.0
 11
188.9770403556533
 21
225.1329309999997
 31
0.0
  0
LINE
  5
4D4
330
1F
100
AcDbEntity
  8
LAY-1
  6
CONTINUOUS
 62
     3
100
AcDbLine
 10
246.9917420000002
 20
225.132931
 30
0.0
 11
240.0064436443461
 21
225.132931
 31
0.0
  0
LINE
  5
4D5
330
1F
100
AcDbEntity
  8
LAY-1
  6
CONTINUOUS
 62
     3
100
AcDbLine
 10
166.991773
 20
198.1329159999999
 30
0.0
 11
167.1208598042906
 21
198.1329159999999
 31
0.0
  0
LINE
  5
4D6
330
1F
100
AcDbEntity
  8
LAY-1
  6
CONTINUOUS
 62
     3
100
AcDbLine
 10
162.2166560000002
 20
197.6385769999999
 30
0.0
 11
166.9567554940307
 21
197.6385769999999
 31
0.0
  0
LINE
  5
4D7
330
1F
100
AcDbEntity
  8
LAY-1
  6
CONTINUOUS
 62
     3
100
AcDbLine
 10
162.2166560000002
 20
193.8856929999999
 30
0.0
 11
165.8926413357762
 21
193.8856929999999
 31
0.0
  0
LINE
  5
4D8
330
1F
100
AcDbEntity
  8
LAY-1
  6
CONTINUOUS
 62
     3
100
AcDbLine
 10
162.2166560000002
 20
186.38023
 30
0.0
 11
164.6724640927019
 21
186.38023
 31
0.0
  0
LINE
  5
4D9
330
1F
100
AcDbEntity
  8
LAY-1
  6
CONTINUOUS
 62
     3
100
AcDbLine
 10
162.2166560000002
 20
182.627346
 30
0.0
 11
164.4941865216791
 21
182.627346
 31
0.0
  0
LINE
  5
4DA
330
1F
100
AcDbEntity
  8
LAY-1
  6
CONTINUOUS
 62
     3
100
AcDbLine
 10
162.2166560000002
 20
176.638592
 30
0.0
 11
164.7945364552907
 21
176.638592
 31
0.0
  0
LINE
  5
4DB
330
1F
100
AcDbEntity
  8
LAY-1
  6
CONTINUOUS
 62
     3
100
AcDbLine
 10
167.9917720000001
 20
162.9
 30
0.0
 11
167.9917720000001
 21
138.132931
 31
0.0
  0
LINE
  5
4DC
330
1F
100
AcDbEntity
  8
LAY-1
  6
CONTINUOUS
 62
     3
100
AcDbLine
 10
162.2166560000002
 20
172.8857079999999
 30
0.0
 11
165.35429327921
 21
172.8857079999999
 31
0.0
  0
LINE
  5
4DD
330
1F
100
AcDbEntity
  8
LAY-1
  6
CONTINUOUS
 62
     3
100
AcDbLine
 10
162.2166560000002
 20
165.3802459999999
 30
0.0
 11
167.3817903412393
 21
165.3802459999999
 31
0.0
  0
LINE
  5
4DE
330
1F
100
AcDbEntity
  8
LAY-1
  6
CONTINUOUS
 62
     1
100
AcDbLine
 10
179.4920169999999
 20
150.1331749999999
 30
0.0
 11
179.491773
 21
150.1329310001626
 31
0.0
  0
LINE
  5
4DF
330
1F
100
AcDbEntity
  8
LAY-1
  6
CONTINUOUS
 62
     3
100
AcDbLine
 10
177.991773
 20
138.132931
 30
0.0
 11
177.991773
 21
147.9605406387883
 31
0.0
  0
LINE
  5
4E0
330
1F
100
AcDbEntity
  8
LAY-1
  6
CONTINUOUS
 62
     1
100
AcDbLine
 10
179.491986
 20
148.633145
 30
0.0
 11
179.491773
 21
148.632931999858
 31
0.0
  0
LINE
  5
4E1
330
1F
100
AcDbEntity
  8
LAY-1
  6
CONTINUOUS
 62
     1
100
AcDbLine
 10
178.3943738269286
 20
147.5355320952018
 30
0.0
 11
177.991956
 21
147.133114
 31
0.0
  0
LINE
  5
4E2
330
1F
100
AcDbEntity
  8
LAY-1
  6
CONTINUOUS
 62
     3
100
AcDbLine
 10
179.491773
 20
146.4257584712344
 30
0.0
 11
179.491773
 21
138.132931
 31
0.0
  0
LINE
  5
4E3
330
1F
100
AcDbEntity
  8
LAY-1
  6
CONTINUOUS
 62
     1
100
AcDbLine
 10
179.1364183221658
 20
146.7775765591861
 30
0.0
 11
177.9919249999999
 21
145.6330839999999
 31
0.0
  0
LINE
  5
4E4
330
1F
100
AcDbEntity
  8
LAY-1
  6
CONTINUOUS
 62
     3
100
AcDbLine
 10
179.491773
 20
138.132931
 30
0.0
 11
190.7430578259242
 21
138.132931
 31
0.0
  0
LINE
  5
4E5
330
1F
100
AcDbEntity
  8
LAY-1
  6
CONTINUOUS
 62
     3
100
AcDbLine
 10
238.2404261740758
 20
138.132931
 30
0.0
 11
260.169751
 21
138.132931
 31
0.0
  0
LINE
  5
4E6
330
1F
100
AcDbEntity
  8
LAY-1
  6
CONTINUOUS
 62
     1
100
AcDbLine
 10
249.491498
 20
148.633145
 30
0.0
 11
249.491712
 21
148.632931
 31
0.0
  0
LINE
  5
4E7
330
1F
100
AcDbEntity
  8
LAY-1
  6
CONTINUOUS
 62
     1
100
AcDbLine
 10
250.5891105311721
 20
147.5355324688279
 30
0.0
 11
250.991529
 21
147.133114
 31
0.0
  0
LINE
  5
4E8
330
1F
100
AcDbEntity
  8
LAY-1
  6
CONTINUOUS
 62
     3
100
AcDbLine
 10
250.991712
 20
138.132931
 30
0.0
 11
250.991712
 21
147.9605417069011
 31
0.0
  0
LINE
  5
4E9
330
1F
100
AcDbEntity
  8
LAY-1
  6
CONTINUOUS
 62
     1
100
AcDbLine
 10
249.491529
 20
147.133114
 30
0.0
 11
249.491712
 21
147.132931
 31
0.0
  0
LINE
  5
4EA
330
1F
100
AcDbEntity
  8
LAY-1
  6
CONTINUOUS
 62
     1
100
AcDbLine
 10
249.8470660593242
 20
146.7775769406758
 30
0.0
 11
250.9915589999999
 21
145.6330839999999
 31
0.0
  0
LINE
  5
4EB
330
1F
100
AcDbEntity
  8
LAY-1
  6
CONTINUOUS
 62
     3
100
AcDbLine
 10
249.491712
 20
146.4257594514287
 30
0.0
 11
249.491712
 21
138.132931
 31
0.0
  0
LINE
  5
4EC
330
1F
100
AcDbEntity
  8
LAY-1
  6
CONTINUOUS
 62
     3
100
AcDbLine
 10
260.991742
 20
161.6273619999999
 30
0.0
 11
260.991742
 21
163.754955050511
 31
0.0
  0
LINE
  5
4ED
330
1F
100
AcDbEntity
  8
LAY-1
  6
CONTINUOUS
 62
     3
100
AcDbLine
 10
260.991712
 20
163.75495505051
 30
0.0
 11
260.991712
 21
138.132931
 31
0.0
  0
LINE
  5
4EE
330
1F
100
AcDbEntity
  8
LAY-1
  6
CONTINUOUS
 62
     3
100
AcDbLine
 10
266.7668279999999
 20
176.638592
 30
0.0
 11
264.1889475447092
 21
176.638592
 31
0.0
  0
LINE
  5
4EF
330
1F
100
AcDbEntity
  8
LAY-1
  6
CONTINUOUS
 62
     3
100
AcDbLine
 10
266.7668279999999
 20
172.8857079999999
 30
0.0
 11
263.62919072079
 21
172.8857079999999
 31
0.0
  0
LINE
  5
4F0
330
1F
100
AcDbEntity
  8
LAY-1
  6
CONTINUOUS
 62
     3
100
AcDbLine
 10
266.7668279999999
 20
165.3802459999999
 30
0.0
 11
261.6016936587607
 21
165.3802459999999
 31
0.0
  0
LINE
  5
4F1
330
1F
100
AcDbEntity
  8
LAY-1
  6
CONTINUOUS
 62
     3
100
AcDbLine
 10
261.991712
 20
198.1329159999999
 30
0.0
 11
261.8626241957094
 21
198.1329159999999
 31
0.0
  0
LINE
  5
4F2
330
1F
100
AcDbEntity
  8
LAY-1
  6
CONTINUOUS
 62
     3
100
AcDbLine
 10
266.7668279999999
 20
197.6385769999999
 30
0.0
 11
262.0267285059693
 21
197.6385769999999
 31
0.0
  0
LINE
  5
4F3
330
1F
100
AcDbEntity
  8
LAY-1
  6
CONTINUOUS
 62
     3
100
AcDbLine
 10
266.7668279999999
 20
193.8856929999999
 30
0.0
 11
263.0908426642238
 21
193.8856929999999
 31
0.0
  0
LINE
  5
4F4
330
1F
100
AcDbEntity
  8
LAY-1
  6
CONTINUOUS
 62
     3
100
AcDbLine
 10
266.7668279999999
 20
186.38023
 30
0.0
 11
264.3110199072981
 21
186.38023
 31
0.0
  0
LINE
  5
4F5
330
1F
100
AcDbEntity
  8
LAY-1
  6
CONTINUOUS
 62
     3
100
AcDbLine
 10
266.7668279999999
 20
182.627346
 30
0.0
 11
264.4892974783209
 21
182.627346
 31
0.0
  0
LINE
  5
4F6
330
1F
100
AcDbEntity
  8
LAY-1
  6
CONTINUOUS
 62
     3
100
AcDbLine
 10
629.6543770000001
 20
200.075879
 30
0.0
 11
620.9967839999999
 21
198.632931
 31
0.0
  0
LINE
  5
4F7
330
1F
100
AcDbEntity
  8
LAY-1
  6
CONTINUOUS
 62
     3
100
AcDbLine
 10
629.6543770000001
 20
164.189984
 30
0.0
 11
620.9967839999999
 21
165.632931
 31
0.0
  0
ARC
  5
4F8
330
1F
100
AcDbEntity
  8
LAY-1
  6
CONTINUOUS
 62
     3
100
AcDbCircle
 10
628.9967839999999
 20
204.02145
 30
0.0
 40
4.0
100
AcDbArc
 50
279.4623991104602
 51
359.9999823999061
  0
ARC
  5
4F9
330
1F
100
AcDbEntity
  8
LAY-1
  6
CONTINUOUS
 62
     3
100
AcDbCircle
 10
628.9967839999999
 20
160.244412
 30
0.0
 40
4.0
100
AcDbArc
 50
359.9999823999061
 51
80.5376229851318
  0
LINE
  5
4FA
330
1F
100
AcDbEntity
  8
LAY-1
  6
EXLTYPE5
 62
     1
100
AcDbLine
 10
649.6958560000002
 20
219.6329310000015
 30
0.0
 11
623.4958560000001
 21
219.6329310000015
 31
0.0
  0
ARC
  5
4FB
330
1F
100
AcDbEntity
  8
LAY-1
  6
CONTINUOUS
 62
     3
100
AcDbCircle
 10
633.9967839999999
 20
231.1329310000015
 30
0.0
 40
1.0
100
AcDbArc
 50
90.00000000000009
 51
180.0
  0
LINE
  5
4FC
330
1F
100
AcDbEntity
  8
LAY-1
  6
CONTINUOUS
 62
     3
100
AcDbLine
 10
645.996784
 20
210.1329310000015
 30
0.0
 11
646.9967839999999
 21
210.1329310000015
 31
0.0
  0
LINE
  5
4FD
330
1F
100
AcDbEntity
  8
LAY-1
  6
EXLTYPE5
 62
     1
100
AcDbLine
 10
649.6958560000004
 20
144.6329310000015
 30
0.0
 11
623.4958560000003
 21
144.6329310000013
 31
0.0
  0
ARC
  5
4FE
330
1F
100
AcDbEntity
  8
LAY-1
  6
CONTINUOUS
 62
     3
100
AcDbCircle
 10
633.9967840000002
 20
133.1329310000013
 30
0.0
 40
1.0
100
AcDbArc
 50
180.0
 51
270.0
  0
LINE
  5
4FF
330
1F
100
AcDbEntity
  8
LAY-1
  6
CONTINUOUS
 62
     3
100
AcDbLine
 10
645.9967840000002
 20
154.1329310000015
 30
0.0
 11
646.996784
 21
154.1329310000015
 31
0.0
  0
LINE
  5
500
330
1F
100
AcDbEntity
  8
LAY-1
  6
CONTINUOUS
 62
     3
100
AcDbLine
 10
645.9967839999999
 20
232.1329310000015
 30
0.0
 11
633.9967839999999
 21
232.1329310000015
 31
0.0
  0
LINE
  5
501
330
1F
100
AcDbEntity
  8
LAY-1
  6
CONTINUOUS
 62
     3
100
AcDbLine
 10
645.9967839999999
 20
182.1329310000001
 30
0.0
 11
645.9967839999999
 21
232.1329310000015
 31
0.0
  0
LINE
  5
502
330
1F
100
AcDbEntity
  8
LAY-1
  6
CONTINUOUS
 62
     3
100
AcDbLine
 10
646.9967839999999
 20
182.1329310000014
 30
0.0
 11
646.9967839999999
 21
210.132931
 31
0.0
  0
LINE
  5
503
330
1F
100
AcDbEntity
  8
LAY-1
  6
CONTINUOUS
 62
     3
100
AcDbLine
 10
632.9967839999999
 20
182.1329310000001
 30
0.0
 11
632.9967839999999
 21
231.132931
 31
0.0
  0
LINE
  5
504
330
1F
100
AcDbEntity
  8
LAY-1
  6
CONTINUOUS
 62
     3
100
AcDbLine
 10
646.9967839999999
 20
182.1329310000014
 30
0.0
 11
646.9967839999999
 21
154.132931
 31
0.0
  0
LINE
  5
505
330
1F
100
AcDbEntity
  8
LAY-1
  6
CONTINUOUS
 62
     3
100
AcDbLine
 10
645.996784
 20
182.1329310000001
 30
0.0
 11
645.9967840000006
 21
132.1329310000015
 31
0.0
  0
LINE
  5
506
330
1F
100
AcDbEntity
  8
LAY-1
  6
CONTINUOUS
 62
     3
100
AcDbLine
 10
645.9967840000006
 20
132.1329310000015
 30
0.0
 11
633.9967840000002
 21
132.1329310000013
 31
0.0
  0
LINE
  5
507
330
1F
100
AcDbEntity
  8
LAY-1
  6
CONTINUOUS
 62
     3
100
AcDbLine
 10
632.9967839999999
 20
182.1329310000001
 30
0.0
 11
632.9967839999999
 21
132.924673
 31
0.0
  0
ARC
  5
508
330
1F
100
AcDbEntity
  8
LAY-1
  6
CONTINUOUS
 62
     3
100
AcDbCircle
 10
494.9967839999999
 20
204.02145
 30
0.0
 40
4.0
100
AcDbArc
 50
180.0000176000941
 51
260.5376008895398
  0
ARC
  5
509
330
1F
100
AcDbEntity
  8
LAY-1
  6
CONTINUOUS
 62
     3
100
AcDbCircle
 10
494.9967839999999
 20
160.244412
 30
0.0
 40
4.0
100
AcDbArc
 50
99.46237701486888
 51
180.0000176000941
  0
LINE
  5
50A
330
1F
100
AcDbEntity
  8
LAY-1
  6
EXLTYPE5
 62
     1
100
AcDbLine
 10
474.2977119999997
 20
219.6329310000015
 30
0.0
 11
500.4977119999998
 21
219.6329310000015
 31
0.0
  0
ARC
  5
50B
330
1F
100
AcDbEntity
  8
LAY-1
  6
CONTINUOUS
 62
     3
100
AcDbCircle
 10
489.9967839999999
 20
231.1329310000015
 30
0.0
 40
1.0
100
AcDbArc
 50
0.0
 51
90.00000000000001
  0
LINE
  5
50C
330
1F
100
AcDbEntity
  8
LAY-1
  6
CONTINUOUS
 62
     3
100
AcDbLine
 10
477.9967839999998
 20
210.1329310000015
 30
0.0
 11
476.9967839999999
 21
210.1329310000015
 31
0.0
  0
LINE
  5
50D
330
1F
100
AcDbEntity
  8
LAY-1
  6
EXLTYPE5
 62
     1
100
AcDbLine
 10
474.2977119999995
 20
144.6329310000015
 30
0.0
 11
500.4977119999995
 21
144.6329310000014
 31
0.0
  0
ARC
  5
50E
330
1F
100
AcDbEntity
  8
LAY-1
  6
CONTINUOUS
 62
     3
100
AcDbCircle
 10
489.9967839999996
 20
133.1329310000014
 30
0.0
 40
1.0
100
AcDbArc
 50
270.0
 51
0.0
  0
LINE
  5
50F
330
1F
100
AcDbEntity
  8
LAY-1
  6
CONTINUOUS
 62
     3
100
AcDbLine
 10
477.9967839999997
 20
154.1329310000015
 30
0.0
 11
476.9967839999998
 21
154.1329310000015
 31
0.0
  0
LINE
  5
510
330
1F
100
AcDbEntity
  8
LAY-1
  6
CONTINUOUS
 62
     3
100
AcDbLine
 10
477.9967839999999
 20
232.1329310000015
 30
0.0
 11
489.9967839999999
 21
232.1329310000015
 31
0.0
  0
LINE
  5
511
330
1F
100
AcDbEntity
  8
LAY-1
  6
CONTINUOUS
 62
     3
100
AcDbLine
 10
477.9967839999999
 20
182.1329310000001
 30
0.0
 11
477.9967839999999
 21
232.1329310000015
 31
0.0
  0
LINE
  5
512
330
1F
100
AcDbEntity
  8
LAY-1
  6
CONTINUOUS
 62
     3
100
AcDbLine
 10
476.9967839999999
 20
182.1329310000015
 30
0.0
 11
476.9967839999999
 21
210.132931
 31
0.0
  0
LINE
  5
513
330
1F
100
AcDbEntity
  8
LAY-1
  6
CONTINUOUS
 62
     3
100
AcDbLine
 10
490.9967839999999
 20
182.1329310000001
 30
0.0
 11
490.9967839999999
 21
231.132931
 31
0.0
  0
LINE
  5
514
330
1F
100
AcDbEntity
  8
LAY-1
  6
CONTINUOUS
 62
     3
100
AcDbLine
 10
476.9967839999999
 20
182.1329310000015
 30
0.0
 11
476.9967839999999
 21
154.132931
 31
0.0
  0
LINE
  5
515
330
1F
100
AcDbEntity
  8
LAY-1
  6
CONTINUOUS
 62
     3
100
AcDbLine
 10
477.9967839999998
 20
182.1329310000001
 30
0.0
 11
477.9967839999992
 21
132.1329310000015
 31
0.0
  0
LINE
  5
516
330
1F
100
AcDbEntity
  8
LAY-1
  6
CONTINUOUS
 62
     3
100
AcDbLine
 10
477.9967839999992
 20
132.1329310000015
 30
0.0
 11
489.9967839999996
 21
132.1329310000014
 31
0.0
  0
LINE
  5
517
330
1F
100
AcDbEntity
  8
LAY-1
  6
CONTINUOUS
 62
     3
100
AcDbLine
 10
490.9967839999999
 20
182.1329310000001
 30
0.0
 11
490.9967839999999
 21
132.9246730000001
 31
0.0
  0
ENDSEC
  0
SECTION
  2
OBJECTS
  0
DICTIONARY
  5
C
330
0
100
AcDbDictionary
  3
ACAD_GROUP
350
D
  3
ACAD_LAYOUT
350
1A
  3
ACAD_MATERIAL
350
43
  3
ACAD_MLEADERSTYLE
350
6B
  3
ACAD_MLINESTYLE
350
17
  3
ACAD_PLOTSETTINGS
350
19
  3
ACAD_SCALELIST
350
47
  3
ACAD_VISUALSTYLE
350
2A
  3
ACDBHEADERROUNDTRIPXREC
350
518
  3
ACDBVARIABLEDICTIONARY
350
539
  0
DICTIONARY
  5
544
330
8
100
AcDbDictionary
280
     1
  3
ACAD_XREC_ROUNDTRIP
360
545
  0
DICTIONARY
  5
D
102
{ACAD_REACTORS
330
C
102
}
330
C
100
AcDbDictionary
  0
DICTIONARY
  5
1A
102
{ACAD_REACTORS
330
C
102
}
330
C
100
AcDbDictionary
  0
DICTIONARY
  5
43
102
{ACAD_REACTORS
330
C
102
}
330
C
100
AcDbDictionary
  3
BYBLOCK
350
45
  3
BYLAYER
350
44
  3
GLOBAL
350
46
  0
DICTIONARY
  5
6B
102
{ACAD_REACTORS
330
C
102
}
330
C
100
AcDbDictionary
  3
STANDARD
350
6C
  0
DICTIONARY
  5
17
102
{ACAD_REACTORS
330
C
102
}
330
C
100
AcDbDictionary
  3
STANDARD
350
18
  0
DICTIONARY
  5
19
102
{ACAD_REACTORS
330
C
102
}
330
C
100
AcDbDictionary
  0
DICTIONARY
  5
47
102
{ACAD_REACTORS
330
C
102
}
330
C
100
AcDbDictionary
  3
A0
350
48
  3
A1
350
49
  3
A2
350
4A
  3
A3
350
4B
  3
A4
350
4C
  3
A5
350
4D
  3
A6
350
4E
  3
A7
350
4F
  3
A8
350
50
  3
A9
350
51
  3
B0
350
52
  3
B1
350
53
  3
B2
350
54
  3
B3
350
55
  3
B4
350
56
  3
B5
350
57
  3
B6
350
58
  3
B7
350
59
  3
B8
350
5A
  3
B9
350
5B
  3
C0
350
5C
  3
C1
350
5D
  3
C2
350
5E
  3
C3
350
5F
  3
C4
350
60
  3
C5
350
61
  3
C6
350
62
  3
C7
350
63
  3
C8
350
64
  3
C9
350
65
  3
D0
350
66
  3
D1
350
67
  3
D2
350
68
  0
DICTIONARY
  5
2A
102
{ACAD_REACTORS
330
C
102
}
330
C
100
AcDbDictionary
  3
2DWIREFRAME
350
2F
  3
BASIC
350
32
  3
BRIGHTEN
350
36
  3
COLORCHANGE
350
3A
  3
CONCEPTUAL
350
34
  3
DIM
350
35
  3
EDGECOLOROFF
350
3D
  3
FACEPATTERN
350
39
  3
FLAT
350
2B
  3
FLATWITHEDGES
350
2C
  3
GOURAUD
350
2D
  3
GOURAUDWITHEDGES
350
2E
  3
HIDDEN
350
31
  3
JITTEROFF
350
3B
  3
LINEPATTERN
350
38
  3
OVERHANGOFF
350
3C
  3
REALISTIC
350
33
  3
SHADED
350
42
  3
SHADED_WITH_EDGES
350
41
  3
SHADES_OF_GRAY
350
3E
  3
SKETCHY
350
3F
  3
THICKEN
350
37
  3
WIREFRAME
350
30
  3
X-RAY
350
40
  0
DICTIONARY
  5
518
102
{ACAD_REACTORS
330
C
102
}
330
C
100
AcDbDictionary
  3
CEPSNID
350
522
  3
CEPSNTYPE
350
521
  3
DIMSTYLEDATA
350
538
  3
FINGERPRINTGUID
350
523
  3
HYPERLINKBASE
350
51B
  3
INSUNITS
350
520
  3
LAYOUTDICT
350
51D
  3
LWETCUNION
350
51F
  3
PLOTSETDICT
350
51E
  3
PSVPSCALE
350
525
  3
PUCSBASE
350
528
  3
PUCSORGBACK
350
52E
  3
PUCSORGBOTTOM
350
52A
  3
PUCSORGFRONT
350
52D
  3
PUCSORGLEFT
350
52B
  3
PUCSORGRIGHT
350
52C
  3
PUCSORGTOP
350
529
  3
PUCSORTHOREF
350
526
  3
PUCSORTHOVIEW
350
527
  3
STYLESHEET
350
51C
  3
TSTACKALIGN
350
519
  3
TSTACKSIZE
350
51A
  3
UCSBASE
350
531
  3
UCSORGBACK
350
537
  3
UCSORGBOTTOM
350
533
  3
UCSORGFRONT
350
536
  3
UCSORGLEFT
350
534
  3
UCSORGRIGHT
350
535
  3
UCSORGTOP
350
532
  3
UCSORTHOREF
350
52F
  3
UCSORTHOVIEW
350
530
  3
VERSIONGUID
350
524
  0
DICTIONARY
  5
539
102
{ACAD_REACTORS
330
C
102
}
330
C
100
AcDbDictionary
  3
CANNOSCALE
350
546
  3
CENTEREXE
350
540
  3
CENTERLTYPEFILE
350
541
  3
CMLEADERSTYLE
350
53B
  3
CTABLESTYLE
350
53A
  3
DIMASSOC
350
542
  3
HIDETEXT
350
543
  3
MSLTSCALE
350
547
  3
PSOLHEIGHT
350
53D
  3
PSOLWIDTH
350
53C
  0
XRECORD
  5
545
102
{ACAD_REACTORS
330
544
102
}
330
544
100
AcDbXrecord
102
VTR_0.000_0.000_1.000_1.000_VISUALSTYLE
340
2F
102
VTR_0.000_0.000_1.000_1.000_GRIDDISPLAY
 70
     3
102
VTR_0.000_0.000_1.000_1.000_GRIDMAJOR
 70
     5
102
VTR_0.000_0.000_1.000_1.000_DEFAULTLIGHTING
280
     1
102
VTR_0.000_0.000_1.000_1.000_DEFAULTLIGHTINGTYPE
 70
     1
102
VTR_0.000_0.000_1.000_1.000_BRIGHTNESS
141
0.0
102
VTR_0.000_0.000_1.000_1.000_CONTRAST
142
0.0
  0
MATERIAL
  5
45
102
{ACAD_REACTORS
330
43
102
}
102
{ACAD_XDICTIONARY
360
54A
102
}
330
43
100
AcDbMaterial
  1
BYBLOCK
  0
MATERIAL
  5
44
102
{ACAD_REACTORS
330
43
102
}
102
{ACAD_XDICTIONARY
360
548
102
}
330
43
100
AcDbMaterial
  1
BYLAYER
  0
MATERIAL
  5
46
102
{ACAD_REACTORS
330
43
102
}
102
{ACAD_XDICTIONARY
360
54C
102
}
330
43
100
AcDbMaterial
  1
GLOBAL
  0
ACAD_PROXY_OBJECT
  5
6C
102
{ACAD_REACTORS
330
6B
102
}
330
6B
100
AcDbProxyObject
 90
      499
 91
      505
 93
      610
310
40901902A4063FBFFFFFE0000000000000020400000000000020404214DD185B99185C990000000000000104090141901A00000000000004100000000000000041025764000000000000039000
340
14
340
0
340
11
340
0
 94
        0
1001
ACAD_MLEADERVER
1070
     2
  0
MLINESTYLE
  5
18
102
{ACAD_REACTORS
330
17
102
}
330
17
100
AcDbMlineStyle
  2
Standard
 70
     0
  3

 62
   256
 51
90.0
 52
90.0
 71
     2
 49
0.5
 62
   256
  6
BYLAYER
 49
-0.5
 62
   256
  6
BYLAYER
  0
ACAD_PROXY_OBJECT
  5
48
102
{ACAD_REACTORS
330
47
102
}
330
47
100
AcDbProxyObject
 90
      499
 91
      503
 93
       41
310
903313A31580
  0
ACAD_PROXY_OBJECT
  5
49
102
{ACAD_REACTORS
330
47
102
}
330
47
100
AcDbProxyObject
 90
      499
 91
      503
 93
      105
310
903313A324000000000000004000
  0
ACAD_PROXY_OBJECT
  5
4A
102
{ACAD_REACTORS
330
47
102
}
330
47
100
AcDbProxyObject
 90
      499
 91
      503
 93
      105
310
903313A344000000000000104000
  0
ACAD_PROXY_OBJECT
  5
4B
102
{ACAD_REACTORS
330
47
102
}
330
47
100
AcDbProxyObject
 90
      499
 91
      503
 93
      105
310
903313A354000000000000144000
  0
ACAD_PROXY_OBJECT
  5
4C
102
{ACAD_REACTORS
330
47
102
}
330
47
100
AcDbProxyObject
 90
      499
 91
      503
 93
      105
310
903313A384000000000000204000
  0
ACAD_PROXY_OBJECT
  5
4D
102
{ACAD_REACTORS
330
47
102
}
330
47
100
AcDbProxyObject
 90
      499
 91
      503
 93
      113
310
904313A31304000000000000244000
  0
ACAD_PROXY_OBJECT
  5
4E
102
{ACAD_REACTORS
330
47
102
}
330
47
100
AcDbProxyObject
 90
      499
 91
      503
 93
      113
310
904313A31364000000000000304000
  0
ACAD_PROXY_OBJECT
  5
4F
102
{ACAD_REACTORS
330
47
102
}
330
47
100
AcDbProxyObject
 90
      499
 91
      503
 93
      113
310
904313A32304000000000000344000
  0
ACAD_PROXY_OBJECT
  5
50
102
{ACAD_REACTORS
330
47
102
}
330
47
100
AcDbProxyObject
 90
      499
 91
      503
 93
      113
310
904313A333040000000000003E4000
  0
ACAD_PROXY_OBJECT
  5
51
102
{ACAD_REACTORS
330
47
102
}
330
47
100
AcDbProxyObject
 90
      499
 91
      503
 93
      113
310
904313A34304000000000000444000
  0
ACAD_PROXY_OBJECT
  5
52
102
{ACAD_REACTORS
330
47
102
}
330
47
100
AcDbProxyObject
 90
      499
 91
      503
 93
      113
310
904313A35304000000000000494000
  0
ACAD_PROXY_OBJECT
  5
53
102
{ACAD_REACTORS
330
47
102
}
330
47
100
AcDbProxyObject
 90
      499
 91
      503
 93
      121
310
905313A3130304000000000000594000
  0
ACAD_PROXY_OBJECT
  5
54
102
{ACAD_REACTORS
330
47
102
}
330
47
100
AcDbProxyObject
 90
      499
 91
      503
 93
      105
310
903323A310000000000000010100
  0
ACAD_PROXY_OBJECT
  5
55
102
{ACAD_REACTORS
330
47
102
}
330
47
100
AcDbProxyObject
 90
      499
 91
      503
 93
      105
310
903343A310000000000000410100
  0
ACAD_PROXY_OBJECT
  5
56
102
{ACAD_REACTORS
330
47
102
}
330
47
100
AcDbProxyObject
 90
      499
 91
      503
 93
      105
310
903383A310000000000000810100
  0
ACAD_PROXY_OBJECT
  5
57
102
{ACAD_REACTORS
330
47
102
}
330
47
100
AcDbProxyObject
 90
      499
 91
      503
 93
      113
310
90431303A310000000000000910100
  0
ACAD_PROXY_OBJECT
  5
58
102
{ACAD_REACTORS
330
47
102
}
330
47
100
AcDbProxyObject
 90
      499
 91
      503
 93
      121
310
9053130303A310000000000001650100
  0
ACAD_PROXY_OBJECT
  5
59
102
{ACAD_REACTORS
330
47
102
}
330
47
100
AcDbProxyObject
 90
      499
 91
      503
 93
      257
310
90E312F31323822203D2031272D3022000000000000200FC000000000000284000
  0
ACAD_PROXY_OBJECT
  5
5A
102
{ACAD_REACTORS
330
47
102
}
330
47
100
AcDbProxyObject
 90
      499
 91
      503
 93
      249
310
90D312F363422203D2031272D3022000000000000240FC000000000000284000
  0
ACAD_PROXY_OBJECT
  5
5B
102
{ACAD_REACTORS
330
47
102
}
330
47
100
AcDbProxyObject
 90
      499
 91
      503
 93
      249
310
90D312F333222203D2031272D3022000000000000280FC000000000000284000
  0
ACAD_PROXY_OBJECT
  5
5C
102
{ACAD_REACTORS
330
47
102
}
330
47
100
AcDbProxyObject
 90
      499
 91
      503
 93
      249
310
90D312F313622203D2031272D30220000000000002C0FC000000000000284000
  0
ACAD_PROXY_OBJECT
  5
5D
102
{ACAD_REACTORS
330
47
102
}
330
47
100
AcDbProxyObject
 90
      499
 91
      503
 93
      249
310
90D332F333222203D2031272D30220000000000002E0FC000000000000284000
  0
ACAD_PROXY_OBJECT
  5
5E
102
{ACAD_REACTORS
330
47
102
}
330
47
100
AcDbProxyObject
 90
      499
 91
      503
 93
      241
310
90C312F3822203D2031272D3022000000000000300FC000000000000284000
  0
ACAD_PROXY_OBJECT
  5
5F
102
{ACAD_REACTORS
330
47
102
}
330
47
100
AcDbProxyObject
 90
      499
 91
      503
 93
      249
310
90D332F313622203D2031272D3022000000000000320FC000000000000284000
  0
ACAD_PROXY_OBJECT
  5
60
102
{ACAD_REACTORS
330
47
102
}
330
47
100
AcDbProxyObject
 90
      499
 91
      503
 93
      241
310
90C312F3422203D2031272D3022000000000000340FC000000000000284000
  0
ACAD_PROXY_OBJECT
  5
61
102
{ACAD_REACTORS
330
47
102
}
330
47
100
AcDbProxyObject
 90
      499
 91
      503
 93
      241
310
90C332F3822203D2031272D3022000000000000360FC000000000000284000
  0
ACAD_PROXY_OBJECT
  5
62
102
{ACAD_REACTORS
330
47
102
}
330
47
100
AcDbProxyObject
 90
      499
 91
      503
 93
      241
310
90C312F3222203D2031272D3022000000000000380FC000000000000284000
  0
ACAD_PROXY_OBJECT
  5
63
102
{ACAD_REACTORS
330
47
102
}
330
47
100
AcDbProxyObject
 90
      499
 91
      503
 93
      241
310
90C332F3422203D2031272D30220000000000003A0FC000000000000284000
  0
ACAD_PROXY_OBJECT
  5
64
102
{ACAD_REACTORS
330
47
102
}
330
47
100
AcDbProxyObject
 90
      499
 91
      503
 93
      161
310
90A3122203D2031272D30224000000000000284000
  0
ACAD_PROXY_OBJECT
  5
65
102
{ACAD_REACTORS
330
47
102
}
330
47
100
AcDbProxyObject
 90
      499
 91
      503
 93
      257
310
90E312D312F3222203D2031272D30220000000000003E0FC000000000000284000
  0
ACAD_PROXY_OBJECT
  5
66
102
{ACAD_REACTORS
330
47
102
}
330
47
100
AcDbProxyObject
 90
      499
 91
      503
 93
      225
310
90A3322203D2031272D302200000000000002100000000000000284000
  0
ACAD_PROXY_OBJECT
  5
67
102
{ACAD_REACTORS
330
47
102
}
330
47
100
AcDbProxyObject
 90
      499
 91
      503
 93
      225
310
90A3622203D2031272D302200000000000006100000000000000284000
  0
ACAD_PROXY_OBJECT
  5
68
102
{ACAD_REACTORS
330
47
102
}
330
47
100
AcDbProxyObject
 90
      499
 91
      503
 93
      249
310
90D31272D3022203D2031272D30220000000000000A100000000000000284000
  0
ACAD_PROXY_OBJECT
  5
2F
102
{ACAD_REACTORS
330
2A
102
}
330
2A
100
AcDbProxyObject
 90
      499
 91
      501
 93
      436
310
42CC9915DA5C99599C985B595049028333333333333E33F0000000000000F90107901411070040501600405405064090741402480A0340
1001
ACAD
1000
AcDbSavedByObjectVersion
1070
     0
  0
ACAD_PROXY_OBJECT
  5
32
102
{ACAD_REACTORS
330
2A
102
}
330
2A
100
AcDbProxyObject
 90
      499
 91
      501
 93
      388
310
4150985CDA58D07406404333333333333E33F0000000000000F90107A41107004050150841D405064090741402480A0350
1001
ACAD
1000
AcDbSavedByObjectVersion
1070
     0
  0
ACAD_PROXY_OBJECT
  5
36
102
{ACAD_REACTORS
330
2A
102
}
330
2A
100
AcDbProxyObject
 90
      499
 91
      501
 93
      428
310
42109C9A59DA1D195B90C409028333333333333E33F0000000000000F9010790141107004050150841D405064090741402480A029950
1001
ACAD
1000
AcDbSavedByObjectVersion
1070
     0
  0
ACAD_PROXY_OBJECT
  5
3A
102
{ACAD_REACTORS
330
2A
102
}
330
2A
100
AcDbProxyObject
 90
      499
 91
      501
 93
      452
310
42D0DBDB1BDC90DA185B99D95104090240C333333333333E33F0000000000000F90108901411070040501508421405064090741402480A0350
1001
ACAD
1000
AcDbSavedByObjectVersion
1070
     0
  0
ACAD_PROXY_OBJECT
  5
34
102
{ACAD_REACTORS
330
2A
102
}
330
2A
100
AcDbProxyObject
 90
      499
 91
      501
 93
      500
310
4290DBDB98D95C1D1D585B10940D028333333333333E33F0000000000000F90107902409070040501000000000018199010841D405064090740C02480A0340
1001
ACAD
1000
AcDbSavedByObjectVersion
1070
     0
  0
ACAD_PROXY_OBJECT
  5
35
102
{ACAD_REACTORS
330
2A
102
}
330
2A
100
AcDbProxyObject
 90
      499
 91
      501
 93
      412
310
40D11A5B50B409028333333333333E33F0000000000000F9010790141107004050150841D405064090741402480A02677FFFFFD0
1001
ACAD
1000
AcDbSavedByObjectVersion
1070
     0
  0
ACAD_PROXY_OBJECT
  5
3D
102
{ACAD_REACTORS
330
2A
102
}
330
2A
100
AcDbProxyObject
 90
      499
 91
      501
 93
      452
310
43115919D950DBDB1BDC93D999916409028333333333333E33F0000000000000F9010790141107004050150841D405064090741402480A0350
1001
ACAD
1000
AcDbSavedByObjectVersion
1070
     0
  0
ACAD_PROXY_OBJECT
  5
39
102
{ACAD_REACTORS
330
2A
102
}
330
2A
100
AcDbProxyObject
 90
      499
 91
      501
 93
      444
310
42D19858D95C185D1D195C9B90F409028333333333333E33F0000000000000F9010790141107004050150841D405064090741402480A0350
1001
ACAD
1000
AcDbSavedByObjectVersion
1070
     0
  0
ACAD_PROXY_OBJECT
  5
2B
102
{ACAD_REACTORS
330
2A
102
}
330
2A
100
AcDbProxyObject
 90
      499
 91
      501
 93
      380
310
41119B185D240901404333333333333E33F0000000000000F9010740A907004050150841D405064090741402480A1B50
1001
ACAD
1000
AcDbSavedByObjectVersion
1070
     0
  0
ACAD_PROXY_OBJECT
  5
2C
102
{ACAD_REACTORS
330
2A
102
}
330
2A
100
AcDbProxyObject
 90
      499
 91
      501
 93
      468
310
43519B185D15DA5D1A115919D95CD0140901404333333333333E33F0000000000000F90107409019070040501600405405064090741402480A1B50
1001
ACAD
1000
AcDbSavedByObjectVersion
1070
     0
  0
ACAD_PROXY_OBJECT
  5
2D
102
{ACAD_REACTORS
330
2A
102
}
330
2A
100
AcDbProxyObject
 90
      499
 91
      501
 93
      404
310
41D1DBDD5C985D5910240902404333333333333E33F0000000000000F9010740A9070040501641D405064090741402480A1B50
1001
ACAD
1000
AcDbSavedByObjectVersion
1070
     0
  0
ACAD_PROXY_OBJECT
  5
2E
102
{ACAD_REACTORS
330
2A
102
}
330
2A
100
AcDbProxyObject
 90
      499
 91
      501
 93
      492
310
4411DBDD5C985D5915DA5D1A115919D95CD0340902404333333333333E33F0000000000000F90107409019070040501600405405064090741402480A1B50
1001
ACAD
1000
AcDbSavedByObjectVersion
1070
     0
  0
ACAD_PROXY_OBJECT
  5
31
102
{ACAD_REACTORS
330
2A
102
}
330
2A
100
AcDbProxyObject
 90
      499
 91
      501
 93
      476
310
41921A5919195B90640502408333333333333E33F0000000000000F901079024090700405020000000000001110200405405064090740C02480A0340
1001
ACAD
1000
AcDbSavedByObjectVersion
1070
     0
  0
ACAD_PROXY_OBJECT
  5
3B
102
{ACAD_REACTORS
330
2A
102
}
330
2A
100
AcDbProxyObject
 90
      499
 91
      501
 93
      428
310
42529A5D1D195C93D999914409028333333333333E33F0000000000000F9010790141107004050150A41D405064090741402480A0350
1001
ACAD
1000
AcDbSavedByObjectVersion
1070
     0
  0
ACAD_PROXY_OBJECT
  5
38
102
{ACAD_REACTORS
330
2A
102
}
330
2A
100
AcDbProxyObject
 90
      499
 91
      501
 93
      444
310
42D31A5B995C185D1D195C9B90E409028333333333333E33F0000000000000F9010790141107004050750841D405064090741402483A0350
1001
ACAD
1000
AcDbSavedByObjectVersion
1070
     0
  0
ACAD_PROXY_OBJECT
  5
3C
102
{ACAD_REACTORS
330
2A
102
}
330
2A
100
AcDbProxyObject
 90
      499
 91
      501
 93
      444
310
42D3DD995C9A185B99D3D999915409028333333333333E33F0000000000000F9010790141107004050150941D405064090741402480A0350
1001
ACAD
1000
AcDbSavedByObjectVersion
1070
     0
  0
ACAD_PROXY_OBJECT
  5
33
102
{ACAD_REACTORS
330
2A
102
}
330
2A
100
AcDbProxyObject
 90
      499
 91
      501
 93
      428
310
425499585B1A5CDD1A58D08409038333333333333E33F0000000000000F9010740A907004050150800405405064090740C02480A1B40
1001
ACAD
1000
AcDbSavedByObjectVersion
1070
     0
  0
ACAD_PROXY_OBJECT
  5
42
102
{ACAD_REACTORS
330
2A
102
}
330
2A
100
AcDbProxyObject
 90
      499
 91
      501
 93
      420
310
4194DA1859195911B40902404333333333333E33F0000000000000F9010740A41107004050150800405405064090840C02480A0B40
1001
ACAD
1000
AcDbSavedByObjectVersion
1070
     0
  0
ACAD_PROXY_OBJECT
  5
41
102
{ACAD_REACTORS
330
2A
102
}
330
2A
100
AcDbProxyObject
 90
      499
 91
      501
 93
      516
310
4454DA18591959081DDA5D1A08195919D95CD1A40902404333333333333E33F0000000000000F901074090142907004050250800405405064090740C02480A0B40
1001
ACAD
1000
AcDbSavedByObjectVersion
1070
     0
  0
ACAD_PROXY_OBJECT
  5
3E
102
{ACAD_REACTORS
330
2A
102
}
330
2A
100
AcDbProxyObject
 90
      499
 91
      501
 93
      532
310
4394DA1859195CC81BD98811DC985E5174090240C333333333333E33F0000000000000F901079024090741D01000000000000111010841D405064090740C02480A0340
1001
ACAD
1000
AcDbSavedByObjectVersion
1070
     0
  0
ACAD_PROXY_OBJECT
  5
3F
102
{ACAD_REACTORS
330
2A
102
}
330
2A
100
AcDbProxyObject
 90
      499
 91
      501
 93
      476
310
41D4DAD95D18DA1E51840502408333333333333E33F0000000000000F901079024090741D01000000000000111010B41D405064090741802480A0340
1001
ACAD
1000
AcDbSavedByObjectVersion
1070
     0
  0
ACAD_PROXY_OBJECT
  5
37
102
{ACAD_REACTORS
330
2A
102
}
330
2A
100
AcDbProxyObject
 90
      499
 91
      501
 93
      412
310
41D51A1A58DAD95B90D409028333333333333E33F0000000000000F9010790141107004050150C41D405064090741402480A0350
1001
ACAD
1000
AcDbSavedByObjectVersion
1070
     0
  0
ACAD_PROXY_OBJECT
  5
30
102
{ACAD_REACTORS
330
2A
102
}
330
2A
100
AcDbProxyObject
 90
      499
 91
      501
 93
      420
310
4255DA5C99599C985B595059028333333333333E33F0000000000000F90107901411070040501600405405064090740C02480A0340
1001
ACAD
1000
AcDbSavedByObjectVersion
1070
     0
  0
ACAD_PROXY_OBJECT
  5
40
102
{ACAD_REACTORS
330
2A
102
}
330
2A
100
AcDbProxyObject
 90
      499
 91
      501
 93
      404
310
41560B54985E51940902404000000000000E03F0000000000000F9010740501907004050150841D405064090740C02480A1B40
1001
ACAD
1000
AcDbSavedByObjectVersion
1070
     0
  0
XRECORD
  5
522
102
{ACAD_REACTORS
330
518
102
}
330
518
100
AcDbXrecord
340
0
  0
XRECORD
  5
521
102
{ACAD_REACTORS
330
518
102
}
330
518
100
AcDbXrecord
 90
        0
  0
XRECORD
  5
538
102
{ACAD_REACTORS
330
518
102
}
330
518
100
AcDbXrecord
1000
DSTYLE
1002
{
1070
   340
340
11
1002
}
  0
XRECORD
  5
523
102
{ACAD_REACTORS
330
518
102
}
330
518
100
AcDbXrecord
  1
{a1cc444e-a584-4f5b-980e-3e2994f84262}
  0
XRECORD
  5
51B
102
{ACAD_REACTORS
330
518
102
}
330
518
100
AcDbXrecord
  1

  0
XRECORD
  5
520
102
{ACAD_REACTORS
330
518
102
}
330
518
100
AcDbXrecord
 90
        4
  0
XRECORD
  5
51D
102
{ACAD_REACTORS
330
518
102
}
330
518
100
AcDbXrecord
340
1A
  0
XRECORD
  5
51F
102
{ACAD_REACTORS
330
518
102
}
330
518
100
AcDbXrecord
 90
    10781
  0
XRECORD
  5
51E
102
{ACAD_REACTORS
330
518
102
}
330
518
100
AcDbXrecord
340
19
  0
XRECORD
  5
525
102
{ACAD_REACTORS
330
518
102
}
330
518
100
AcDbXrecord
 40
0.0
  0
XRECORD
  5
528
102
{ACAD_REACTORS
330
518
102
}
330
518
100
AcDbXrecord
340
0
  0
XRECORD
  5
52E
102
{ACAD_REACTORS
330
518
102
}
330
518
100
AcDbXrecord
 10
0.0
 20
0.0
 30
0.0
  0
XRECORD
  5
52A
102
{ACAD_REACTORS
330
518
102
}
330
518
100
AcDbXrecord
 10
0.0
 20
0.0
 30
0.0
  0
XRECORD
  5
52D
102
{ACAD_REACTORS
330
518
102
}
330
518
100
AcDbXrecord
 10
0.0
 20
0.0
 30
0.0
  0
XRECORD
  5
52B
102
{ACAD_REACTORS
330
518
102
}
330
518
100
AcDbXrecord
 10
0.0
 20
0.0
 30
0.0
  0
XRECORD
  5
52C
102
{ACAD_REACTORS
330
518
102
}
330
518
100
AcDbXrecord
 10
0.0
 20
0.0
 30
0.0
  0
XRECORD
  5
529
102
{ACAD_REACTORS
330
518
102
}
330
518
100
AcDbXrecord
 10
0.0
 20
0.0
 30
0.0
  0
XRECORD
  5
526
102
{ACAD_REACTORS
330
518
102
}
330
518
100
AcDbXrecord
340
0
  0
XRECORD
  5
527
102
{ACAD_REACTORS
330
518
102
}
330
518
100
AcDbXrecord
 70
     0
  0
XRECORD
  5
51C
102
{ACAD_REACTORS
330
518
102
}
330
518
100
AcDbXrecord
  1

  0
XRECORD
  5
519
102
{ACAD_REACTORS
330
518
102
}
330
518
100
AcDbXrecord
 90
        1
  0
XRECORD
  5
51A
102
{ACAD_REACTORS
330
518
102
}
330
518
100
AcDbXrecord
 90
       70
  0
XRECORD
  5
531
102
{ACAD_REACTORS
330
518
102
}
330
518
100
AcDbXrecord
340
0
  0
XRECORD
  5
537
102
{ACAD_REACTORS
330
518
102
}
330
518
100
AcDbXrecord
 10
0.0
 20
0.0
 30
0.0
  0
XRECORD
  5
533
102
{ACAD_REACTORS
330
518
102
}
330
518
100
AcDbXrecord
 10
0.0
 20
0.0
 30
0.0
  0
XRECORD
  5
536
102
{ACAD_REACTORS
330
518
102
}
330
518
100
AcDbXrecord
 10
0.0
 20
0.0
 30
0.0
  0
XRECORD
  5
534
102
{ACAD_REACTORS
330
518
102
}
330
518
100
AcDbXrecord
 10
0.0
 20
0.0
 30
0.0
  0
XRECORD
  5
535
102
{ACAD_REACTORS
330
518
102
}
330
518
100
AcDbXrecord
 10
0.0
 20
0.0
 30
0.0
  0
XRECORD
  5
532
102
{ACAD_REACTORS
330
518
102
}
330
518
100
AcDbXrecord
 10
0.0
 20
0.0
 30
0.0
  0
XRECORD
  5
52F
102
{ACAD_REACTORS
330
518
102
}
330
518
100
AcDbXrecord
340
0
  0
XRECORD
  5
530
102
{ACAD_REACTORS
330
518
102
}
330
518
100
AcDbXrecord
 70
     0
  0
XRECORD
  5
524
102
{ACAD_REACTORS
330
518
102
}
330
518
100
AcDbXrecord
  1
{FAEB1C32-E019-11D5-929B-00C0DF256EC4}
  0
DICTIONARYVAR
  5
546
102
{ACAD_REACTORS
330
539
102
}
330
539
100
DictionaryVariables
280
     0
  1
1:1
  0
DICTIONARYVAR
  5
540
102
{ACAD_REACTORS
330
539
102
}
330
539
100
DictionaryVariables
280
     0
  1
3.500000
  0
DICTIONARYVAR
  5
541
102
{ACAD_REACTORS
330
539
102
}
330
539
100
DictionaryVariables
280
     0
  1
acadiso.lin
  0
DICTIONARYVAR
  5
53B
102
{ACAD_REACTORS
330
539
102
}
330
539
100
DictionaryVariables
280
     0
  1
Standard
  0
DICTIONARYVAR
  5
53A
102
{ACAD_REACTORS
330
539
102
}
330
539
100
DictionaryVariables
280
     0
  1
Standard
  0
DICTIONARYVAR
  5
542
102
{ACAD_REACTORS
330
539
102
}
330
539
100
DictionaryVariables
280
     0
  1
2
  0
DICTIONARYVAR
  5
543
102
{ACAD_REACTORS
330
539
102
}
330
539
100
DictionaryVariables
280
     0
  1
1
  0
DICTIONARYVAR
  5
547
102
{ACAD_REACTORS
330
539
102
}
330
539
100
DictionaryVariables
280
     0
  1
1
  0
DICTIONARYVAR
  5
53D
102
{ACAD_REACTORS
330
539
102
}
330
539
100
DictionaryVariables
280
     0
  1
80.000000
  0
DICTIONARYVAR
  5
53C
102
{ACAD_REACTORS
330
539
102
}
330
539
100
DictionaryVariables
280
     0
  1
5.000000
  0
DICTIONARY
  5
54A
330
45
100
AcDbDictionary
280
     1
  3
ACAD_XREC_ROUNDTRIP
360
54B
  0
DICTIONARY
  5
548
330
44
100
AcDbDictionary
280
     1
  3
ACAD_XREC_ROUNDTRIP
360
549
  0
DICTIONARY
  5
54C
330
46
100
AcDbDictionary
280
     1
  3
ACAD_XREC_ROUNDTRIP
360
54D
  0
XRECORD
  5
54B
102
{ACAD_REACTORS
330
54A
102
}
330
54A
100
AcDbXrecord
102
MATERIAL
148
0.0
149
0.0
149
0.0
 93
        0
 94
      127
282
     0
 72
     1
 77
     1
171
     1
175
     1
179
     1
273
     0
  0
XRECORD
  5
549
102
{ACAD_REACTORS
330
548
102
}
330
548
100
AcDbXrecord
102
MATERIAL
148
0.0
149
0.0
149
0.0
 93
        0
 94
      127
282
     0
 72
     1
 77
     1
171
     1
175
     1
179
     1
273
     0
  0
XRECORD
  5
54D
102
{ACAD_REACTORS
330
54C
102
}
330
54C
100
AcDbXrecord
102
MATERIAL
148
0.0
149
0.0
149
0.0
 93
        0
 94
      127
282
     0
 72
     1
 77
     1
171
     1
175
     1
179
     1
273
     0
  0
ENDSEC
  0
EOF
